Subcategories

Amy Winehouse - Albums Collection 2003-2012 (6CD) [Re-Up]

Posted By: Designol
Amy Winehouse - Albums Collection 2003-2012 (6CD) [Re-Up]

Amy Winehouse - Albums Collection 2003-2012 (6CD)
EAC | FLAC | Image (Cue&Log) ~ 1.71 Gb | Mp3 (CBR320) ~ 644 Mb | Scans ~ 732 Mb
Genre: R&B, Soul, Vocal Jazz, Vocal Pop, Soul-Blues | Time: 04:41:11

Much can be said about the late Amy Winehouse, one of the U.K.'s flagship vocalists during the 2000s. The British press and tabloids seemed to focus on her rowdy behavior, heavy consumption of alcohol, and tragic end, but fans and critics alike embraced her rugged charm, brash sense of humor, and distinctively soulful and jazzy vocals. Her platinum-selling breakthrough album, Frank (2003), elicited comparisons ranging from Billie Holiday and Sarah Vaughan to Macy Gray and Lauryn Hill. Interestingly enough, despite her strong accent and vernacular, one can often hear aspects of each of those singers' vocal repertoires in Winehouse's own voice. Nonetheless, her allure had always been her songwriting – almost always deeply personal but best known for its profanity and brutal candor.

Born to a taxi-driving father and a pharmacist mother, Winehouse grew up in the Southgate area of northern London. Her upbringing was surrounded by jazz. Many of the uncles on her mother's side were professional jazz musicians, and even her paternal grandmother was romantically involved with British jazz legend Ronnie Scott at one time. While at home, she listened to and absorbed her parents' selection of greats: Dinah Washington, Ella Fitzgerald, and Frank Sinatra among others. However, in her teens, she was drawn to the rebellious spirit of TLC, Salt-N-Pepa, and other American R&B and hip-hop acts of the time. At the age of 16, after she had been expelled from London's Sylvia Young Theatre School, she caught her first break when pop singer Tyler James, a schoolmate and close friend, passed on her demo tape to his A&R representative, who was searching for a jazz vocalist. That opportunity led to her recording contract with Island Records. By the end of 2003, when she was 20 years old, Island had released her debut album, Frank. With contributions from hip-hop producer/keyboardist Salaam Remi, Winehouse's amalgam of jazz, pop, soul, and hip-hop received rave reviews. The album was nominated for the 2004 Mercury Music Prize as well as two Brit Awards, and its lead single, "Stronger Than Me," won an Ivor Novello Award for Best Contemporary Song.

Following Winehouse's debut, the accolades and inquiring interviews appeared concurrently in the press with her tempestuous public life. Several times she showed up to her club or TV performances too drunk to sing an entire set. In 2006, her management company finally suggested that she enter rehab for alcohol abuse, but instead, she dumped the company and transcribed the ordeal into the U.K. Top Ten hit "Rehab," the lead single for her second, critically acclaimed album, Back to Black. Containing evocative productions from Salaam Remi and British DJ/multi-instrumentalist Mark Ronson, the album somewhat abandoned jazz, delving into the sounds of '50s/'60s-era girl group harmonies, rock & roll, and soul. The fanfare over the release was so great that it started to spill over onto U.S. shores; several rappers and DJs made their own remixes of various songs, not to mention covers by Prince and the Arctic Monkeys.

One month after Winehouse won Best Female Artist at the Brit Awards in February 2007, Universal released Back to Black in the U.S. The LP charted higher than any other American debut by a British female recording artist before it, and it remained in the Top Ten for several months, selling a million copies by the end of that summer. Just as in the U.K., she became the talk of the town, landing on the covers of Rolling Stone and Spin magazines. Not long afterward, though, Winehouse canceled her North American tour. Early reports revealed that she was entering rehab for alcohol and drug addiction, but her new management denied the claims, stating it was due to severe exhaustion. Her erratic behavior kept her and her new husband, Blake Fielder-Civil, in the tabloids constantly, on and off stages on both sides of the Atlantic, but in late 2007, American fans were finally given a chance to hear Winehouse's early work, with a slightly abbreviated (two songs removed and one added) version of Frank.

Unfortunately, the next four years were filled with drama, disappointment, and very little music. By 2009, her marriage had ended in divorce, she had repeatedly been arrested on assault charges and/or public order offenses, her struggles with substance abuse and mental health issues tragically played out in the press. Public performances turned into incoherent disasters, the worst of them posted to video-sharing sites for all to see. A track on the Quincy Jones tribute Q: Soul Bossa Nostra appeared in 2010, while a duet with Tony Bennett was announced in early 2011, but a planned follow-up to Back to Black would never make it past the demo stage. Winehouse was found dead in her Camden, London apartment on July 23, 2011. The coroner's report, delivered three months later, revealed that her blood alcohol content had reached a potentially fatal level.

Nearly two months after her death, Winehouse's first posthumous appearance was released on Tony Bennett's Duets II, where she duetted with him on "Body and Soul." Near the end of 2011, her family's foundation announced the release of Lioness: Hidden Treasures, a posthumous compilation featuring recordings from throughout her career (although a few of the arrangements were recorded after her death). A year after Lioness came At the BBC, a deluxe CD/DVD set – available both as a four-disc box and a smaller two-disc compilation – rounding up all of her live performances for the British Broadcasting Company.

In the summer of 2015, Amy, a documentary by director Asif Kapadia, told her story through photographs, archival footage (in the studio and out), and music. Much of this media had not been available previously. It also contained interviews with friends, family, musical collaborators, and the late singer. That October, a soundtrack was issued that alternated previously released and unreleased Winehouse material with pieces from the film's score.

Cyril Cordor, Allmusic.com

Amy Winehouse - Albums Collection 2003-2012 (6CD) [Re-Up]






Amy Winehouse - Albums Collection 2003-2012 (6CD) [Re-Up]

Amy Winehouse - Frank (2003) 2CD Deluxe Edition 2008
EAC | FLAC | Image (Cue&Log) ~ 783 Mb | Mp3 (CBR320) ~ 296 Mb | Scans ~ 149 Mb
Label: Universal/Island | # 1768122 | Time: 02:08:56

If a series of unfortunate comparisons (like the ones to follow) cause listeners to equate British vocalist Amy Winehouse with Macy Gray, it's only natural. Both come on like a hybrid of Billie Holiday and Lauryn Hill who's had a tipple and then attempted one more late-night set at a supper club than they should have. Despite her boozy persona and loose-limbed delivery, though, Winehouse is an excellent vocalist possessing both power and subtlety, the latter an increasingly rare commodity among contemporary female vocalists (whether jazz or R&B). What lifts her above Macy Gray is the fact that her music and her career haven't been marketed within an inch of their life. Instead of Gray's stale studio accompaniments, Winehouse has talented musicians playing loose charts behind her with room for a few solos. Instead of a series of vocal mellifluities programmed to digital perfection, Winehouse's record has the feeling of being allowed to grow on its own – without being meddled with and fussed over (and losing its soul in the process). Simply hearing Winehouse vamp for a few minutes over some Brazilian guitar lines on "You Sent Me Flying" is a rare and immense pleasure. Also, like Nellie McKay (but unlike nearly all of her contemporaries), Winehouse songs like "Fuck Me Pumps," "Take the Box," and "I Heard Love Is Blind" cast a cool, critical gaze over the music scene, over the dating scene, and even over the singer herself. With "In My Bed," she even proves she can do a commercial R&B production, and a club version of "Moody's Mood for Love" not only solidifies her jazz credentials but proves she can survive in the age of Massive Attack. [A greatly expanded version of Frank released in 2008 added four demos, the B-sides "Around Midnight" and "Fools Gold," six tracks recorded live or in session, and remixes including the Frank songs "F**k Me Pumps" (by MJ Cole), "Take the Box" (by Seiji), and "Stronger Than Me" by Mark Pritchard's Harmonic 33 project.]

Review by John Bush, Allmusic.com

Tracklist:

CD1 (58:46)

01. Intro / Stronger Than Me (3:54)
02. You Sent Me Flying / Cherry (6:51)
03. Know You Now (3:03)
04. Fuck Me Pumps (3:21)
05. I Heard Love Is Blind (2:10)
06. Moody's Mood For Love / Teo Licks (3:29)
07. (There Is) No Greater Love (2:09)
08. In My Bed (5:17)
09. Take The Box (3:20)
10. October Song (3:25)
11. What Is It About Men (3:30)
12. Help Yourself (5:01)
13. Amy Amy Amy / Outro / Brother / Mr.Magic (Through The Smoke) (13:17)


CD2 (1:10:10)

01. Take The Box (Original Demo) (3:26)
02. I Heard Love Is Blind (Original Demo) (2:14)
03. Someone To Watch Over Me (Original Demo) (4:30)
04. What It Is (Original Demo) (4:45)
05. Teach Me Tonight (Hootenanny) (3:23)
06. 'Round Midnight (B-side) (3:50)
07. Fool's Gold (B-side) (3:41)
08. Stronger Than Me (Later with Jools Holland) (3:53)
09. I Heard Love Is Blind (Live at The Concorde, Brighton) (2:29)
10. Take The Box (Live at The Concorde, Brighton) (3:34)
11. In My Bed (Live at The Concorde, Brighton) (5:38)
12. Mr. Magic (Through The Smoke) (Janice Long Session) (4:06)
13. (There is) No Greater Love (Janice Long Session) (2:39)
14. Fuck Me Pumps (MJ Cole Mix) (5:55)
15. Take The Box (Seijis Buggin' Mix) (7:49)
16. Stronger Than Me (Harmonic 33 Mix) (3:43)
17. In My Bed (CJ Mix) (4:36)


Exact Audio Copy V1.0 beta 3 from 29. August 2011

EAC extraction logfile from 27. February 2013, 20:30

Amy Winehouse / Frank

Used drive : Optiarc BD RW BD-5300S Adapter: 3 ID: 0

Read mode : Secure
Utilize accurate stream : Yes
Defeat audio cache : Yes
Make use of C2 pointers : No

Read offset correction : 6
Overread into Lead-In and Lead-Out : No
Fill up missing offset samples with silence : Yes
Delete leading and trailing silent blocks : No
Null samples used in CRC calculations : Yes
Used interface : Installed external ASPI interface

Used output format : User Defined Encoder
Selected bitrate : 1024 kBit/s
Quality : High
Add ID3 tag : No
Command line compressor : C:\Program Files (x86)\Exact Audio Copy\Flac\flac.exe
Additional command line options : -8 -V -T "Date=%year%" -T "Genre=%genre%" -T "COMMENT=ripped by bvstudio®" %source%


TOC of the extracted CD

Track | Start | Length | Start sector | End sector
––––––––––––––––––––––––––––-
1 | 0:00.00 | 3:54.08 | 0 | 17557
2 | 3:54.08 | 6:50.57 | 17558 | 48364
3 | 10:44.65 | 3:03.19 | 48365 | 62108
4 | 13:48.09 | 3:20.45 | 62109 | 77153
5 | 17:08.54 | 2:10.06 | 77154 | 86909
6 | 19:18.60 | 3:28.70 | 86910 | 102579
7 | 22:47.55 | 2:08.70 | 102580 | 112249
8 | 24:56.50 | 5:17.01 | 112250 | 136025
9 | 30:13.51 | 3:20.14 | 136026 | 151039
10 | 33:33.65 | 3:24.69 | 151040 | 166408
11 | 36:58.59 | 3:29.42 | 166409 | 182125
12 | 40:28.26 | 5:01.00 | 182126 | 204700
13 | 45:29.26 | 13:16.55 | 204701 | 264455


Range status and errors

Selected range

Filename F:\Amy Winehouse\2003 - Frank (The Deluxe Edition 2008)\CD1\Amy Winehouse - Frank.wav

Peak level 99.8 %
Extraction speed 7.3 X
Range quality 100.0 %
Test CRC D9DDB50B
Copy CRC D9DDB50B
Copy OK

No errors occurred


AccurateRip summary

Track 1 accurately ripped (confidence 23) [3B825CC3] (AR v2)
Track 2 accurately ripped (confidence 23) [1163DBE1] (AR v2)
Track 3 accurately ripped (confidence 23) [0BB6F04F] (AR v2)
Track 4 accurately ripped (confidence 23) [C2C67A33] (AR v2)
Track 5 accurately ripped (confidence 23) [313B0DF6] (AR v2)
Track 6 accurately ripped (confidence 23) [3DE2A79C] (AR v2)
Track 7 accurately ripped (confidence 23) [92F37707] (AR v2)
Track 8 accurately ripped (confidence 23) [DA4EED09] (AR v2)
Track 9 accurately ripped (confidence 23) [51916E80] (AR v2)
Track 10 accurately ripped (confidence 23) [4EBFA95A] (AR v2)
Track 11 accurately ripped (confidence 23) [0B38DCDE] (AR v2)
Track 12 accurately ripped (confidence 23) [AA59B368] (AR v2)
Track 13 accurately ripped (confidence 23) [A9ADCC5E] (AR v2)

All tracks accurately ripped

End of status report

–– CUETools DB Plugin V2.1.4

[CTDB TOCID: rpl._yq1Ei2oxKim00WVGDcziio-] found
Submit result: rpl._yq1Ei2oxKim00WVGDcziio- has been confirmed
Track | CTDB Status
1 | (74/74) Accurately ripped
2 | (73/74) Accurately ripped
3 | (74/74) Accurately ripped
4 | (73/74) Accurately ripped
5 | (74/74) Accurately ripped
6 | (74/74) Accurately ripped
7 | (74/74) Accurately ripped
8 | (74/74) Accurately ripped
9 | (74/74) Accurately ripped
10 | (74/74) Accurately ripped
11 | (73/74) Accurately ripped
12 | (73/74) Accurately ripped
13 | (73/74) Accurately ripped


==== Log checksum 13665BF2A8EA207B8219D1F4B9EC9C85462564DB1456047D2A567FD677FB56B9 ====

[CUETools log; Date: 23.05.2018 15:56:44; Version: 2.1.4]
[CTDB TOCID: rpl._yq1Ei2oxKim00WVGDcziio-] found.
Track | CTDB Status
1 | (485/488) Accurately ripped
2 | (487/488) Accurately ripped
3 | (487/488) Accurately ripped
4 | (487/488) Accurately ripped
5 | (487/488) Accurately ripped
6 | (487/488) Accurately ripped
7 | (487/488) Accurately ripped
8 | (485/488) Accurately ripped
9 | (485/488) Accurately ripped
10 | (486/488) Accurately ripped
11 | (485/488) Accurately ripped
12 | (487/488) Accurately ripped
13 | (483/488) Accurately ripped
[AccurateRip ID: 001897a4-00f52620-900dc60d] found.
Track [ CRC | V2 ] Status
01 [e377f3c2|3b825cc3] (113+200/447) Accurately ripped
02 [74041a23|1163dbe1] (112+200/447) Accurately ripped
03 [6ceaf941|0bb6f04f] (113+200/449) Accurately ripped
04 [0f163096|c2c67a33] (111+200/447) Accurately ripped
05 [4bf62d19|313b0df6] (111+200/447) Accurately ripped
06 [9af7ce7d|3de2a79c] (110+200/446) Accurately ripped
07 [d99738d8|92f37707] (113+200/448) Accurately ripped
08 [6f382a5a|da4eed09] (107+200/442) Accurately ripped
09 [eb218bb8|51916e80] (112+200/448) Accurately ripped
10 [6d6751d2|4ebfa95a] (111+200/445) Accurately ripped
11 [6f925332|0b38dcde] (110+200/444) Accurately ripped
12 [4829a645|aa59b368] (111+200/447) Accurately ripped
13 [f277dd9c|a9adcc5e] (111+200/443) Accurately ripped
Offsetted by -664:
01 [c6eca182] (002/447) Accurately ripped
02 [f433d10b] (002/447) Accurately ripped
03 [d7b109f1] (002/449) Accurately ripped
04 [ab08d7ba] (002/447) Accurately ripped
05 [c01c1719] (002/447) Accurately ripped
06 [176a139d] (002/446) Accurately ripped
07 [03e309e8] (002/448) Accurately ripped
08 [3f29f782] (002/442) Accurately ripped
09 [82b52038] (002/448) Accurately ripped
10 [da5c9450] (002/445) Accurately ripped
11 [44ddd111] (002/444) Accurately ripped
12 [fab2842d] (002/447) Accurately ripped
13 [76444227] (002/443) Accurately ripped
Offsetted by -80:
01 [c75ad442] (002/447) Accurately ripped
02 [45c5fed3] (002/447) Accurately ripped
03 [d33a5ae1] (002/449) Accurately ripped
04 [2380c494] (002/447) Accurately ripped
05 [ff0d3d03] (002/447) Accurately ripped
06 [3aece63d] (002/446) Accurately ripped
07 [a4158fb8] (002/448) Accurately ripped
08 [008fe68a] (002/442) Accurately ripped
09 [b048eab8] (002/448) Accurately ripped
10 [5bcb25b9] (002/445) Accurately ripped
11 [b61eedc6] (002/444) Accurately ripped
12 [95d9cc3b] (002/447) Accurately ripped
13 [e00883df] (002/443) Accurately ripped
Offsetted by -36:
01 [0a047262] (007/447) Accurately ripped
02 [5f34f43f] (007/447) Accurately ripped
03 [415b7ec9] (007/449) Accurately ripped
04 [4619a7b1] (007/447) Accurately ripped
05 [db5dc182] (007/447) Accurately ripped
06 [d626192d] (007/446) Accurately ripped
07 [9b1cdff0] (007/448) Accurately ripped
08 [d7060bd6] (007/442) Accurately ripped
09 [10a67678] (007/448) Accurately ripped
10 [e8cc79b0] (006/445) Accurately ripped
11 [9b235eff] (007/444) Accurately ripped
12 [6f870786] (007/447) Accurately ripped
13 [1bf92874] (007/443) Accurately ripped
Offsetted by -18:
01 [f6be3312] (030/447) Accurately ripped
02 [e99c8731] (029/447) Accurately ripped
03 [57233c05] (030/449) Accurately ripped
04 [2c39fa13] (030/447) Accurately ripped
05 [136ff76e] (030/447) Accurately ripped
06 [b88ef3d5] (030/446) Accurately ripped
07 [3a5a0c64] (029/448) Accurately ripped
08 [231f1b18] (029/442) Accurately ripped
09 [7de40118] (030/448) Accurately ripped
10 [ad5378df] (029/445) Accurately ripped
11 [06e8d5f2] (028/444) Accurately ripped
12 [8c4c3580] (030/447) Accurately ripped
13 [06e8830a] (029/443) Accurately ripped
Offsetted by 10:
01 [66fb97b2] (003/447) Accurately ripped
02 [f9cbdd8d] (003/447) Accurately ripped
03 [40210d0d] (003/449) Accurately ripped
04 [b3e02104] (003/447) Accurately ripped
05 [16304ad1] (003/447) Accurately ripped
06 [a6f92b85] (003/446) Accurately ripped
07 [c0476dfc] (003/448) Accurately ripped
08 [7d0d32d4] (003/442) Accurately ripped
09 [d27c9fd8] (003/448) Accurately ripped
10 [96e6f420] (003/445) Accurately ripped
11 [e3718bc7] (003/444) Accurately ripped
12 [68655507] (003/447) Accurately ripped
13 [759b48c9] (003/443) Accurately ripped
Offsetted by -654:
01 [4a704572] (000/447) No match (V2 was not tested)
02 [79fb9475] (000/447) No match (V2 was not tested)
03 [aae71dbd] (000/449) No match (V2 was not tested)
04 [5c0cc416] (000/447) No match (V2 was not tested)
05 [81a038e3] (000/447) No match (V2 was not tested)
06 [236b70a5] (000/446) No match (V2 was not tested)
07 [ea933f0c] (000/448) No match (V2 was not tested)
08 [4cfefffc] (000/442) No match (V2 was not tested)
09 [6a103458] (000/448) No match (V2 was not tested)
10 [ba1412be] (000/445) No match (V2 was not tested)
11 [9758f6d5] (000/444) No match (V2 was not tested)
12 [c5c57f08] (000/447) No match (V2 was not tested)
13 [edf1ad78] (000/443) No match (V2 was not tested)
Offsetted by -6:
01 [948f5e32] (000/447) No match (V2 was not tested)
02 [f08c3e7d] (000/447) No match (V2 was not tested)
03 [bafdba2d] (000/449) No match (V2 was not tested)
04 [1de37161] (000/447) No match (V2 was not tested)
05 [39121b3c] (000/447) No match (V2 was not tested)
06 [fa2a3045] (000/446) No match (V2 was not tested)
07 [4f2d7f5c] (000/448) No match (V2 was not tested)
08 [00852544] (000/442) No match (V2 was not tested)
09 [c6b7b2d8] (000/448) No match (V2 was not tested)
10 [49cb7d93] (000/445) No match (V2 was not tested)
11 [f6c4cfe4] (000/444) No match (V2 was not tested)
12 [6e1b9f90] (000/447) No match (V2 was not tested)
13 [a3e16a18] (000/443) No match (V2 was not tested)

Track Peak [ CRC32 ] [W/O NULL] [ LOG ]
– 99,8 [D9DDB50B] [4AEC5FA3] CRC32
01 99,8 [4FFDD864] [FC1EFE41]
02 99,8 [4F27ABE2] [B8439BE8]
03 99,8 [7BFE7301] [786CAB1C]
04 99,8 [5B9B90C5] [DFA52D0D]
05 99,8 [497A1834] [60BE6FEF]
06 99,8 [4DB71BC8] [719CD423]
07 99,8 [5FAF73D7] [BFBE4FDA]
08 99,8 [B11C856B] [2CEF57EE]
09 99,8 [DA933D60] [4F5FF627]
10 99,8 [3F6C93E1] [96BD9E99]
11 99,8 [B08113C9] [834ABC27]
12 99,8 [9E0254C6] [A3AED6EA]
13 99,8 [E469215C] [6C2AFEB5]

foobar2000 1.2 / Dynamic Range Meter 1.1.1
log date: 2018-05-23 17:07:16

––––––––––––––––––––––––––––––––––––––––
Analyzed: Amy Winehouse / Frank
––––––––––––––––––––––––––––––––––––––––

DR Peak RMS Duration Track
––––––––––––––––––––––––––––––––––––––––
DR6 -0.01 dB -7.90 dB 3:54 01-Intro / Stronger Than Me
DR8 -0.01 dB -10.42 dB 6:51 02-You Sent Me Flying / Cherry
DR7 -0.01 dB -8.86 dB 3:03 03-Know You Now
DR9 -0.01 dB -10.77 dB 3:21 04-Fuck Me Pumps
DR12 -0.01 dB -14.35 dB 2:10 05-I Heard Love Is Blind
DR7 -0.01 dB -8.28 dB 3:29 06-Moody's Mood For Love / Teo Licks
DR12 -0.01 dB -14.87 dB 2:09 07-(There Is) No Greater Love
DR7 -0.01 dB -8.87 dB 5:17 08-In My Bed
DR9 -0.01 dB -10.44 dB 3:20 09-Take The Box
DR8 -0.01 dB -8.90 dB 3:25 10-October Song
DR7 -0.01 dB -9.12 dB 3:30 11-What Is It About Men
DR6 -0.01 dB -8.30 dB 5:01 12-Help Yourself
DR7 -0.01 dB -8.82 dB 13:17 13-Amy Amy Amy / Outro / Brother / Mr.Magic (Through The Smoke)
––––––––––––––––––––––––––––––––––––––––

Number of tracks: 13
Official DR value: DR8

Samplerate: 44100 Hz
Channels: 2
Bits per sample: 16
Bitrate: 853 kbps
Codec: FLAC
================================================================================


Exact Audio Copy V1.0 beta 3 from 29. August 2011

EAC extraction logfile from 27. February 2013, 21:03

Amy Winehouse / Frank (Bonus Disc)

Used drive : Optiarc BD RW BD-5300S Adapter: 3 ID: 0

Read mode : Secure
Utilize accurate stream : Yes
Defeat audio cache : Yes
Make use of C2 pointers : No

Read offset correction : 6
Overread into Lead-In and Lead-Out : No
Fill up missing offset samples with silence : Yes
Delete leading and trailing silent blocks : No
Null samples used in CRC calculations : Yes
Used interface : Installed external ASPI interface

Used output format : User Defined Encoder
Selected bitrate : 1024 kBit/s
Quality : High
Add ID3 tag : No
Command line compressor : C:\Program Files (x86)\Exact Audio Copy\Flac\flac.exe
Additional command line options : -8 -V -T "Date=%year%" -T "Genre=%genre%" -T "COMMENT=ripped by bvstudio®" %source%


TOC of the extracted CD

Track | Start | Length | Start sector | End sector
––––––––––––––––––––––––––––-
1 | 0:00.00 | 3:26.17 | 0 | 15466
2 | 3:26.17 | 2:13.54 | 15467 | 25495
3 | 5:39.71 | 4:29.44 | 25496 | 45714
4 | 10:09.40 | 4:45.22 | 45715 | 67111
5 | 14:54.62 | 3:22.71 | 67112 | 82332
6 | 18:17.58 | 3:49.63 | 82333 | 99570
7 | 22:07.46 | 3:40.58 | 99571 | 116128
8 | 25:48.29 | 3:53.29 | 116129 | 133632
9 | 29:41.58 | 2:29.15 | 133633 | 144822
10 | 32:10.73 | 3:33.43 | 144823 | 160840
11 | 35:44.41 | 5:37.56 | 160841 | 186171
12 | 41:22.22 | 4:05.47 | 186172 | 204593
13 | 45:27.69 | 2:38.45 | 204594 | 216488
14 | 48:06.39 | 5:54.63 | 216489 | 243101
15 | 54:01.27 | 7:48.50 | 243102 | 278251
16 | 61:50.02 | 3:43.16 | 278252 | 294992
17 | 65:33.18 | 4:36.33 | 294993 | 315725


Range status and errors

Selected range

Filename F:\Amy Winehouse\2003 - Frank (The Deluxe Edition 2008)\CD2\Amy Winehouse - Frank (Bonus Disc).wav

Peak level 100.0 %
Extraction speed 8.2 X
Range quality 100.0 %
Test CRC B5EF30FE
Copy CRC B5EF30FE
Copy OK

No errors occurred


AccurateRip summary

Track 1 accurately ripped (confidence 8) [B4D30B82] (AR v2)
Track 2 accurately ripped (confidence 8) [56433DED] (AR v2)
Track 3 accurately ripped (confidence 8) [253ACBE0] (AR v2)
Track 4 accurately ripped (confidence 8) [CE7A74D1] (AR v2)
Track 5 accurately ripped (confidence 9) [70D7570B] (AR v2)
Track 6 accurately ripped (confidence 9) [C3EF08FD] (AR v2)
Track 7 accurately ripped (confidence 9) [C24B9236] (AR v2)
Track 8 accurately ripped (confidence 8) [D0A4F116] (AR v2)
Track 9 accurately ripped (confidence 9) [D1393D11] (AR v2)
Track 10 accurately ripped (confidence 9) [A0002D61] (AR v2)
Track 11 accurately ripped (confidence 9) [99E73BE4] (AR v2)
Track 12 accurately ripped (confidence 9) [6F4CA6C7] (AR v2)
Track 13 accurately ripped (confidence 9) [00FC84A4] (AR v2)
Track 14 accurately ripped (confidence 9) [170E3262] (AR v2)
Track 15 accurately ripped (confidence 9) [FA2D1B36] (AR v2)
Track 16 accurately ripped (confidence 9) [786C2586] (AR v2)
Track 17 accurately ripped (confidence 9) [EF63E2B9] (AR v2)

All tracks accurately ripped

End of status report

–– CUETools DB Plugin V2.1.4

[CTDB TOCID: 2HII58MqlBnqy2_IvVXky4sHTm8-] found
Submit result: 2HII58MqlBnqy2_IvVXky4sHTm8- has been confirmed
Track | CTDB Status
1 | (33/33) Accurately ripped
2 | (32/33) Accurately ripped
3 | (31/33) Accurately ripped
4 | (33/33) Accurately ripped
5 | (31/33) Accurately ripped
6 | (33/33) Accurately ripped
7 | (32/33) Accurately ripped
8 | (32/33) Accurately ripped
9 | (32/33) Accurately ripped
10 | (32/33) Accurately ripped
11 | (32/33) Accurately ripped
12 | (32/33) Accurately ripped
13 | (32/33) Accurately ripped
14 | (30/33) Accurately ripped
15 | (30/33) Accurately ripped
16 | (32/33) Accurately ripped
17 | (32/33) Accurately ripped


==== Log checksum B92C1B92321E0B2D8429C29E714D45CC4741B6B7DF6C97045EAE59653A545ACA ====

[CUETools log; Date: 23.05.2018 15:57:05; Version: 2.1.4]
[CTDB TOCID: 2HII58MqlBnqy2_IvVXky4sHTm8-] found.
Track | CTDB Status
1 | (256/259) Accurately ripped
2 | (255/259) Accurately ripped
3 | (254/259) Accurately ripped
4 | (255/259) Accurately ripped
5 | (254/259) Accurately ripped
6 | (255/259) Accurately ripped
7 | (254/259) Accurately ripped
8 | (254/259) Accurately ripped
9 | (255/259) Accurately ripped
10 | (255/259) Accurately ripped
11 | (255/259) Accurately ripped
12 | (254/259) Accurately ripped
13 | (255/259) Accurately ripped
14 | (250/259) Accurately ripped
15 | (251/259) Accurately ripped
16 | (254/259) Accurately ripped
17 | (251/259) Accurately ripped
[AccurateRip ID: 00282330-020513d7-fc107111] found.
Track [ CRC | V2 ] Status
01 [cda34d52|b4d30b82] (083+136/240) Accurately ripped
02 [b19d15f9|56433ded] (084+136/241) Accurately ripped
03 [66dd9c72|253acbe0] (084+136/241) Accurately ripped
04 [6389f22f|ce7a74d1] (083+132/236) Accurately ripped
05 [202168f9|70d7570b] (083+136/240) Accurately ripped
06 [04887fb4|c3ef08fd] (084+135/240) Accurately ripped
07 [6ca74e9c|c24b9236] (084+134/239) Accurately ripped
08 [dbdf7d7c|d0a4f116] (082+134/237) Accurately ripped
09 [519befea|d1393d11] (083+135/239) Accurately ripped
10 [04ce383e|a0002d61] (083+136/240) Accurately ripped
11 [c34ed225|99e73be4] (082+136/239) Accurately ripped
12 [579edf2b|6f4ca6c7] (082+135/238) Accurately ripped
13 [f667de58|00fc84a4] (082+136/239) Accurately ripped
14 [d2959691|170e3262] (082+134/237) Accurately ripped
15 [5f8c43d4|fa2d1b36] (081+133/235) Accurately ripped
16 [79100ee2|786c2586] (082+136/239) Accurately ripped
17 [57248e35|ef63e2b9] (080+133/233) Accurately ripped
Offsetted by -664:
01 [8d6de56a] (002/240) Accurately ripped
02 [7821e981] (002/241) Accurately ripped
03 [36b22b62] (002/241) Accurately ripped
04 [aaa5b97f] (002/236) Accurately ripped
05 [91af1951] (002/240) Accurately ripped
06 [a2b786dc] (002/240) Accurately ripped
07 [1dea47fc] (002/239) Accurately ripped
08 [b5abb434] (002/237) Accurately ripped
09 [2107213a] (002/239) Accurately ripped
10 [8ddee156] (002/240) Accurately ripped
11 [7b8b04a5] (002/239) Accurately ripped
12 [bf031a2b] (002/238) Accurately ripped
13 [7f430ef8] (002/239) Accurately ripped
14 [a78cb199] (002/237) Accurately ripped
15 [08bbde34] (002/235) Accurately ripped
16 [e6b209c2] (002/239) Accurately ripped
17 [e8814a95] (002/233) Accurately ripped
Offsetted by -658:
01 [f61b1a04] (002/240) Accurately ripped
02 [a30fbf7f] (002/241) Accurately ripped
03 [a62ad9e6] (002/241) Accurately ripped
04 [a6eba46b] (002/236) Accurately ripped
05 [0ccd6edb] (002/240) Accurately ripped
06 [a8ff9572] (002/240) Accurately ripped
07 [c9ceb024] (002/239) Accurately ripped
08 [54dbfaa6] (002/237) Accurately ripped
09 [08cac9a6] (002/239) Accurately ripped
10 [c8016db0] (002/240) Accurately ripped
11 [47c1fe05] (002/239) Accurately ripped
12 [88df7f6b] (002/238) Accurately ripped
13 [f4c5b450] (002/239) Accurately ripped
14 [1c5f47b7] (002/237) Accurately ripped
15 [7df3ba1c] (002/235) Accurately ripped
16 [7cd65b8a] (002/239) Accurately ripped
17 [35d795fd] (002/233) Accurately ripped
Offsetted by 10:
01 [7c194fa8] (003/240) Accurately ripped
02 [a3d4254b] (003/241) Accurately ripped
03 [20a6bf4e] (003/241) Accurately ripped
04 [b2a92463] (003/236) Accurately ripped
05 [42a94cdf] (003/240) Accurately ripped
06 [b9ab42ae] (003/240) Accurately ripped
07 [8b23fc34] (003/239) Accurately ripped
08 [3a85483a] (003/237) Accurately ripped
09 [d3e2089e] (003/239) Accurately ripped
10 [bb07ccd4] (003/240) Accurately ripped
11 [17aa71c5] (003/239) Accurately ripped
12 [fd6387eb] (003/238) Accurately ripped
13 [64ec4740] (003/239) Accurately ripped
14 [3ff490c3] (003/237) Accurately ripped
15 [cd9407ac] (003/235) Accurately ripped
16 [1df741da] (003/239) Accurately ripped
17 [d809b68d] (003/233) Accurately ripped
Offsetted by -654:
01 [3be3e7c0] (000/240) No match (V2 was not tested)
02 [6a58f8d3] (000/241) No match (V2 was not tested)
03 [f07b4e3e] (000/241) No match (V2 was not tested)
04 [f9c4ebb3] (000/236) No match (V2 was not tested)
05 [b436fd37] (000/240) No match (V2 was not tested)
06 [57da49d6] (000/240) No match (V2 was not tested)
07 [3c66f594] (000/239) No match (V2 was not tested)
08 [14517ef2] (000/237) No match (V2 was not tested)
09 [a34d39ee] (000/239) No match (V2 was not tested)
10 [441875ec] (000/240) No match (V2 was not tested)
11 [cfe6a445] (000/239) No match (V2 was not tested)
12 [64c7c2eb] (000/238) No match (V2 was not tested)
13 [edc777e0] (000/239) No match (V2 was not tested)
14 [14ebabcb] (000/237) No match (V2 was not tested)
15 [76c3a20c] (000/235) No match (V2 was not tested)
16 [8b993cba] (000/239) No match (V2 was not tested)
17 [696672ed] (000/233) No match (V2 was not tested)
Offsetted by 6:
01 [365081ec] (000/240) No match (V2 was not tested)
02 [dc8aebf7] (000/241) No match (V2 was not tested)
03 [d6564af6] (000/241) No match (V2 was not tested)
04 [5fcfdd1b] (000/236) No match (V2 was not tested)
05 [9b3fbe83] (000/240) No match (V2 was not tested)
06 [0ad08e4a] (000/240) No match (V2 was not tested)
07 [188bb6c4] (000/239) No match (V2 was not tested)
08 [7b0fc3ee] (000/237) No match (V2 was not tested)
09 [395f9856] (000/239) No match (V2 was not tested)
10 [3ef0c498] (000/240) No match (V2 was not tested)
11 [8f85cb85] (000/239) No match (V2 was not tested)
12 [217b446b] (000/238) No match (V2 was not tested)
13 [6bea83b0] (000/239) No match (V2 was not tested)
14 [47682caf] (000/237) No match (V2 was not tested)
15 [d4c41fbc] (000/235) No match (V2 was not tested)
16 [0f3460aa] (000/239) No match (V2 was not tested)
17 [a47ad99d] (000/233) No match (V2 was not tested)

Track Peak [ CRC32 ] [W/O NULL] [ LOG ]
– 100,0 [B5EF30FE] [125C7B75] CRC32
01 100,0 [BF51480A] [147C0B78]
02 89,0 [942DAB87] [818ABB10]
03 97,4 [7E123233] [8163C4F7]
04 86,2 [301E9DCF] [31A73C8B]
05 99,0 [8558B82D] [B5CE87FC]
06 99,8 [DFCC5741] [70A96094]
07 99,7 [D2C617FE] [F8A623B6]
08 99,8 [C1DB1DF7] [D412927A]
09 99,3 [00CE874E] [C2C3C76C]
10 100,0 [15D71D3E] [5FD16B2E]
11 100,0 [DD2EA371] [66994755]
12 99,8 [D23914FC] [C279DF71]
13 100,0 [C09C768A] [CDF818FC]
14 100,0 [70F176BB] [FDB690DD]
15 99,0 [EBF38B06] [29C9ECC2]
16 98,8 [754FBAB4] [D84300C1]
17 99,8 [18DB1F64] [7D011027]

foobar2000 1.2 / Dynamic Range Meter 1.1.1
log date: 2018-05-23 17:07:45

––––––––––––––––––––––––––––––––––––––––
Analyzed: Amy Winehouse / Frank (Bonus Disc)
––––––––––––––––––––––––––––––––––––––––

DR Peak RMS Duration Track
––––––––––––––––––––––––––––––––––––––––
DR7 0.00 dB -8.64 dB 3:26 01-Take The Box (Original Demo)
DR10 -1.01 dB -13.97 dB 2:14 02-I Heard Love Is Blind (Original Demo)
DR9 -0.22 dB -12.58 dB 4:30 03-Someone To Watch Over Me (Original Demo)
DR10 -1.28 dB -13.40 dB 4:45 04-What It Is (Original Demo)
DR11 -0.08 dB -14.34 dB 3:23 05-Teach Me Tonight (Hootenanny)
DR6 -0.02 dB -6.70 dB 3:50 06-'Round Midnight (B-side)
DR8 -0.02 dB -9.76 dB 3:41 07-Fool's Gold (B-side)
DR10 -0.01 dB -11.74 dB 3:53 08-Stronger Than Me (Later with Jools Holland)
DR11 -0.06 dB -12.83 dB 2:29 09-I Heard Love Is Blind (Live at The Concorde, Brighton)
DR10 0.00 dB -11.59 dB 3:34 10-Take The Box (Live at The Concorde, Brighton)
DR9 0.00 dB -10.46 dB 5:38 11-In My Bed (Live at The Concorde, Brighton)
DR8 -0.01 dB -10.48 dB 4:06 12-Mr. Magic (Through The Smoke) (Janice Long Session)
DR10 0.00 dB -14.61 dB 2:39 13-(There is) No Greater Love (Janice Long Session)
DR8 0.00 dB -9.19 dB 5:55 14-Fuck Me Pumps (MJ Cole Mix)
DR9 -0.08 dB -10.91 dB 7:49 15-Take The Box (Seijis Buggin' Mix)
DR8 -0.10 dB -8.89 dB 3:43 16-Stronger Than Me (Harmonic 33 Mix)
DR7 -0.01 dB -7.93 dB 4:36 17-In My Bed (CJ Mix)
––––––––––––––––––––––––––––––––––––––––

Number of tracks: 17
Official DR value: DR9

Samplerate: 44100 Hz
Channels: 2
Bits per sample: 16
Bitrate: 844 kbps
Codec: FLAC
================================================================================

Amy Winehouse - Albums Collection 2003-2012 (6CD) [Re-Up]

Amy Winehouse - Albums Collection 2003-2012 (6CD) [Re-Up]




Amy Winehouse - Albums Collection 2003-2012 (6CD) [Re-Up]

Amy Winehouse - Back To Black (2006) 2CD Deluxe Edition 2007
EAC | FLAC | Image (Cue&Log) ~ 378 Mb | Mp3 (CBR320) ~ 134 Mb | Scans ~ 233 Mb
Label: Universal Island | # 175 563 1 | Time: 00:58:35

The story of Back to Black is one in which celebrity and the potential of commercial success threaten to ruin Amy Winehouse, since the same insouciance and playfulness that made her sound so special when she debuted could easily have been whitewashed right out of existence for this breakout record. (That fact may help to explain why fans were so scared by press allegations that Winehouse had deliberately lost weight in order to present a slimmer appearance.) Although Back to Black does see her deserting jazz and wholly embracing contemporary R&B, all the best parts of her musical character emerge intact, and actually, are all the better for the transformation from jazz vocalist to soul siren. With producer Salaam Remi returning from Frank, plus the welcome addition of Mark Ronson (fresh off successes producing for Christina Aguilera and Robbie Williams), Back to Black has a similar sound to Frank but much more flair and spark to it. Winehouse was inspired by girl group soul of the '60s, and fortunately Ronson and Remi are two of the most facile and organic R&B producers active. (They certainly know how to evoke the era too; Remi's "Tears Dry on Their Own" is a sparkling homage to the Motown chestnut "Ain't No Mountain High Enough," and Ronson summons a host of Brill Building touchstones on his tracks.) As before, Winehouse writes all of the songs from her experiences, most of which involve the occasionally riotous and often bittersweet vagaries of love. Also in similar fashion to Frank, her eye for details and her way of relating them are delightful. She states her case against "Rehab" on the knockout first single with some great lines: "They tried to make me go to rehab I won't go go go, I'd rather be at home with Ray" (Charles, that is). As often as not, though, the songs on Back to Black are universal, songs that anyone, even Joss Stone, could take to the top of the charts, such as "Love Is a Losing Game" or the title song ("We only said good bye with words, I died a hundred times/You go back to her, and I go back to black").

Review by John Bush, Allmusic.com

Tracklist:

CD1 (34:58):

01. Rehab (3:35)
02. You Know I'm No Good (4:17)
03. Me & Mr. Jones (2:33)
04. Just Friends (3:13)
05. Back To Black (4:01)
06. Love Is A Losing Game (2:35)
07. Tears Dry On Their Own (3:06)
08. Wake Up Alone (3:42)
09. Some Unholy War (2:23)
10. He Can Only Hold Her (2:46)
11. Addicted (2:45)


CD2 (23:37):

01. Valerie (3:54)
02. Cupid (3:49)
03. Monkey Man (2:56)
04. Some Unholy War (3:16)
05. Hey Little Rich Girl (Feat. Zalon & Ade) (3:35)
06. To Know Him Is To Love Him (2:24)
07. Love Is A Losing Game (Original Demo) (3:44)


Exact Audio Copy V1.0 beta 3 from 29. August 2011

EAC extraction logfile from 27. February 2013, 19:45

Amy Winehouse / Back To Black

Used drive : Optiarc BD RW BD-5300S Adapter: 3 ID: 0

Read mode : Secure
Utilize accurate stream : Yes
Defeat audio cache : Yes
Make use of C2 pointers : No

Read offset correction : 6
Overread into Lead-In and Lead-Out : No
Fill up missing offset samples with silence : Yes
Delete leading and trailing silent blocks : No
Null samples used in CRC calculations : Yes
Used interface : Installed external ASPI interface

Used output format : User Defined Encoder
Selected bitrate : 1024 kBit/s
Quality : High
Add ID3 tag : No
Command line compressor : C:\Program Files (x86)\Exact Audio Copy\Flac\flac.exe
Additional command line options : -8 -V -T "Date=%year%" -T "Genre=%genre%" -T "COMMENT=ripped by bvstudio®" %source%


TOC of the extracted CD

Track | Start | Length | Start sector | End sector
––––––––––––––––––––––––––––-
1 | 0:01.00 | 3:34.71 | 75 | 16195
2 | 3:35.71 | 4:17.14 | 16196 | 35484
3 | 7:53.10 | 2:33.13 | 35485 | 46972
4 | 10:26.23 | 3:13.23 | 46973 | 61470
5 | 13:39.46 | 4:01.22 | 61471 | 79567
6 | 17:40.68 | 2:35.31 | 79568 | 91223
7 | 20:16.24 | 3:06.33 | 91224 | 105206
8 | 23:22.57 | 3:42.00 | 105207 | 121856
9 | 27:04.57 | 2:22.52 | 121857 | 132558
10 | 29:27.34 | 2:46.30 | 132559 | 145038
11 | 32:13.64 | 2:45.09 | 145039 | 157422


Range status and errors

Selected range

Filename F:\Amy Winehouse\2006 - Back To Black (The Deluxe Edition 2007)\CD1\Amy Winehouse - Back To Black.wav

Peak level 100.0 %
Extraction speed 6.4 X
Range quality 100.0 %
Test CRC F8743555
Copy CRC F8743555
Copy OK

No errors occurred


AccurateRip summary

Track 1 accurately ripped (confidence 19) [CBDBDAA4] (AR v2)
Track 2 accurately ripped (confidence 19) [84DD6B1A] (AR v2)
Track 3 accurately ripped (confidence 19) [06D5DDAF] (AR v2)
Track 4 accurately ripped (confidence 19) [BE070DE1] (AR v2)
Track 5 accurately ripped (confidence 19) [B75E742B] (AR v2)
Track 6 accurately ripped (confidence 19) [F086EC0C] (AR v2)
Track 7 accurately ripped (confidence 19) [BE21197D] (AR v2)
Track 8 accurately ripped (confidence 19) [F63EF4CC] (AR v2)
Track 9 accurately ripped (confidence 19) [F41C0433] (AR v2)
Track 10 accurately ripped (confidence 19) [E388E0CF] (AR v2)
Track 11 accurately ripped (confidence 19) [E8697C14] (AR v2)

All tracks accurately ripped

End of status report

–– CUETools DB Plugin V2.1.4

[CTDB TOCID: XfQYmosMsImIVTN1P4jcwHXUW6w-] found
Submit result: XfQYmosMsImIVTN1P4jcwHXUW6w- has been confirmed
Track | CTDB Status
1 | ( 8/12) Accurately ripped
2 | ( 8/12) Accurately ripped
3 | ( 8/12) Accurately ripped
4 | ( 7/12) Accurately ripped
5 | ( 8/12) Accurately ripped
6 | ( 8/12) Accurately ripped
7 | ( 8/12) Accurately ripped
8 | ( 8/12) Accurately ripped
9 | ( 8/12) Accurately ripped
10 | ( 8/12) Accurately ripped
11 | ( 8/12) Accurately ripped


==== Log checksum 3B5C93FEE830D01A396AE3A4B3193BC29A91B58F3C6D28C466CC92B4E2D80E2B ====

[CUETools log; Date: 23.05.2018 15:57:24; Version: 2.1.4]
Pregap length 00:01:00.
[CTDB TOCID: XfQYmosMsImIVTN1P4jcwHXUW6w-] found.
Track | CTDB Status
1 | (1851/2018) Accurately ripped
2 | (1858/2018) Accurately ripped
3 | (1856/2018) Accurately ripped
4 | (1856/2018) Accurately ripped
5 | (1860/2018) Accurately ripped
6 | (1859/2018) Accurately ripped
7 | (1853/2018) Accurately ripped
8 | (1850/2018) Accurately ripped
9 | (1845/2018) Accurately ripped
10 | (1837/2018) Accurately ripped
11 | (1843/2018) Accurately ripped
[AccurateRip ID: 000f2735-0081adb1-8e08310b] found.
Track [ CRC | V2 ] Status
01 [b5ce3ef6|cbdbdaa4] (080+200/1596) Accurately ripped
02 [646fe6bb|84dd6b1a] (078+200/1599) Accurately ripped
03 [e1ae5e77|06d5ddaf] (080+200/1595) Accurately ripped
04 [b47bd358|be070de1] (080+200/1595) Accurately ripped
05 [f367276c|b75e742b] (080+200/1597) Accurately ripped
06 [ef7dc13a|f086ec0c] (080+200/1599) Accurately ripped
07 [ad9983af|be21197d] (078+200/1596) Accurately ripped
08 [9080821b|f63ef4cc] (080+200/1595) Accurately ripped
09 [268b8c6a|f41c0433] (079+200/1597) Accurately ripped
10 [a696e8de|e388e0cf] (080+200/1593) Accurately ripped
11 [1baa817f|e8697c14] (079+200/1598) Accurately ripped
Offsetted by 664:
01 [54e4eb62] (121/1596) Accurately ripped
02 [bde8098d] (122/1599) Accurately ripped
03 [ff4e6cc8] (121/1595) Accurately ripped
04 [503a82cc] (121/1595) Accurately ripped
05 [9ddc88c1] (122/1597) Accurately ripped
06 [1c367be7] (121/1599) Accurately ripped
07 [382269e4] (121/1596) Accurately ripped
08 [c3b021b9] (121/1595) Accurately ripped
09 [2d4396b0] (121/1597) Accurately ripped
10 [036f2e98] (121/1593) Accurately ripped
11 [408b5697] (122/1598) Accurately ripped
Offsetted by 1262:
01 [28966162] (002/1596) Accurately ripped
02 [93030271] (002/1599) Accurately ripped
03 [c4d9d099] (002/1595) Accurately ripped
04 [414147e8] (002/1595) Accurately ripped
05 [e103089e] (002/1597) Accurately ripped
06 [a6c80283] (002/1599) Accurately ripped
07 [6bac5fef] (002/1596) Accurately ripped
08 [ca54f62a] (002/1595) Accurately ripped
09 [75a7ba7b] (002/1597) Accurately ripped
10 [a2c4268b] (002/1593) Accurately ripped
11 [3a75800f] (002/1598) Accurately ripped
Offsetted by 1316:
01 [9abd5dde] (002/1596) Accurately ripped
02 [fefe6011] (002/1599) Accurately ripped
03 [7194e3bb] (002/1595) Accurately ripped
04 [ad6bec1c] (002/1595) Accurately ripped
05 [eff40a32] (002/1597) Accurately ripped
06 [de3459e2] (002/1599) Accurately ripped
07 [ee7f5edd] (002/1596) Accurately ripped
08 [de0a3f99] (002/1595) Accurately ripped
09 [4fac1d53] (002/1597) Accurately ripped
10 [c902083e] (002/1593) Accurately ripped
11 [85b00272] (002/1598) Accurately ripped
Offsetted by 1328:
01 [c10dde29] (200/1596) Accurately ripped
02 [dae9cfd0] (200/1599) Accurately ripped
03 [d263d009] (200/1595) Accurately ripped
04 [ca257343] (200/1595) Accurately ripped
05 [10245f93] (200/1597) Accurately ripped
06 [2772cd4d] (200/1599) Accurately ripped
07 [ee63b131] (200/1596) Accurately ripped
08 [c65a4f9e] (200/1595) Accurately ripped
09 [d318118f] (200/1597) Accurately ripped
10 [11102e17] (200/1593) Accurately ripped
11 [250ead51] (200/1598) Accurately ripped
Offsetted by 1346:
01 [8a5b5b89] (002/1596) Accurately ripped
02 [892c3729] (002/1599) Accurately ripped
03 [6860d142] (002/1595) Accurately ripped
04 [23f2315f] (002/1595) Accurately ripped
05 [c0a05f67] (002/1597) Accurately ripped
06 [7dbc37d3] (002/1599) Accurately ripped
07 [d92a1ba9] (002/1596) Accurately ripped
08 [2327676c] (002/1595) Accurately ripped
09 [772e5875] (002/1597) Accurately ripped
10 [0efaa7fa] (002/1593) Accurately ripped
11 [94722d62] (002/1598) Accurately ripped
Offsetted by 1992:
01 [89892713] (200/1596) Accurately ripped
02 [d66179fb] (200/1599) Accurately ripped
03 [8144fcd3] (200/1595) Accurately ripped
04 [b87095bf] (200/1595) Accurately ripped
05 [3597beac] (200/1597) Accurately ripped
06 [c81702ce] (200/1599) Accurately ripped
07 [f63b4fe6] (200/1596) Accurately ripped
08 [94320400] (200/1595) Accurately ripped
09 [9114a8a2] (200/1597) Accurately ripped
10 [69fbe980] (200/1593) Accurately ripped
11 [d50e901d] (200/1598) Accurately ripped
Offsetted by 2002:
01 [c5d57aae] (003/1596) Accurately ripped
02 [9bfebc3e] (003/1599) Accurately ripped
03 [390b0804] (003/1595) Accurately ripped
04 [e38ee42b] (003/1595) Accurately ripped
05 [2c7a2ab7] (003/1597) Accurately ripped
06 [9b4405e5] (003/1599) Accurately ripped
07 [f37b0a43] (003/1596) Accurately ripped
08 [07670b78] (003/1595) Accurately ripped
09 [8462676b] (003/1597) Accurately ripped
10 [fcc663a7] (003/1593) Accurately ripped
11 [361d439f] (003/1598) Accurately ripped
Offsetted by -664:
01 [b3048beb] (000/1596) No match (V2 was not tested)
02 [6b9a54d2] (000/1599) No match (V2 was not tested)
03 [2aff9d1a] (000/1595) No match (V2 was not tested)
04 [1a896caf] (000/1595) No match (V2 was not tested)
05 [0c0b49ce] (000/1597) No match (V2 was not tested)
06 [5ea30883] (000/1599) No match (V2 was not tested)
07 [1954c3ee] (000/1596) No match (V2 was not tested)
08 [1e9361c7] (000/1595) No match (V2 was not tested)
09 [d9c86352] (000/1597) No match (V2 was not tested)
10 [757ef7a1] (000/1593) No match (V2 was not tested)
11 [c2652adc] (000/1598) No match (V2 was not tested)
Offsetted by 1196:
01 [692fabba] (000/1596) No match (V2 was not tested)
02 [e1192b71] (000/1599) No match (V2 was not tested)
03 [6e136240] (000/1595) No match (V2 was not tested)
04 [555a7b72] (000/1595) No match (V2 was not tested)
05 [b625ae0f] (000/1597) No match (V2 was not tested)
06 [06337e5a] (000/1599) No match (V2 was not tested)
07 [94e358cd] (000/1596) No match (V2 was not tested)
08 [d30498d9] (000/1595) No match (V2 was not tested)
09 [0d48de01] (000/1597) No match (V2 was not tested)
10 [3222c34b] (000/1593) No match (V2 was not tested)
11 [54f84f7f] (000/1598) No match (V2 was not tested)
Offsetted by 1256:
01 [1ce63141] (000/1596) No match
02 [9e7245bf] (000/1599) No match
03 [ff61622d] (000/1595) No match
04 [73fb8452] (000/1595) No match
05 [51565d9d] (000/1597) No match
06 [9eb78641] (002/1599) Accurately ripped
07 [1b3e7c29] (000/1596) No match
08 [5692edd6] (002/1595) Accurately ripped
09 [20631afe] (000/1597) No match
10 [1c667788] (000/1593) No match
11 [6b33aa51] (000/1598) No match
Offsetted by 1320:
01 [7a69b7d0] (000/1596) No match (V2 was not tested)
02 [455016e3] (000/1599) No match (V2 was not tested)
03 [51f3a5a6] (000/1595) No match (V2 was not tested)
04 [a86eea47] (000/1595) No match (V2 was not tested)
05 [5001d158] (000/1597) No match (V2 was not tested)
06 [0c3d890a] (000/1599) No match (V2 was not tested)
07 [e0bb1698] (000/1596) No match (V2 was not tested)
08 [d61f44f2] (000/1595) No match (V2 was not tested)
09 [2f390832] (000/1597) No match (V2 was not tested)
10 [b1e6e18d] (000/1593) No match (V2 was not tested)
11 [1020e610] (000/1598) No match (V2 was not tested)
Offsetted by 1860:
01 [437eefcf] (000/1596) No match (V2 was not tested)
02 [c39f48c2] (000/1599) No match (V2 was not tested)
03 [f85ec7ea] (000/1595) No match (V2 was not tested)
04 [57177ba9] (000/1595) No match (V2 was not tested)
05 [84b35790] (000/1597) No match (V2 was not tested)
06 [5f53ed38] (000/1599) No match (V2 was not tested)
07 [849ee295] (000/1596) No match (V2 was not tested)
08 [466b98f3] (000/1595) No match (V2 was not tested)
09 [f21563b5] (000/1597) No match (V2 was not tested)
10 [4f4b8f26] (000/1593) No match (V2 was not tested)
11 [aa9b79f0] (000/1598) No match (V2 was not tested)
Offsetted by 1974:
01 [5d3f8b4f] (000/1596) No match (V2 was not tested)
02 [06f00238] (000/1599) No match (V2 was not tested)
03 [c8786ad8] (000/1595) No match (V2 was not tested)
04 [e663ebbe] (000/1595) No match (V2 was not tested)
05 [798fc8bd] (000/1597) No match
06 [31244b59] (000/1599) No match
07 [2b304501] (000/1596) No match
08 [2b78f64a] (000/1595) No match
09 [c6bc299b] (000/1597) No match
10 [77ce99d0] (000/1593) No match
11 [59c81992] (000/1598) No match
Offsetted by 1984:
01 [28d33ae0] (000/1596) No match (V2 was not tested)
02 [6a0da030] (000/1599) No match (V2 was not tested)
03 [17e01c92] (000/1595) No match (V2 was not tested)
04 [1e8720d0] (000/1595) No match (V2 was not tested)
05 [703334fa] (000/1597) No match (V2 was not tested)
06 [02dafccd] (000/1599) No match (V2 was not tested)
07 [1c424019] (000/1596) No match (V2 was not tested)
08 [9e82fdf2] (000/1595) No match (V2 was not tested)
09 [e2b5dde7] (000/1597) No match (V2 was not tested)
10 [be090cf7] (000/1593) No match (V2 was not tested)
11 [baaacd41] (000/1598) No match (V2 was not tested)
Offsetted by 1986:
01 [274c3afb] (000/1596) No match (V2 was not tested)
02 [89c92977] (000/1599) No match (V2 was not tested)
03 [66a05a06] (000/1595) No match (V2 was not tested)
04 [621f95da] (000/1595) No match (V2 was not tested)
05 [a18a1768] (000/1597) No match (V2 was not tested)
06 [2d07dfbc] (000/1599) No match (V2 was not tested)
07 [665acbc3] (000/1596) No match (V2 was not tested)
08 [1becff75] (000/1595) No match (V2 was not tested)
09 [3cb8d708] (000/1597) No match (V2 was not tested)
10 [b5ee7998] (000/1593) No match (V2 was not tested)
11 [0143bdf9] (000/1598) No match (V2 was not tested)
Offsetted by 1998:
01 [c73d8ea8] (000/1596) No match
02 [5927578c] (000/1599) No match
03 [7cca2125] (000/1595) No match
04 [0d2a5953] (000/1595) No match
05 [c9b365ea] (000/1597) No match
06 [1d67173e] (000/1599) No match
07 [d6f33cf2] (002/1596) Accurately ripped
08 [0c83087c] (000/1595) No match (V2 was not tested)
09 [ac4d751d] (000/1597) No match (V2 was not tested)
10 [2f8b9163] (000/1593) No match
11 [a8e2623d] (000/1598) No match

Track Peak [ CRC32 ] [W/O NULL] [ LOG ]
– 100,0 [F8743555] [2C790721] CRC32
01 100,0 [782A1CDF] [815D3F84]
02 100,0 [D7A49C07] [935EBB50]
03 100,0 [629C950E] [D38C5776]
04 100,0 [8F6FFF85] [E0FDEB64]
05 100,0 [9F268369] [6BA7ED92]
06 100,0 [4E9A73FC] [557726B8]
07 100,0 [A252B561] [086A1330]
08 100,0 [93BB6F09] [706B2C8B]
09 100,0 [18F6A7D3] [D08679C8]
10 100,0 [0DBADA25] [E8F3CB90]
11 100,0 [B5C4C857] [AF56E17E]

foobar2000 1.2 / Dynamic Range Meter 1.1.1
log date: 2018-05-26 15:03:41

––––––––––––––––––––––––––––––––––––––––
Analyzed: Amy Winehouse / Back To Black
––––––––––––––––––––––––––––––––––––––––

DR Peak RMS Duration Track
––––––––––––––––––––––––––––––––––––––––
DR5 0.00 dB -5.88 dB 3:35 01-Rehab
DR5 0.00 dB -6.27 dB 4:17 02-You Know I'm No Good
DR6 0.00 dB -7.69 dB 2:33 03-Me & Mr. Jones
DR7 0.00 dB -8.39 dB 3:13 04-Just Friends
DR5 0.00 dB -7.25 dB 4:01 05-Back To Black
DR6 0.00 dB -7.91 dB 2:35 06-Love Is A Losing Game
DR6 0.00 dB -6.64 dB 3:06 07-Tears Dry On Their Own
DR6 0.00 dB -7.15 dB 3:42 08-Wake Up Alone
DR7 0.00 dB -8.58 dB 2:23 09-Some Unholy War
DR6 0.00 dB -7.21 dB 2:46 10-He Can Only Hold Her
DR6 0.00 dB -7.10 dB 2:45 11-Addicted
––––––––––––––––––––––––––––––––––––––––

Number of tracks: 11
Official DR value: DR6

Samplerate: 44100 Hz
Channels: 2
Bits per sample: 16
Bitrate: 921 kbps
Codec: FLAC
================================================================================


Exact Audio Copy V1.0 beta 3 from 29. August 2011

EAC extraction logfile from 27. February 2013, 20:06

Amy Winehouse / Back To Black (Bonus Disc)

Used drive : Optiarc BD RW BD-5300S Adapter: 3 ID: 0

Read mode : Secure
Utilize accurate stream : Yes
Defeat audio cache : Yes
Make use of C2 pointers : No

Read offset correction : 6
Overread into Lead-In and Lead-Out : No
Fill up missing offset samples with silence : Yes
Delete leading and trailing silent blocks : No
Null samples used in CRC calculations : Yes
Used interface : Installed external ASPI interface

Used output format : User Defined Encoder
Selected bitrate : 1024 kBit/s
Quality : High
Add ID3 tag : No
Command line compressor : C:\Program Files (x86)\Exact Audio Copy\Flac\flac.exe
Additional command line options : -8 -V -T "Date=%year%" -T "Genre=%genre%" -T "COMMENT=ripped by bvstudio®" %source%


TOC of the extracted CD

Track | Start | Length | Start sector | End sector
––––––––––––––––––––––––––––-
1 | 0:00.00 | 3:53.55 | 0 | 17529
2 | 3:53.55 | 3:48.64 | 17530 | 34693
3 | 7:42.44 | 2:55.62 | 34694 | 47880
4 | 10:38.31 | 3:16.05 | 47881 | 62585
5 | 13:54.36 | 3:34.53 | 62586 | 78688
6 | 17:29.14 | 2:24.06 | 78689 | 89494
7 | 19:53.20 | 3:43.68 | 89495 | 106287


Range status and errors

Selected range

Filename F:\Amy Winehouse\2006 - Back To Black (The Deluxe Edition 2007)\CD2\Amy Winehouse - Back To Black (Bonus Disc).wav

Peak level 100.0 %
Extraction speed 2.8 X
Range quality 100.0 %
Test CRC CB6F25D4
Copy CRC CB6F25D4
Copy OK

No errors occurred


AccurateRip summary

Track 1 accurately ripped (confidence 39) [B68D858C] (AR v2)
Track 2 accurately ripped (confidence 39) [EA588522] (AR v2)
Track 3 accurately ripped (confidence 39) [2D3E2A73] (AR v2)
Track 4 accurately ripped (confidence 39) [4EC3C1C2] (AR v2)
Track 5 accurately ripped (confidence 39) [FBA5E33E] (AR v2)
Track 6 accurately ripped (confidence 39) [43D06682] (AR v2)
Track 7 accurately ripped (confidence 38) [33459738] (AR v2)

All tracks accurately ripped

End of status report

–– CUETools DB Plugin V2.1.4

[CTDB TOCID: rHlTMDKsYGhCEvi3ZTvl7t1NtFY-] found
Submit result: rHlTMDKsYGhCEvi3ZTvl7t1NtFY- has been confirmed
Track | CTDB Status
1 | (122/123) Accurately ripped
2 | (122/123) Accurately ripped
3 | (122/123) Accurately ripped
4 | (122/123) Accurately ripped
5 | (122/123) Accurately ripped
6 | (122/123) Accurately ripped
7 | (122/123) Accurately ripped


==== Log checksum C28CF1A8356BC3F1E2BA58744AD1017AA4327A652C9BFCE54FF3D31F131BD9AE ====

[CUETools log; Date: 23.05.2018 15:57:41; Version: 2.1.4]
[CTDB TOCID: rHlTMDKsYGhCEvi3ZTvl7t1NtFY-] found.
Track | CTDB Status
1 | (1196/1206) Accurately ripped
2 | (1196/1206) Accurately ripped
3 | (1199/1206) Accurately ripped
4 | (1197/1206) Accurately ripped
5 | (1177/1206) Accurately ripped, or (2/1206) differs in 66 samples @03:18:24-03:18:25
6 | (1198/1206) Accurately ripped
7 | (1195/1206) Accurately ripped
[AccurateRip ID: 0006abab-00278ef4-4c058907] found.
Track [ CRC | V2 ] Status
01 [c4edd4e6|b68d858c] (200+200/453) Accurately ripped
02 [8a077055|ea588522] (200+200/457) Accurately ripped
03 [496950c7|2d3e2a73] (200+200/457) Accurately ripped
04 [16262eef|4ec3c1c2] (200+200/455) Accurately ripped
05 [f5363b3c|fba5e33e] (200+200/458) Accurately ripped
06 [6b3fd9f6|43d06682] (200+200/457) Accurately ripped
07 [6970b326|33459738] (200+200/456) Accurately ripped
Offsetted by -690:
01 [0182be4a] (002/453) Accurately ripped
02 [9ba4fe57] (002/457) Accurately ripped
03 [663f4da1] (002/457) Accurately ripped
04 [024977f9] (002/455) Accurately ripped
05 [d531bff4] (002/458) Accurately ripped
06 [5bdab612] (002/457) Accurately ripped
07 [3c9076a6] (002/456) Accurately ripped
Offsetted by -664:
01 [f29d0a16] (004/453) Accurately ripped
02 [ce2e44ad] (004/457) Accurately ripped
03 [b54cc23f] (004/457) Accurately ripped
04 [5034d8a7] (004/455) Accurately ripped
05 [2d37dadc] (004/458) Accurately ripped
06 [e7ef96c6] (004/457) Accurately ripped
07 [1aa34d26] (004/456) Accurately ripped
Offsetted by -646:
01 [722565f2] (005/453) Accurately ripped
02 [67523a4b] (005/457) Accurately ripped
03 [622eb085] (005/457) Accurately ripped
04 [862691bd] (005/455) Accurately ripped
05 [6a2863a4] (005/458) Accurately ripped
06 [fa256d6a] (005/457) Accurately ripped
07 [794de1a6] (005/456) Accurately ripped
Offsetted by 10:
01 [d2e440d2] (003/453) Accurately ripped
02 [89c6153b] (003/457) Accurately ripped
03 [541fb8b5] (003/457) Accurately ripped
04 [341e406d] (003/455) Accurately ripped
05 [171131e4] (003/458) Accurately ripped
06 [0396a68a] (003/457) Accurately ripped
07 [48b305a6] (002/456) Accurately ripped
Offsetted by -661:
01 [5d33c410] (000/453) No match (V2 was not tested)
02 [67b442f2] (000/457) No match (V2 was not tested)
03 [521d14a0] (000/457) No match (V2 was not tested)
04 [59327780] (000/455) No match (V2 was not tested)
05 [b75ff1a8] (000/458) No match (V2 was not tested)
06 [15a33a8c] (000/457) No match (V2 was not tested)
07 [aa6a65e6] (000/456) No match (V2 was not tested)
Offsetted by -132:
01 [7305ddee] (000/453) No match (V2 was not tested)
02 [26ffbc79] (002/457) Accurately ripped
03 [559b281b] (002/457) Accurately ripped
04 [8a8ee1a3] (000/455) No match (V2 was not tested)
05 [3652502c] (002/458) Accurately ripped
06 [905fb3ee] (002/457) Accurately ripped
07 [b3387226] (002/456) Accurately ripped
Offsetted by -96:
01 [721695a6] (000/453) No match (V2 was not tested)
02 [5947a7b5] (000/457) No match (V2 was not tested)
03 [af5f04a7] (000/457) No match (V2 was not tested)
04 [f67253cf] (000/455) No match (V2 was not tested)
05 [b03361bc] (000/458) No match (V2 was not tested)
06 [b4cb6136] (000/457) No match (V2 was not tested)
07 [708d9b26] (000/456) No match (V2 was not tested)
Offsetted by -26:
01 [d3d3891a] (000/453) No match (V2 was not tested)
02 [577e29ff] (000/457) No match (V2 was not tested)
03 [fa5bdc29] (000/457) No match (V2 was not tested)
04 [c83ace41] (000/455) No match (V2 was not tested)
05 [9d302054] (000/458) No match (V2 was not tested)
06 [df2af942] (000/457) No match (V2 was not tested)
07 [8b5ddca6] (000/456) No match (V2 was not tested)
Offsetted by -12:
01 [1a92ecfe] (000/453) No match (V2 was not tested)
02 [23ef7741] (000/457) No match (V2 was not tested)
03 [d6280743] (000/457) No match (V2 was not tested)
04 [f22fb38b] (000/455) No match (V2 was not tested)
05 [cc95e00c] (000/458) No match (V2 was not tested)
06 [b4714ade] (000/457) No match (V2 was not tested)
07 [2a545026] (000/456) No match (V2 was not tested)
Offsetted by 30:
01 [eed118aa] (000/453) No match (V2 was not tested)
02 [89435f07] (000/457) No match (V2 was not tested)
03 [698c8891] (000/457) No match (V2 was not tested)
04 [700e6369] (000/455) No match (V2 was not tested)
05 [5ac71f34] (000/458) No match (V2 was not tested)
06 [34443fb2] (000/457) No match (V2 was not tested)
07 [0737aaa6] (000/456) No match (V2 was not tested)

Track Peak [ CRC32 ] [W/O NULL] [ LOG ]
– 100,0 [CB6F25D4] [0E4240DF] CRC32
01 99,9 [FA17BF35] [9277D037]
02 89,1 [6829EC2E] [34B580E2]
03 100,0 [4416A3A0] [32BEDB91]
04 98,8 [C7253C9F] [42C9C823]
05 99,9 [F8EA443A] [34355D04]
06 98,9 [20B8A502] [FCE01473]
07 98,8 [97CF456B] [9B8380DE]

foobar2000 1.2 / Dynamic Range Meter 1.1.1
log date: 2018-05-26 15:03:51

––––––––––––––––––––––––––––––––––––––––
Analyzed: Amy Winehouse / Back To Black (Bonus Disc)
––––––––––––––––––––––––––––––––––––––––

DR Peak RMS Duration Track
––––––––––––––––––––––––––––––––––––––––
DR7 -0.01 dB -8.84 dB 3:54 01-Valerie
DR6 -1.00 dB -7.62 dB 3:49 02-Cupid
DR6 0.00 dB -6.97 dB 2:56 03-Monkey Man
DR8 -0.10 dB -9.09 dB 3:16 04-Some Unholy War
DR4 -0.01 dB -5.59 dB 3:35 05-Hey Little Rich Girl (Feat. Zalon & Ade)
DR9 -0.09 dB -11.11 dB 2:24 06-To Know Him Is To Love Him
DR9 -0.10 dB -13.28 dB 3:44 07-Love Is A Losing Game (Original Demo)
––––––––––––––––––––––––––––––––––––––––

Number of tracks: 7
Official DR value: DR7

Samplerate: 44100 Hz
Channels: 2
Bits per sample: 16
Bitrate: 866 kbps
Codec: FLAC
================================================================================

Amy Winehouse - Albums Collection 2003-2012 (6CD) [Re-Up]

Amy Winehouse - Albums Collection 2003-2012 (6CD) [Re-Up]




Amy Winehouse - Albums Collection 2003-2012 (6CD) [Re-Up]

Amy Winehouse - Lioness: Hidden Treasures (2011) [Japanese Press]
EAC | FLAC | Image (Cue&Log) ~ 297 Mb | Mp3 (CBR320) ~ 104 Mb | Scans ~ 260 Mb
Label: Universal Island Records | # UICI-1102 | Time: 00:45:18

The qualities of a vocal genius don't always become clear when she's singing classic material. Often as not, her abilities to both personalize and transcend a lifeless song with a stellar performance reveal the character behind the singer. Both Billie Holiday and Otis Redding excelled no matter what they were recording, whether it was a timeless standard or a studio throwaway. This collection of Amy Winehouse material, released to coincide with the first Christmas season after her death in July 2011, does not contain a strong set of material. Besides the covers, which are well chosen, originals "Between the Cheats" and "Best Friends, Right?" and "Half Time" should not have survived the cut if Winehouse had been around to wield her veto power. But if the songwriting isn’t strong enough to make listeners confuse this with a Back to Black follow-up, the productions and performances are up to her high caliber. Salaam Remi and Mark Ronson handled virtually all of the production work, while these performances by Winehouse are just as strong as she showed on Frank and Back to Black. Thanks to the work of Remi and Ronson, the album is also strikingly uniform; only the songwriting and prevalence of covers or "original versions" reveal that this is a posthumous collection. Ronson's production on "Will You Still Love Me Tomorrow?" is towering, although he injects a little more drama into his chart than the song can support, while a skittering version of "The Girl from Ipanema" (nearly drum’n’bass at points) nearly reinvents a tired classic. The recordings stretch from the beginning of her professional career to close to the end, but Winehouse is virtually always in strong voice; only on her Tony Bennett duet, “Body and Soul,” does she veer into self-parody.

Review by Amy Winehouse, Allmusic.com

Tracklist:

01. Our Day Will Come (2:49)
02. Between The Cheats (3:34)
03. Tears Dry (Original Version) (4:08)
04. Will You Still Love Me Tomorrow? (2011) (4:23)
05. Like Smoke (feat. Nas) (4:38)
06. Valerie ('68 Version) (4:00)
07. The Girl From Ipanema (2:47)
08. Half Time (3:51)
09. Wake Up Alone (Orginal Recording) (4:24)
10. Best Friends, Right? (2:56)
11. Body And Soul (With Tony Bennett) (3:19)
12. A Song For You (4:29)


Exact Audio Copy V1.0 beta 3 from 29. August 2011

EAC extraction logfile from 27. February 2013, 19:30

Amy Winehouse / Lioness. Hidden Treasures

Used drive : Optiarc BD RW BD-5300S Adapter: 3 ID: 0

Read mode : Secure
Utilize accurate stream : Yes
Defeat audio cache : Yes
Make use of C2 pointers : No

Read offset correction : 6
Overread into Lead-In and Lead-Out : No
Fill up missing offset samples with silence : Yes
Delete leading and trailing silent blocks : No
Null samples used in CRC calculations : Yes
Used interface : Installed external ASPI interface

Used output format : User Defined Encoder
Selected bitrate : 1024 kBit/s
Quality : High
Add ID3 tag : No
Command line compressor : C:\Program Files (x86)\Exact Audio Copy\Flac\flac.exe
Additional command line options : -8 -V -T "Date=%year%" -T "Genre=%genre%" -T "COMMENT=ripped by bvstudio®" %source%


TOC of the extracted CD

Track | Start | Length | Start sector | End sector
––––––––––––––––––––––––––––-
1 | 0:00.00 | 2:49.28 | 0 | 12702
2 | 2:49.28 | 3:33.44 | 12703 | 28721
3 | 6:22.72 | 4:08.07 | 28722 | 47328
4 | 10:31.04 | 4:22.61 | 47329 | 67039
5 | 14:53.65 | 4:38.00 | 67040 | 87889
6 | 19:31.65 | 3:59.68 | 87890 | 105882
7 | 23:31.58 | 2:46.72 | 105883 | 118404
8 | 26:18.55 | 3:50.64 | 118405 | 135718
9 | 30:09.44 | 4:24.20 | 135719 | 155538
10 | 34:33.64 | 2:56.22 | 155539 | 168760
11 | 37:30.11 | 3:18.61 | 168761 | 183671
12 | 40:48.72 | 4:29.28 | 183672 | 203874


Range status and errors

Selected range

Filename F:\Amy Winehouse\2011 - Lioness. Hidden Treasures (Japan)\Amy Winehouse - Lioness. Hidden Treasures.wav

Peak level 100.0 %
Extraction speed 6.7 X
Range quality 100.0 %
Test CRC A4111207
Copy CRC A4111207
Copy OK

No errors occurred


AccurateRip summary

Track 1 accurately ripped (confidence 6) [A7FDFF68] (AR v2)
Track 2 accurately ripped (confidence 6) [86CB495C] (AR v2)
Track 3 accurately ripped (confidence 6) [25EAA699] (AR v2)
Track 4 accurately ripped (confidence 6) [2A7ECC18] (AR v2)
Track 5 accurately ripped (confidence 6) [78B14672] (AR v2)
Track 6 accurately ripped (confidence 6) [152245B0] (AR v2)
Track 7 accurately ripped (confidence 6) [2453F91C] (AR v2)
Track 8 accurately ripped (confidence 6) [6305E802] (AR v2)
Track 9 accurately ripped (confidence 6) [261D0F13] (AR v2)
Track 10 accurately ripped (confidence 6) [039B79C4] (AR v2)
Track 11 accurately ripped (confidence 6) [D1A3B50C] (AR v2)
Track 12 accurately ripped (confidence 6) [F6B88F53] (AR v2)

All tracks accurately ripped

End of status report

–– CUETools DB Plugin V2.1.4

[CTDB TOCID: O2LvSIzxKtOBmCQJete_n5077uE-] found
Submit result: O2LvSIzxKtOBmCQJete_n5077uE- has been confirmed
Track | CTDB Status
1 | (386/387) Accurately ripped
2 | (385/387) Accurately ripped
3 | (386/387) Accurately ripped
4 | (384/387) Accurately ripped
5 | (386/387) Accurately ripped
6 | (386/387) Accurately ripped
7 | (384/387) Accurately ripped
8 | (385/387) Accurately ripped
9 | (385/387) Accurately ripped
10 | (387/387) Accurately ripped
11 | (385/387) Accurately ripped
12 | (387/387) Accurately ripped


==== Log checksum D2F0DCCD9109E2CA4EE567EB29C63FA8DD9DB2FDA85028C99308B60732112736 ====

[CUETools log; Date: 23.05.2018 15:58:05; Version: 2.1.4]
[CTDB TOCID: O2LvSIzxKtOBmCQJete_n5077uE-] found.
Track | CTDB Status
1 | (2131/2142) Accurately ripped
2 | (2135/2142) Accurately ripped
3 | (2133/2142) Accurately ripped
4 | (2133/2142) Accurately ripped
5 | (2127/2142) Accurately ripped, or (2/2142) differs in 180 samples @03:59:45
6 | (2131/2142) Accurately ripped
7 | (2125/2142) Accurately ripped
8 | (2123/2142) Accurately ripped
9 | (2125/2142) Accurately ripped
10 | (2119/2142) Accurately ripped
11 | (2126/2142) Accurately ripped
12 | (2120/2142) Accurately ripped
[AccurateRip ID: 001412d2-00bc4941-8e0a9e0c] found.
Track [ CRC | V2 ] Status
01 [019c7d9a|a7fdff68] (142+200/431) Accurately ripped
02 [d1c59cd6|86cb495c] (144+200/433) Accurately ripped
03 [42bdc900|25eaa699] (143+200/432) Accurately ripped
04 [f587075d|2a7ecc18] (144+200/433) Accurately ripped
05 [5597ed69|78b14672] (143+200/432) Accurately ripped
06 [406b3df1|152245b0] (144+200/431) Accurately ripped
07 [b145a5f5|2453f91c] (144+200/433) Accurately ripped
08 [ba8bf413|6305e802] (144+200/435) Accurately ripped
09 [8802b23a|261d0f13] (143+200/434) Accurately ripped
10 [7943ee0b|039b79c4] (143+200/435) Accurately ripped
11 [9392a8c7|d1a3b50c] (144+200/435) Accurately ripped
12 [605bd28c|f6b88f53] (143+200/435) Accurately ripped
Offsetted by -670:
01 [a1c5b2e3] (005/431) Accurately ripped
02 [a1c50018] (005/433) Accurately ripped
03 [0179caf6] (005/432) Accurately ripped
04 [42c8aee6] (005/433) Accurately ripped
05 [adb5b213] (005/432) Accurately ripped
06 [68a5d604] (005/431) Accurately ripped
07 [41e2984e] (005/433) Accurately ripped
08 [40eab4bd] (005/435) Accurately ripped
09 [33cb4e61] (005/434) Accurately ripped
10 [276f63b8] (005/435) Accurately ripped
11 [195959a5] (005/435) Accurately ripped
12 [d8885b8e] (005/435) Accurately ripped
Offsetted by -667:
01 [1feb3297] (000/431) No match (V2 was not tested)
02 [b7cef3b3] (000/433) No match (V2 was not tested)
03 [0381e920] (000/432) No match (V2 was not tested)
04 [c2ef0a8a] (000/433) No match (V2 was not tested)
05 [c59a6d44] (000/432) No match (V2 was not tested)
06 [606c632a] (000/431) No match (V2 was not tested)
07 [cdfaeeb3] (000/433) No match (V2 was not tested)
08 [a84220cd] (000/435) No match (V2 was not tested)
09 [8d55ab22] (000/434) No match (V2 was not tested)
10 [350f4b53] (000/435) No match (V2 was not tested)
11 [8d737324] (000/435) No match (V2 was not tested)
12 [ce5e5a7d] (000/435) No match (V2 was not tested)
Offsetted by -664:
01 [a6709055] (000/431) No match (V2 was not tested)
02 [e48d8d6c] (000/433) No match (V2 was not tested)
03 [0d324e0d] (000/432) No match (V2 was not tested)
04 [431165ab] (000/433) No match (V2 was not tested)
05 [b10046b1] (000/432) No match (V2 was not tested)
06 [063e28b8] (000/431) No match (V2 was not tested)
07 [c9589c4c] (000/433) No match (V2 was not tested)
08 [6b09b5bf] (000/435) No match (V2 was not tested)
09 [973538e1] (000/434) No match (V2 was not tested)
10 [42a8331a] (000/435) No match (V2 was not tested)
11 [bf3bfdb2] (000/435) No match (V2 was not tested)
12 [c3f047f9] (000/435) No match (V2 was not tested)
Offsetted by -517:
01 [9baf0739] (000/431) No match (V2 was not tested)
02 [fa27f68b] (000/433) No match (V2 was not tested)
03 [1cc970ea] (000/432) No match (V2 was not tested)
04 [5131ad44] (000/433) No match (V2 was not tested)
05 [409d98a1] (000/432) No match (V2 was not tested)
06 [8333b0a5] (000/431) No match (V2 was not tested)
07 [a4111241] (000/433) No match (V2 was not tested)
08 [3afdcc9c] (000/435) No match (V2 was not tested)
09 [f631f5b9] (000/434) No match (V2 was not tested)
10 [fdf0828f] (000/435) No match (V2 was not tested)
11 [29a8c054] (000/435) No match (V2 was not tested)
12 [fafab351] (000/435) No match (V2 was not tested)
Offsetted by -132:
01 [50f5803f] (000/431) No match (V2 was not tested)
02 [1d0968d9] (000/433) No match (V2 was not tested)
03 [a4986ce1] (000/432) No match (V2 was not tested)
04 [78bef1a0] (000/433) No match (V2 was not tested)
05 [64cda2f4] (000/432) No match (V2 was not tested)
06 [0543e257] (000/431) No match (V2 was not tested)
07 [31754a33] (000/433) No match (V2 was not tested)
08 [36172f41] (000/435) No match (V2 was not tested)
09 [7b80c1e9] (000/434) No match (V2 was not tested)
10 [b191bbf3] (000/435) No match (V2 was not tested)
11 [1a50275e] (000/435) No match (V2 was not tested)
12 [8e652175] (000/435) No match (V2 was not tested)
Offsetted by -128:
01 [fc993bbe] (000/431) No match (V2 was not tested)
02 [21f13487] (000/433) No match (V2 was not tested)
03 [0d394026] (000/432) No match (V2 was not tested)
04 [63aa50de] (000/433) No match (V2 was not tested)
05 [3259f552] (000/432) No match (V2 was not tested)
06 [a944b4b6] (000/431) No match (V2 was not tested)
07 [4bf18f8d] (000/433) No match (V2 was not tested)
08 [98a4e7d9] (000/435) No match (V2 was not tested)
09 [5ca8a8a4] (000/434) No match (V2 was not tested)
10 [fedf1831] (000/435) No match (V2 was not tested)
11 [29a58be6] (000/435) No match (V2 was not tested)
12 [f2c9d1d1] (000/435) No match (V2 was not tested)
Offsetted by -74:
01 [4e4ed3c3] (000/431) No match (V2 was not tested)
02 [4377fb8f] (000/433) No match (V2 was not tested)
03 [181c04da] (000/432) No match (V2 was not tested)
04 [1c117adb] (000/433) No match (V2 was not tested)
05 [46639c81] (000/432) No match (V2 was not tested)
06 [a77b4869] (000/431) No match (V2 was not tested)
07 [a78ddaf6] (000/433) No match (V2 was not tested)
08 [5791aa34] (000/435) No match (V2 was not tested)
09 [732de4ec] (000/434) No match (V2 was not tested)
10 [c2d60247] (000/435) No match (V2 was not tested)
11 [320167c3] (000/435) No match (V2 was not tested)
12 [fe5d2710] (000/435) No match (V2 was not tested)
Offsetted by -66:
01 [18ba87e7] (000/431) No match (V2 was not tested)
02 [a1b4f8fd] (000/433) No match (V2 was not tested)
03 [524de51f] (000/432) No match (V2 was not tested)
04 [f4224744] (000/433) No match (V2 was not tested)
05 [87cb907e] (000/432) No match (V2 was not tested)
06 [5ac92109] (000/431) No match (V2 was not tested)
07 [665a081e] (000/433) No match (V2 was not tested)
08 [2d791acb] (000/435) No match (V2 was not tested)
09 [ae1cd308] (000/434) No match (V2 was not tested)
10 [79c7d2ff] (000/435) No match (V2 was not tested)
11 [4ddb1623] (000/435) No match (V2 was not tested)
12 [357fd910] (000/435) No match (V2 was not tested)
Offsetted by -36:
01 [624eb589] (000/431) No match (V2 was not tested)
02 [5c574926] (000/433) No match (V2 was not tested)
03 [7eefedf3] (000/432) No match (V2 was not tested)
04 [7acc56f3] (000/433) No match (V2 was not tested)
05 [75c0b6e2] (000/432) No match (V2 was not tested)
06 [0ad7d0a6] (000/431) No match (V2 was not tested)
07 [b56cd311] (000/433) No match (V2 was not tested)
08 [2d24faaa] (000/435) No match (V2 was not tested)
09 [10add601] (000/434) No match (V2 was not tested)
10 [94f5ceb7] (000/435) No match (V2 was not tested)
11 [749ef968] (000/435) No match (V2 was not tested)
12 [10e5d003] (000/435) No match (V2 was not tested)
Offsetted by -30:
01 [709a8727] (000/431) No match (V2 was not tested)
02 [84b960ab] (000/433) No match (V2 was not tested)
03 [48ff5902] (000/432) No match (V2 was not tested)
04 [6662f51b] (000/433) No match (V2 was not tested)
05 [330c5a38] (000/432) No match (V2 was not tested)
06 [b2e2abc2] (000/431) No match (V2 was not tested)
07 [e06d271f] (000/433) No match (V2 was not tested)
08 [246eb5e6] (000/435) No match (V2 was not tested)
09 [32181acb] (000/434) No match (V2 was not tested)
10 [94a95d89] (000/435) No match (V2 was not tested)
11 [bc9db98a] (000/435) No match (V2 was not tested)
12 [23e35e51] (000/435) No match (V2 was not tested)
Offsetted by -18:
01 [18193b27] (000/431) No match (V2 was not tested)
02 [e3bcfb57] (000/433) No match (V2 was not tested)
03 [f73d05cd] (000/432) No match (V2 was not tested)
04 [3cd93084] (000/433) No match (V2 was not tested)
05 [76b4099d] (000/432) No match (V2 was not tested)
06 [df1de7b9] (000/431) No match (V2 was not tested)
07 [17317f14] (000/433) No match (V2 was not tested)
08 [a737823b] (000/435) No match (V2 was not tested)
09 [4330f796] (000/434) No match (V2 was not tested)
10 [8d376ee8] (000/435) No match (V2 was not tested)
11 [251132b5] (000/435) No match (V2 was not tested)
12 [b2b9ff8a] (000/435) No match (V2 was not tested)
Offsetted by -12:
01 [2a2bbc7b] (000/431) No match (V2 was not tested)
02 [c35d2680] (000/433) No match (V2 was not tested)
03 [6788251f] (000/432) No match (V2 was not tested)
04 [2642cdd3] (000/433) No match (V2 was not tested)
05 [d355c3c4] (000/432) No match (V2 was not tested)
06 [48aa7a39] (000/431) No match (V2 was not tested)
07 [acea9e60] (000/433) No match (V2 was not tested)
08 [b9284db3] (000/435) No match (V2 was not tested)
09 [36b09fac] (000/434) No match (V2 was not tested)
10 [8549f003] (000/435) No match (V2 was not tested)
11 [8bd2c8cb] (000/435) No match (V2 was not tested)
12 [337f3020] (000/435) No match (V2 was not tested)
Offsetted by -6:
01 [4d2da303] (000/431) No match (V2 was not tested)
02 [c50336b8] (000/433) No match (V2 was not tested)
03 [92363d4d] (000/432) No match (V2 was not tested)
04 [0e4e6a8f] (000/433) No match (V2 was not tested)
05 [91ee7631] (000/432) No match (V2 was not tested)
06 [1e1bddfc] (000/431) No match (V2 was not tested)
07 [0f4022a3] (000/433) No match (V2 was not tested)
08 [1e5e21b0] (000/435) No match (V2 was not tested)
09 [b4200719] (000/434) No match (V2 was not tested)
10 [7d5a6e4e] (000/435) No match (V2 was not tested)
11 [e94cc8c3] (000/435) No match (V2 was not tested)
12 [cbd3277c] (000/435) No match (V2 was not tested)
Offsetted by 6:
01 [bb0085a7] (002/431) Accurately ripped
02 [2d99b7d3] (002/433) Accurately ripped
03 [11ad0075] (002/432) Accurately ripped
04 [db4aa438] (002/433) Accurately ripped
05 [c74cae1e] (002/432) Accurately ripped
06 [dce2aab3] (000/431) No match (V2 was not tested)
07 [66b3a9b5] (002/433) Accurately ripped
08 [d407e094] (002/435) Accurately ripped
09 [0fd3a0be] (002/434) Accurately ripped
10 [7b9572bb] (002/435) Accurately ripped
11 [88d86c6a] (002/435) Accurately ripped
12 [cf513391] (002/435) Accurately ripped

Track Peak [ CRC32 ] [W/O NULL] [ LOG ]
– 100,0 [A4111207] [0B46A059] CRC32
01 98,9 [6AD42967] [BDD5A337]
02 98,9 [5D995BF1] [ECBD0E14]
03 100,0 [2B4A7BBD] [FBAE718F]
04 98,9 [BFA93106] [EDDC5BBF]
05 100,0 [AB92748B] [7E328ACB]
06 98,9 [7D8B1B13] [A338F06D]
07 98,9 [4770F358] [CD2114EC]
08 100,0 [A02E5311] [6649E523]
09 98,9 [EED289FE] [842E775B]
10 100,0 [5ACE98D2] [9F568BEA]
11 98,9 [959ED28C] [D9B0A885]
12 98,9 [2177B3E5] [0B4D391D]

foobar2000 1.2 / Dynamic Range Meter 1.1.1
log date: 2018-05-28 16:49:33

––––––––––––––––––––––––––––––––––––––––
Analyzed: Amy Winehouse / Lioness. Hidden Treasures
––––––––––––––––––––––––––––––––––––––––

DR Peak RMS Duration Track
––––––––––––––––––––––––––––––––––––––––
DR7 -0.09 dB -8.59 dB 2:49 01-Our Day Will Come
DR6 -0.09 dB -7.58 dB 3:34 02-Between The Cheats
DR7 0.00 dB -7.50 dB 4:08 03-Tears Dry (Original Version)
DR6 -0.09 dB -7.64 dB 4:23 04-Will You Still Love Me Tomorrow? (2011)
DR6 0.00 dB -7.24 dB 4:38 05-Like Smoke (feat. Nas)
DR7 -0.09 dB -8.20 dB 4:00 06-Valerie ('68 Version)
DR7 -0.09 dB -7.87 dB 2:47 07-The Girl From Ipanema
DR8 0.00 dB -9.95 dB 3:51 08-Half Time
DR10 -0.09 dB -11.22 dB 4:24 09-Wake Up Alone (Orginal Recording)
DR7 0.00 dB -7.98 dB 2:56 10-Best Friends, Right?
DR7 -0.09 dB -10.77 dB 3:19 11-Body And Soul (With Tony Bennett)
DR7 -0.09 dB -9.39 dB 4:29 12-A Song For You
––––––––––––––––––––––––––––––––––––––––

Number of tracks: 12
Official DR value: DR7

Samplerate: 44100 Hz
Channels: 2
Bits per sample: 16
Bitrate: 913 kbps
Codec: FLAC
================================================================================

Amy Winehouse - Albums Collection 2003-2012 (6CD) [Re-Up]

Amy Winehouse - Albums Collection 2003-2012 (6CD) [Re-Up]




Amy Winehouse - Albums Collection 2003-2012 (6CD) [Re-Up]

Amy Winehouse - At The BBC (2012)
EAC | FLAC | Image (Cue&Log) ~ 300 Mb | Mp3 (CBR320) ~ 110 Mb | Scans ~ 89 Mb
Label: Universal Island | # 372 197 3 | Time: 00:48:22

Amy Winehouse didn't leave much behind in the vaults, and with her studio recordings already collected on 2011's Lioness: Hidden Treasures, the only thing left was Amy Winehouse at the BBC, a deluxe set rounding up everything the singer cut for any of the BBC's programs. This winds up as more of a video set than a CD one, as she had more appearances on television than radio, including several spots on Jools Holland's Later, plus full-length concerts. All these are here, along with a single-CD sampler of performances from 2004-2009, but most are from her mid-2000s golden period, ending after she became a superstar and just before the addiction settled in. Consequently, this live CD shows all of her brilliance and promise, her command and vitality, and much of that is shown on the videos as well, which also focus on the time when the world seemed to be Winehouse's for the taking. Sadly, that didn't turn out to be the case, which is why At the BBC winds up as a valuable document of her prime and promise.

Review by Stephen Thomas Erlewine, Allmusic.com

Tracklist:

01. Know You Now (Leicester Summer Sundae 2004) [0:03:55.20]
02. Fuck Me Pumps (T In The Park 2004) [0:03:41.42]
03. In My Bed (T In The Park 2004) [0:04:37.58]
04. October Song (T In The Park 2004) [0:03:41.74]
05. Rehab (Pete Mitchell 2006) [0:03:58.03]
06. You Know I'm No Good (Jo Whiley Live Lounge 2007) [0:03:26.68]
07. Just Friends (Big Band Special 2009) [0:03:17.27]
08. Love Is A Losing Game (Jools Holland 2009) [0:02:49.56]
09. Tears Dry On Their Own (Jo Whiley Live Lounge 2007) [0:03:11.14]
10. Best Friends, Right? (Leicester Summer Sundae 2004) [0:03:03.52]
11. I Should Care (The Stables 2004) [0:03:39.02]
12. Lullaby Of Birdland (The Stables 2004) [0:02:34.51]
13. Valerie (Jo Whiley Live Lounge 2007) [0:03:51.05]
14. To Know Him Is To Love Him (Pete Mitchell 2006) [0:02:33.69]


Exact Audio Copy V1.0 beta 3 from 29. August 2011

EAC extraction logfile from 27. February 2013, 19:12

Amy Winehouse / At The BBC

Used drive : Optiarc BD RW BD-5300S Adapter: 3 ID: 0

Read mode : Secure
Utilize accurate stream : Yes
Defeat audio cache : Yes
Make use of C2 pointers : No

Read offset correction : 6
Overread into Lead-In and Lead-Out : No
Fill up missing offset samples with silence : Yes
Delete leading and trailing silent blocks : No
Null samples used in CRC calculations : Yes
Used interface : Installed external ASPI interface

Used output format : User Defined Encoder
Selected bitrate : 1024 kBit/s
Quality : High
Add ID3 tag : No
Command line compressor : C:\Program Files (x86)\Exact Audio Copy\Flac\flac.exe
Additional command line options : -8 -V -T "Date=%year%" -T "Genre=%genre%" -T "COMMENT=ripped by bvstudio®" %source%

TOC of the extracted CD

Track | Start | Length | Start sector | End sector
––––––––––––––––––––––––––––-
1 | 0:00.00 | 3:55.20 | 0 | 17644
2 | 3:55.20 | 3:41.42 | 17645 | 34261
3 | 7:36.62 | 4:37.58 | 34262 | 55094
4 | 12:14.45 | 3:41.74 | 55095 | 71743
5 | 15:56.44 | 3:58.03 | 71744 | 89596
6 | 19:54.47 | 3:26.68 | 89597 | 105114
7 | 23:21.40 | 3:17.27 | 105115 | 119916
8 | 26:38.67 | 2:49.56 | 119917 | 132647
9 | 29:28.48 | 3:11.14 | 132648 | 146986
10 | 32:39.62 | 3:03.52 | 146987 | 160763
11 | 35:43.39 | 3:39.02 | 160764 | 177190
12 | 39:22.41 | 2:34.51 | 177191 | 188791
13 | 41:57.17 | 3:51.05 | 188792 | 206121
14 | 45:48.22 | 2:33.69 | 206122 | 217665

Range status and errors

Selected range

Filename F:\Amy Winehouse\2012 - At The BBC\Amy Winehouse - At The BBC.wav

Peak level 100.0 %
Extraction speed 6.8 X
Range quality 100.0 %
Test CRC A12A65AD
Copy CRC A12A65AD
Copy OK

No errors occurred

AccurateRip summary

Track 1 accurately ripped (confidence 1) [0F707707] (AR v2)
Track 2 accurately ripped (confidence 1) [92DDBCF6] (AR v2)
Track 3 accurately ripped (confidence 1) [7221E011] (AR v2)
Track 4 accurately ripped (confidence 1) [A8EA61EA] (AR v2)
Track 5 cannot be verified as accurate (confidence 1) [C3C00E1E], AccurateRip returned [35DEA2B6] (AR v2)
Track 6 accurately ripped (confidence 1) [545D29E6] (AR v2)
Track 7 accurately ripped (confidence 1) [9E4641FE] (AR v2)
Track 8 accurately ripped (confidence 1) [A0DD10F2] (AR v2)
Track 9 accurately ripped (confidence 1) [E4B1270F] (AR v2)
Track 10 accurately ripped (confidence 1) [43D6CF61] (AR v2)
Track 11 accurately ripped (confidence 1) [C930DC6F] (AR v2)
Track 12 accurately ripped (confidence 1) [935898F1] (AR v2)
Track 13 cannot be verified as accurate (confidence 1) [C5847B86], AccurateRip returned [CC4980CA] (AR v2)
Track 14 accurately ripped (confidence 1) [B814DB86] (AR v2)

12 track(s) accurately ripped
2 track(s) could not be verified as accurate

Some tracks could not be verified as accurate

End of status report

–– CUETools DB Plugin V2.1.4

[CTDB TOCID: oiVQ.ZkJeutuvndaei8m39F3b.c-] found
Submit result: oiVQ.ZkJeutuvndaei8m39F3b.c- has been confirmed
Track | CTDB Status
1 | (32/32) Accurately ripped
2 | (31/32) Accurately ripped
3 | (32/32) Accurately ripped
4 | (32/32) Accurately ripped
5 | (32/32) Accurately ripped
6 | (32/32) Accurately ripped
7 | (32/32) Accurately ripped
8 | (32/32) Accurately ripped
9 | (32/32) Accurately ripped
10 | (32/32) Accurately ripped
11 | (32/32) Accurately ripped
12 | (32/32) Accurately ripped
13 | (32/32) Accurately ripped
14 | (31/32) Accurately ripped

==== Log checksum 0D1EA47014F44073CB87E4457E181FA2A8237674680AA22716AD445A059D6D49 ====

foobar2000 1.2.3 / Dynamic Range Meter 1.1.1
log date: 2013-02-27 19:16:58

––––––––––––––––––––––––––––––––––––––––
Analyzed: Amy Winehouse / At The BBC
––––––––––––––––––––––––––––––––––––––––

DR Peak RMS Duration Track
––––––––––––––––––––––––––––––––––––––––
DR8 -0.09 dB -10.98 dB 3:55 01-Know You Now (Leicester Summer Sundae 2004)
DR8 -0.10 dB -10.49 dB 3:42 02-Fuck Me Pumps (T In The Park 2004)
DR7 0.00 dB -8.58 dB 4:38 03-In My Bed (T In The Park 2004)
DR7 0.00 dB -9.48 dB 3:42 04-October Song (T In The Park 2004)
DR9 0.00 dB -10.23 dB 3:58 05-Rehab (Pete Mitchell 2006)
DR8 -0.09 dB -9.66 dB 3:27 06-You Know I'm No Good (Jo Whiley Live Lounge 2007)
DR7 -0.09 dB -9.16 dB 3:17 07-Just Friends (Big Band Special 2009)
DR7 -0.09 dB -9.28 dB 2:50 08-Love Is A Losing Game (Jools Holland 2009)
DR7 -0.09 dB -8.69 dB 3:11 09-Tears Dry On Their Own (Jo Whiley Live Lounge 2007)
DR8 -0.09 dB -9.84 dB 3:04 10-Best Friends, Right? (Leicester Summer Sundae 2004)
DR7 -0.09 dB -9.95 dB 3:39 11-I Should Care (The Stables 2004)
DR7 -0.09 dB -8.57 dB 2:35 12-Lullaby Of Birdland (The Stables 2004)
DR9 -0.09 dB -11.40 dB 3:51 13-Valerie (Jo Whiley Live Lounge 2007)
DR8 -0.09 dB -10.11 dB 2:34 14-To Know Him Is To Love Him (Pete Mitchell 2006)
––––––––––––––––––––––––––––––––––––––––

Number of tracks: 14
Official DR value: DR8

Samplerate: 44100 Hz
Channels: 2
Bits per sample: 16
Bitrate: 867 kbps
Codec: FLAC
================================================================================

Amy Winehouse - Albums Collection 2003-2012 (6CD) [Re-Up]

Amy Winehouse - Albums Collection 2003-2012 (6CD) [Re-Up]




All thanks to original releaser - bvstudio

More interesting music in My Blog