Subcategories

Amy Winehouse - Amy Winehouse At The BBC (2012) [CD + Bonus DVD]

Posted By: jclane
Amy Winehouse - Amy Winehouse At The BBC (2012) [CD + Bonus DVD]

Amy Winehouse - Amy Winehouse At The BBC (2012) [CD + Bonus DVD]
EAC Rip | FLAC Image + Cue + Log - 309 MB | MP3 CBR @320 kbps - 114 MB | HQ scans - 455 MB
DVD5 | VIDEO_TS | Video: NTSC 16:9 (720x480) | Audio: English (LPCM, 2ch) | Total Time: 59 min | 3.70 GB
Label: Universal Island Records Ltd. | Catalog.#: 372 197 3 | Genre: R&B, Soul, Funk

Amy Winehouse didn't leave much behind in the vaults, and with her studio recordings already collected on 2011's Lioness: Hidden Treasures, the only thing left was Amy Winehouse at the BBC, a deluxe set rounding up everything the singer cut for any of the BBC's programs. This winds up as more of a video set than a CD one, as she had more appearances on television than radio, including several spots on Jools Holland's Later, plus full-length concerts. All these are here, along with a single-CD sampler of performances from 2004-2009, but most are from her mid-2000s golden period, ending after she became a superstar and just before the addiction settled in. Consequently, this live CD shows all of her brilliance and promise, her command and vitality, and much of that is shown on the videos as well, which also focus on the time when the world seemed to be Winehouse's for the taking. Sadly, that didn't turn out to be the case, which is why At the BBC winds up as a valuable document of her prime and promise.

Track Listing

01. Know You Now (Leicester Summer Sundae 2004) - 3:55
02. Fuck Me Pumps (T In The Park 2004) - 3:41
03. In My Bed (T In The Park 2004) - 4:37
04. October Song (T In The Park 2004) - 3:41
05. Rehab (Pete Mitchell 2006) - 3:58
06. You Know I'm No Good (Jo Whiley Live Lounge 2007) - 3:26
07. Just Friends (Big Band Special 2009) - 3:17
08. Love Is A Losing Game (Jools Holland 2009) - 2:49
09. Tears Dry On Their Own (Jo Whiley Live Lounge 2007) - 3:11
10. Best Friends, Right? (Leicester Summer Sundae 2004) - 3:03
11. I Should Care (The Stables 2004) - 3:39
12. Lullaby Of Birdland (The Stables 2004) - 2:34
13. Valerie (Jo Whiley Live Lounge 2007) - 3:51
14. To Know Him Is To Love Him (Pete Mitchell 2006) - 2:33


Exact Audio Copy V1.0 beta 3 from 29. August 2011

EAC extraction logfile from 27. February 2013, 19:12

Amy Winehouse / At The BBC

Used drive : Optiarc BD RW BD-5300S Adapter: 3 ID: 0

Read mode : Secure
Utilize accurate stream : Yes
Defeat audio cache : Yes
Make use of C2 pointers : No

Read offset correction : 6
Overread into Lead-In and Lead-Out : No
Fill up missing offset samples with silence : Yes
Delete leading and trailing silent blocks : No
Null samples used in CRC calculations : Yes
Used interface : Installed external ASPI interface

Used output format : User Defined Encoder
Selected bitrate : 1024 kBit/s
Quality : High
Add ID3 tag : No
Command line compressor : C:\Program Files (x86)\Exact Audio Copy\Flac\flac.exe
Additional command line options : -8 -V -T "Date=%year%" -T "Genre=%genre%" -T "COMMENT=ripped by bvstudio®" %source%


TOC of the extracted CD

Track | Start | Length | Start sector | End sector
––––––––––––––––––––––––––––-
1 | 0:00.00 | 3:55.20 | 0 | 17644
2 | 3:55.20 | 3:41.42 | 17645 | 34261
3 | 7:36.62 | 4:37.58 | 34262 | 55094
4 | 12:14.45 | 3:41.74 | 55095 | 71743
5 | 15:56.44 | 3:58.03 | 71744 | 89596
6 | 19:54.47 | 3:26.68 | 89597 | 105114
7 | 23:21.40 | 3:17.27 | 105115 | 119916
8 | 26:38.67 | 2:49.56 | 119917 | 132647
9 | 29:28.48 | 3:11.14 | 132648 | 146986
10 | 32:39.62 | 3:03.52 | 146987 | 160763
11 | 35:43.39 | 3:39.02 | 160764 | 177190
12 | 39:22.41 | 2:34.51 | 177191 | 188791
13 | 41:57.17 | 3:51.05 | 188792 | 206121
14 | 45:48.22 | 2:33.69 | 206122 | 217665


Range status and errors

Selected range

Filename F:\Amy Winehouse\2012 - At The BBC\Amy Winehouse - At The BBC.wav

Peak level 100.0 %
Extraction speed 6.8 X
Range quality 100.0 %
Test CRC A12A65AD
Copy CRC A12A65AD
Copy OK

No errors occurred


AccurateRip summary

Track 1 accurately ripped (confidence 1) [0F707707] (AR v2)
Track 2 accurately ripped (confidence 1) [92DDBCF6] (AR v2)
Track 3 accurately ripped (confidence 1) [7221E011] (AR v2)
Track 4 accurately ripped (confidence 1) [A8EA61EA] (AR v2)
Track 5 cannot be verified as accurate (confidence 1) [C3C00E1E], AccurateRip returned [35DEA2B6] (AR v2)
Track 6 accurately ripped (confidence 1) [545D29E6] (AR v2)
Track 7 accurately ripped (confidence 1) [9E4641FE] (AR v2)
Track 8 accurately ripped (confidence 1) [A0DD10F2] (AR v2)
Track 9 accurately ripped (confidence 1) [E4B1270F] (AR v2)
Track 10 accurately ripped (confidence 1) [43D6CF61] (AR v2)
Track 11 accurately ripped (confidence 1) [C930DC6F] (AR v2)
Track 12 accurately ripped (confidence 1) [935898F1] (AR v2)
Track 13 cannot be verified as accurate (confidence 1) [C5847B86], AccurateRip returned [CC4980CA] (AR v2)
Track 14 accurately ripped (confidence 1) [B814DB86] (AR v2)

12 track(s) accurately ripped
2 track(s) could not be verified as accurate

Some tracks could not be verified as accurate

End of status report

–– CUETools DB Plugin V2.1.4

[CTDB TOCID: oiVQ.ZkJeutuvndaei8m39F3b.c-] found
Submit result: oiVQ.ZkJeutuvndaei8m39F3b.c- has been confirmed
Track | CTDB Status
1 | (32/32) Accurately ripped
2 | (31/32) Accurately ripped
3 | (32/32) Accurately ripped
4 | (32/32) Accurately ripped
5 | (32/32) Accurately ripped
6 | (32/32) Accurately ripped
7 | (32/32) Accurately ripped
8 | (32/32) Accurately ripped
9 | (32/32) Accurately ripped
10 | (32/32) Accurately ripped
11 | (32/32) Accurately ripped
12 | (32/32) Accurately ripped
13 | (32/32) Accurately ripped
14 | (31/32) Accurately ripped


==== Log checksum 0D1EA47014F44073CB87E4457E181FA2A8237674680AA22716AD445A059D6D49 ====


[CUETools log; Date: 4/21/2014 4:27:33 AM; Version: 2.1.4]
[CTDB TOCID: oiVQ.ZkJeutuvndaei8m39F3b.c-] found.
Track | CTDB Status
1 | (79/79) Accurately ripped
2 | (78/79) Accurately ripped
3 | (79/79) Accurately ripped
4 | (79/79) Accurately ripped
5 | (79/79) Accurately ripped
6 | (79/79) Accurately ripped
7 | (79/79) Accurately ripped
8 | (79/79) Accurately ripped
9 | (79/79) Accurately ripped
10 | (78/79) Accurately ripped
11 | (78/79) Accurately ripped
12 | (79/79) Accurately ripped
13 | (78/79) Accurately ripped
14 | (78/79) Accurately ripped
[AccurateRip ID: 001a4c99-0114630c-bf0b560e] found.
Track [ CRC | V2 ] Status
01 [b86ca192|0f707707] (00+77/81) Accurately ripped
02 [cb68e0ee|92ddbcf6] (00+77/81) Accurately ripped
03 [fc97ecee|7221e011] (00+77/81) Accurately ripped
04 [d6faa947|a8ea61ea] (00+77/81) Accurately ripped
05 [f9261847|c3c00e1e] (00+77/81) Accurately ripped
06 [7eebcfc7|545d29e6] (00+78/82) Accurately ripped
07 [35bfff14|9e4641fe] (00+77/81) Accurately ripped
08 [76291a7d|a0dd10f2] (00+78/82) Accurately ripped
09 [2e61c8ae|e4b1270f] (00+77/81) Accurately ripped
10 [8a15d590|43d6cf61] (00+77/81) Accurately ripped
11 [2fa175bf|c930dc6f] (00+77/81) Accurately ripped
12 [9e920d47|935898f1] (00+78/82) Accurately ripped
13 [dc79f01d|c5847b86] (00+77/81) Accurately ripped
14 [87cee21b|b814db86] (00+78/82) Accurately ripped
Offsetted by -646:
01 [12ffe099] (00/81) No match (V2 was not tested)
02 [81aeb6d5] (00/81) No match (V2 was not tested)
03 [2b0a21b8] (00/81) No match (V2 was not tested)
04 [0ff94039] (00/81) No match (V2 was not tested)
05 [8a8f5b01] (00/81) No match (V2 was not tested)
06 [193f37d9] (00/82) No match (V2 was not tested)
07 [bedab223] (00/81) No match (V2 was not tested)
08 [c8ed9e67] (00/82) No match (V2 was not tested)
09 [254f2b43] (00/81) No match (V2 was not tested)
10 [dad951cd] (00/81) No match (V2 was not tested)
11 [aa141d40] (00/81) No match (V2 was not tested)
12 [5aba2fee] (00/82) No match (V2 was not tested)
13 [a4e5b203] (00/81) No match (V2 was not tested)
14 [bfbe2dac] (00/82) No match (V2 was not tested)
Offsetted by -66:
01 [c55b6e8a] (00/81) No match (V2 was not tested)
02 [597a0fc2] (00/81) No match (V2 was not tested)
03 [a92564ce] (00/81) No match (V2 was not tested)
04 [841fa1e1] (00/81) No match (V2 was not tested)
05 [9bb328e7] (00/81) No match (V2 was not tested)
06 [8d4cf74e] (00/82) No match (V2 was not tested)
07 [7504215b] (00/81) No match (V2 was not tested)
08 [83b88241] (00/82) No match (V2 was not tested)
09 [d4f149d3] (00/81) No match (V2 was not tested)
10 [5693daa5] (00/81) No match (V2 was not tested)
11 [05e07cac] (00/81) No match (V2 was not tested)
12 [dc03caf6] (00/82) No match (V2 was not tested)
13 [aaf2d6db] (00/81) No match (V2 was not tested)
14 [7b2705fb] (00/82) No match (V2 was not tested)

Track Peak [ CRC32 ] [W/O NULL] [ LOG ]
– 100.0 [A12A65AD] [7C5762CE] CRC32
01 98.9 [24E36D6A] [ECF43142]
02 98.8 [27527ED7] [4EF37139]
03 100.0 [3E9E6F01] [F6C78817]
04 100.0 [D5468AF9] [D1FC6932]
05 100.0 [C8CAC3DF] [773AFC7F]
06 98.9 [1FFC1E05] [22C7F58F]
07 98.9 [10C86811] [A22355E1]
08 98.9 [3E28DE1D] [0121CD9F]
09 98.9 [7C5C9D68] [9CF30E40]
10 98.9 [C188C1F2] [69ACBC37]
11 98.9 [AF792872] [E5097BB9]
12 98.9 [2CECF2C3] [38229D29]
13 98.9 [9B79C969] [26465880]
14 98.9 [2FE4C690] [5AB1EA98]


DVD - Arena: Amy Winehouse - The Day She Came To Dingle'

Documentary featuring live performances of:

01. Tears Dry On Their Own (Live)
02. You Know I'm No Good (Live)
03. Love Is A Losing Game (Live)
04. Back To Black (Live)
05. Rehab (Live)
06. Me & Mr. Jones (Live)


Title: Bonus DVD
Size: 3.59 Gb ( 3 768 820,00 KBytes ) - DVD-5
Enabled regions: 1, 2, 3, 4, 5, 6, 7, 8

VTS_01 :
Play Length: 00:59:28
Video: NTSC 16:9 (720x480) VBR, Auto Letterboxed
Audio:
English (LinearPCM, 2 ch)
Subtitles:
English
Francais
Deutsch
Italiano
Espanol
Portugues


Released Date: 12 November 2012
Format: CD + DVD video / Live compilation
Length: 48:22 (CD) | 59:28 (DVD)

Amy Winehouse - Amy Winehouse At The BBC (2012) [CD + Bonus DVD]

Amy Winehouse - Amy Winehouse At The BBC (2012) [CD + Bonus DVD]

Amy Winehouse - Amy Winehouse At The BBC (2012) [CD + Bonus DVD]

Amy Winehouse - Amy Winehouse At The BBC (2012) [CD + Bonus DVD]

Amy Winehouse - Amy Winehouse At The BBC (2012) [CD + Bonus DVD]

Amy Winehouse - Amy Winehouse At The BBC (2012) [CD + Bonus DVD]

Amy Winehouse - Amy Winehouse At The BBC (2012) [CD + Bonus DVD]

Amy Winehouse - Amy Winehouse At The BBC (2012) [CD + Bonus DVD]


Amy Winehouse - Amy Winehouse At The BBC (2012) [CD + Bonus DVD]
Amy Winehouse - Amy Winehouse At The BBC (2012) [CD + Bonus DVD]


Ripped by bvstudio & Original Releaser


All links are interchangeable!

Dead Links? please send me a private message.