Tags
Language
Tags

Anathema - Fine Days: 1999-2004 [3CD Box Set] (2015) (Re-up)

Posted By: gribovar
Anathema - Fine Days: 1999-2004 [3CD Box Set] (2015) (Re-up)

Anathema - Fine Days: 1999-2004 [3CD Box Set] (2015)
EAC Rip | FLAC (image+.cue+log) - 1,11 GB | MP3 CBR 320 kbps (LAME 3.93) - 411 MB | Covers - 276 MB
Genre: Psychedelic/Atmospheric Rock | RAR 3% Rec. | Label: Sony Music/Music for Nations (88875058542)

In the twenty-first century, Anathema have often been mentioned in the same breath as Opeth and Porcupine Tree due to their increased movement towards thoughtful progressive rock structures. It hasn’t always been that way, of course. Like Opeth, the band began life as a totally different musical beast, playing in a melodic death metal style. Shifting line-ups naturally resulted in shifting sounds, and by the time the band signed with the legendary Music For Nations label for their fifth album "Judgement" in 1999, they’d settled on a rather tough but accessible blend of gothy and alternative rock.
Comprising three discs of remastered audio material, "Fine Days 1999-2004" presents a detailed look this important period in the Anathema history, showing the workings of a band very much moving towards the top of their game. There’s a lot to take in across the three hours and thirty three tracks; each of the separate albums are very strong, but bundled together in this way, it’s an incredible body of work with surprisingly little filler.
Since the contents of this box set are of such a consistently high quality, "Fine Days" provides a near perfect introduction to Anathema, should one be necessary. Avoiding any of the more marginal doom aspects of the band’s past but retaining a few darker elements, this box will be especially useful - and near essential - item for those who’ve discovered the band somewhat belatedly. Very little here is as quite as slick as that of the better known "Weather Systems" or "Distant Satellites", but most of the material is superior at almost every turn, too. Bringing a perfect blend of melody and moodiness, hearing Anathema’s Music For Nations recordings years after the event, it’s more than obvious why these albums have gained and retained such a cult audience.

Anathema - Fine Days: 1999-2004 [3CD Box Set] (2015) (Re-up)

CD 1: Anathema - Judgement (1999)
EAC Rip | FLAC (image+.cue+log) - 384 MB | MP3 CBR 320 kbps (LAME 3.93) - 134 MB
Genre: Psychedelic/Atmospheric Rock | RAR 3% Rec. | Label: Sony Music/Music for Nations (88875058542)

Tracklist:
01. Deep
02. Pittless
03. Forgotten Hopes
04. Destiny Is Dead
05. Make It Right
06. One Last Goodbye
07. Parisienne Moonlight
08. Judgement
09. Don't Look Too Far
10. Emotional Winter
11. Wings of God
12. Anyone, Anywhere
13. 2000 & Gone

Total time: 57:03

Exact Audio Copy V1.1 from 23. June 2015

EAC extraction logfile from 16. January 2016, 20:12

ANATHEMA / Judgement- Fine Days: 1999 - 2004 (CD1)

Used drive : HL-DT-STDVDRAM GH22NS70 Adapter: 1 ID: 1

Read mode : Secure
Utilize accurate stream : Yes
Defeat audio cache : Yes
Make use of C2 pointers : No

Read offset correction : 667
Overread into Lead-In and Lead-Out : No
Fill up missing offset samples with silence : Yes
Delete leading and trailing silent blocks : No
Null samples used in CRC calculations : Yes
Used interface : Native Win32 interface for Win NT & 2000

Used output format : User Defined Encoder
Selected bitrate : 768 kBit/s
Quality : High
Add ID3 tag : No
Command line compressor : C:\Program Files (x86)\Exact Audio Copy\FLAC\FLAC.EXE
Additional command line options : -6 -V %source%


TOC of the extracted CD

Track | Start | Length | Start sector | End sector
––––––––––––––––––––––––––––-
1 | 0:00.00 | 4:53.22 | 0 | 21996
2 | 4:53.22 | 3:10.51 | 21997 | 36297
3 | 8:03.73 | 3:50.36 | 36298 | 53583
4 | 11:54.34 | 1:46.38 | 53584 | 61571
5 | 13:40.72 | 4:18.35 | 61572 | 80956
6 | 17:59.32 | 5:23.70 | 80957 | 105251
7 | 23:23.27 | 2:10.05 | 105252 | 115006
8 | 25:33.32 | 4:20.21 | 115007 | 134527
9 | 29:53.53 | 4:56.10 | 134528 | 156737
10 | 34:49.63 | 5:55.06 | 156738 | 183368
11 | 40:44.69 | 6:28.57 | 183369 | 212525
12 | 47:13.51 | 4:50.73 | 212526 | 234348
13 | 52:04.49 | 4:58.37 | 234349 | 256735


Range status and errors

Selected range

Filename E:\Música\EAC\Anathema\Fine Days\ANATHEMA - Judgement- Fine Days- 1999 - 2004 (CD1).wav

Peak level 99.4 %
Extraction speed 4.7 X
Range quality 100.0 %
Test CRC 6DE86223
Copy CRC 6DE86223
Copy OK

No errors occurred


AccurateRip summary

Track 1 accurately ripped (confidence 2) [320DF55A] (AR v2)
Track 2 accurately ripped (confidence 2) [99170171] (AR v2)
Track 3 accurately ripped (confidence 2) [151F42E3] (AR v2)
Track 4 accurately ripped (confidence 2) [6FA8D1CE] (AR v2)
Track 5 accurately ripped (confidence 2) [CFF67568] (AR v2)
Track 6 accurately ripped (confidence 2) [137E1D6C] (AR v2)
Track 7 accurately ripped (confidence 2) [9CEC5D95] (AR v2)
Track 8 accurately ripped (confidence 2) [6AA25B19] (AR v2)
Track 9 accurately ripped (confidence 2) [900CF312] (AR v2)
Track 10 accurately ripped (confidence 2) [915EA8A7] (AR v2)
Track 11 accurately ripped (confidence 2) [BF3F53E9] (AR v2)
Track 12 accurately ripped (confidence 2) [2A6CCDC5] (AR v2)
Track 13 accurately ripped (confidence 2) [16242184] (AR v2)

All tracks accurately ripped

End of status report

–– CUETools DB Plugin V2.1.6

[CTDB TOCID: fw7D.hCkJM7N76Zx3kG.sDrVdzk-] found
Submit result: fw7D.hCkJM7N76Zx3kG.sDrVdzk- has been confirmed
Track | CTDB Status
1 | (22/22) Accurately ripped
2 | (22/22) Accurately ripped
3 | (22/22) Accurately ripped
4 | (22/22) Accurately ripped
5 | (22/22) Accurately ripped
6 | (22/22) Accurately ripped
7 | (22/22) Accurately ripped
8 | (22/22) Accurately ripped
9 | (22/22) Accurately ripped
10 | (22/22) Accurately ripped
11 | (22/22) Accurately ripped
12 | (22/22) Accurately ripped
13 | (22/22) Accurately ripped


==== Log checksum 9C41743E78F6FA145A386AC8F7CA09E0317B15903D75FAB4B2F3955A301D2A8C ====

[CUETools log; Date: 31.07.2021 16:43:31; Version: 2.1.4]
[CTDB TOCID: fw7D.hCkJM7N76Zx3kG.sDrVdzk-] found.
Track | CTDB Status
1 | (84/84) Accurately ripped
2 | (84/84) Accurately ripped
3 | (84/84) Accurately ripped
4 | (84/84) Accurately ripped
5 | (84/84) Accurately ripped
6 | (84/84) Accurately ripped
7 | (84/84) Accurately ripped
8 | (84/84) Accurately ripped
9 | (84/84) Accurately ripped
10 | (84/84) Accurately ripped
11 | (83/84) Accurately ripped
12 | (83/84) Accurately ripped
13 | (83/84) Accurately ripped
[AccurateRip ID: 001938b1-01006897-af0d5f0d] found.
Track [ CRC | V2 ] Status
01 [6b2e3a36|320df55a] (00+27/30) Accurately ripped
02 [d919eb4f|99170171] (00+27/30) Accurately ripped
03 [fe0b92bd|151f42e3] (00+27/30) Accurately ripped
04 [23e9b965|6fa8d1ce] (00+27/30) Accurately ripped
05 [44c530df|cff67568] (00+27/30) Accurately ripped
06 [09747d46|137e1d6c] (00+27/30) Accurately ripped
07 [84b0ece8|9cec5d95] (00+27/30) Accurately ripped
08 [1e646e45|6aa25b19] (00+27/30) Accurately ripped
09 [dc0dd273|900cf312] (00+27/30) Accurately ripped
10 [ca8eb904|915ea8a7] (00+27/30) Accurately ripped
11 [bcb526d6|bf3f53e9] (00+27/30) Accurately ripped
12 [befdd500|2a6ccdc5] (00+24/27) Accurately ripped
13 [b4c72356|16242184] (00+25/28) Accurately ripped
Offsetted by -6:
01 [659276be] (00/30) No match (V2 was not tested)
02 [c11e09d7] (00/30) No match (V2 was not tested)
03 [652b0046] (00/30) No match (V2 was not tested)
04 [d766d8ee] (00/30) No match (V2 was not tested)
05 [46ec87cb] (00/30) No match (V2 was not tested)
06 [b45085ca] (00/30) No match (V2 was not tested)
07 [49e4be26] (00/30) No match (V2 was not tested)
08 [52c59107] (00/30) No match (V2 was not tested)
09 [0e8a84cf] (00/30) No match (V2 was not tested)
10 [11fcb72d] (00/30) No match (V2 was not tested)
11 [ee076a97] (00/30) No match (V2 was not tested)
12 [c946edfd] (00/27) No match (V2 was not tested)
13 [97ac186d] (00/28) No match (V2 was not tested)

Track Peak [ CRC32 ] [W/O NULL] [ LOG ]
– 99,4 [6DE86223] [0626E43E] CRC32
01 99,0 [F5E71117] [78F96D94]
02 98,7 [79B071EB] [56D20AC7]
03 98,0 [33E2F0A8] [C76B88C0]
04 94,5 [88C05F7B] [73A6D949]
05 96,1 [41A94521] [D572A4E9]
06 96,7 [49F5C73B] [2FC16F43]
07 95,1 [4750DAF6] [3FF3265D]
08 96,4 [00B53327] [494A3A7E]
09 95,9 [85DE0A1C] [563713CD]
10 97,3 [C51DEA63] [10FF32EB]
11 99,4 [8E645473] [934D71B1]
12 98,6 [DD038CF3] [AF60075C]
13 97,3 [E07CB4B5] [BEE828D9]

Anathema - Fine Days: 1999-2004 [3CD Box Set] (2015) (Re-up)

CD 2: Anathema - A Fine Day To Exit (2001)
EAC Rip | FLAC (image+.cue+log) - 411 MB | MP3 CBR 320 kbps (LAME 3.93) - 147 MB
Genre: Psychedelic/Atmospheric Rock | RAR 3% Rec. | Label: Sony Music/Music for Nations (88875058542)

Tracklist:
01. A Fine Day
02. Release
03. Leave No Trace
04. Underworld
05. Pressure
06. Panic
07. Breaking Down the Barriers
08. Looking Outside Inside
09. A Fine Day to Exit
10. Temporary Peace

Total time: 01:02:34

Exact Audio Copy V1.1 from 23. June 2015

EAC extraction logfile from 16. January 2016, 21:01

ANATHEMA / A Fine Day To Exit - Fine Days- 1999 - 2004 (CD2)

Used drive : HL-DT-STDVDRAM GH22NS70 Adapter: 1 ID: 1

Read mode : Secure
Utilize accurate stream : Yes
Defeat audio cache : Yes
Make use of C2 pointers : No

Read offset correction : 667
Overread into Lead-In and Lead-Out : No
Fill up missing offset samples with silence : Yes
Delete leading and trailing silent blocks : No
Null samples used in CRC calculations : Yes
Used interface : Native Win32 interface for Win NT & 2000

Used output format : User Defined Encoder
Selected bitrate : 768 kBit/s
Quality : High
Add ID3 tag : No
Command line compressor : C:\Program Files (x86)\Exact Audio Copy\FLAC\FLAC.EXE
Additional command line options : -6 -V %source%


TOC of the extracted CD

Track | Start | Length | Start sector | End sector
––––––––––––––––––––––––––––-
1 | 0:00.00 | 3:34.72 | 0 | 16121
2 | 3:34.72 | 5:40.59 | 16122 | 41680
3 | 9:15.56 | 4:46.10 | 41681 | 63140
4 | 14:01.66 | 4:12.26 | 63141 | 82066
5 | 18:14.17 | 6:38.30 | 82067 | 111946
6 | 24:52.47 | 3:37.53 | 111947 | 128274
7 | 28:30.25 | 5:44.03 | 128275 | 154077
8 | 34:14.28 | 6:15.00 | 154078 | 182202
9 | 40:29.28 | 6:48.61 | 182203 | 212863
10 | 47:18.14 | 15:15.55 | 212864 | 281543


Range status and errors

Selected range

Filename E:\Música\EAC\Anathema\Fine Days\ANATHEMA - A Fine Day To Exit - Fine Days- 1999 - 2004 (CD2).wav

Peak level 100.0 %
Extraction speed 7.6 X
Range quality 99.9 %
Test CRC 2A74C9D3
Copy CRC 2A74C9D3
Copy OK

No errors occurred


AccurateRip summary

Track 1 accurately ripped (confidence 4) [FF6A5829] (AR v2)
Track 2 accurately ripped (confidence 4) [E2A1F66B] (AR v2)
Track 3 accurately ripped (confidence 4) [D5393D26] (AR v2)
Track 4 accurately ripped (confidence 4) [11C596F0] (AR v2)
Track 5 accurately ripped (confidence 4) [937F0150] (AR v2)
Track 6 accurately ripped (confidence 4) [7D650116] (AR v2)
Track 7 accurately ripped (confidence 4) [9D886B7B] (AR v2)
Track 8 accurately ripped (confidence 4) [76B27572] (AR v2)
Track 9 accurately ripped (confidence 4) [0642787D] (AR v2)
Track 10 accurately ripped (confidence 4) [AF358E30] (AR v2)

All tracks accurately ripped

End of status report

–– CUETools DB Plugin V2.1.6

[CTDB TOCID: jyIRfr9ErmL9_jG9kRgTg204Krc-] found
Submit result: jyIRfr9ErmL9_jG9kRgTg204Krc- has been confirmed
Track | CTDB Status
1 | (24/24) Accurately ripped
2 | (24/24) Accurately ripped
3 | (24/24) Accurately ripped
4 | (24/24) Accurately ripped
5 | (24/24) Accurately ripped
6 | (24/24) Accurately ripped
7 | (24/24) Accurately ripped
8 | (24/24) Accurately ripped
9 | (24/24) Accurately ripped
10 | (24/24) Accurately ripped


==== Log checksum 58CE59C6D32AEEC2686D83ECCBF9D4EAFCA0955989D00690E31A35F478AEE51F ====

[CUETools log; Date: 31.07.2021 16:44:01; Version: 2.1.4]
[CTDB TOCID: jyIRfr9ErmL9_jG9kRgTg204Krc-] found.
Track | CTDB Status
1 | (92/92) Accurately ripped
2 | (92/92) Accurately ripped
3 | (92/92) Accurately ripped
4 | (92/92) Accurately ripped
5 | (92/92) Accurately ripped
6 | (92/92) Accurately ripped
7 | (91/92) Accurately ripped
8 | (92/92) Accurately ripped
9 | (92/92) Accurately ripped
10 | (91/92) Accurately ripped
[AccurateRip ID: 00137042-00a0083d-7d0ea90a] found.
Track [ CRC | V2 ] Status
01 [c8c2112a|ff6a5829] (00+28/31) Accurately ripped
02 [1bfc6ccf|e2a1f66b] (00+28/31) Accurately ripped
03 [712dc351|d5393d26] (00+28/31) Accurately ripped
04 [9ac7c63e|11c596f0] (00+28/31) Accurately ripped
05 [7f284274|937f0150] (00+28/31) Accurately ripped
06 [77a47049|7d650116] (00+28/31) Accurately ripped
07 [811930f2|9d886b7b] (00+28/31) Accurately ripped
08 [a809a83f|76b27572] (00+28/31) Accurately ripped
09 [77cf00dc|0642787d] (00+28/31) Accurately ripped
10 [094cc275|af358e30] (00+28/31) Accurately ripped
Offsetted by -6:
01 [247ab8de] (00/31) No match (V2 was not tested)
02 [e3b132df] (00/31) No match (V2 was not tested)
03 [74271347] (00/31) No match (V2 was not tested)
04 [563dfc72] (00/31) No match (V2 was not tested)
05 [34d0fa96] (00/31) No match (V2 was not tested)
06 [05fc682d] (00/31) No match (V2 was not tested)
07 [3b3ce966] (00/31) No match (V2 was not tested)
08 [eabfadc1] (00/31) No match (V2 was not tested)
09 [78b51690] (00/31) No match (V2 was not tested)
10 [9586d1db] (00/31) No match (V2 was not tested)

Track Peak [ CRC32 ] [W/O NULL] [ LOG ]
– 100,0 [2A74C9D3] [91927FB0] CRC32
01 99,1 [0BBB6530] [31EF6421]
02 96,3 [3576E596] [D3FBC891]
03 96,3 [F10C70F8] [CEA130D0]
04 96,9 [5902F944] [7DFA9C8A]
05 95,3 [96BED2AF] [BBAF2B32]
06 96,3 [5B3A5C36] [CEC120F8]
07 100,0 [6A190A1C] [C602BA6D]
08 95,8 [0024B36C] [FDB32F3C]
09 96,3 [191109EE] [43BC0399]
10 100,0 [903A5109] [3A1C99F6]

Anathema - Fine Days: 1999-2004 [3CD Box Set] (2015) (Re-up)

CD 3: Anathema - A Natural Disaster (2003)
EAC Rip | FLAC (image+.cue+log) - 315 MB | MP3 CBR 320 kbps (LAME 3.93) - 130 MB
Genre: Psychedelic/Atmospheric Rock | RAR 3% Rec. | Label: Sony Music/Music for Nations (88875058542)

Tracklist:
01. Harmonium
02. Balance
03. Closer
04. Are You There?
05. Childhood Dream
06. Pulled Under at 2000 Metres a Second
07. A Natural Disaster
08. Flying
09. Electricity
10. Violence

Total time: 55:32

Exact Audio Copy V1.1 from 23. June 2015

EAC extraction logfile from 16. January 2016, 20:36

ANATHEMA / A Natural Disaster - Fine Days- 1999 - 2004 (CD3)

Used drive : HL-DT-STDVDRAM GH22NS70 Adapter: 1 ID: 1

Read mode : Secure
Utilize accurate stream : Yes
Defeat audio cache : Yes
Make use of C2 pointers : No

Read offset correction : 667
Overread into Lead-In and Lead-Out : No
Fill up missing offset samples with silence : Yes
Delete leading and trailing silent blocks : No
Null samples used in CRC calculations : Yes
Used interface : Native Win32 interface for Win NT & 2000

Used output format : User Defined Encoder
Selected bitrate : 768 kBit/s
Quality : High
Add ID3 tag : No
Command line compressor : C:\Program Files (x86)\Exact Audio Copy\FLAC\FLAC.EXE
Additional command line options : -6 -V %source%


TOC of the extracted CD

Track | Start | Length | Start sector | End sector
––––––––––––––––––––––––––––-
1 | 0:00.00 | 5:28.25 | 0 | 24624
2 | 5:28.25 | 3:58.36 | 24625 | 42510
3 | 9:26.61 | 6:21.37 | 42511 | 71122
4 | 15:48.23 | 4:58.00 | 71123 | 93472
5 | 20:46.23 | 2:10.74 | 93473 | 103296
6 | 22:57.22 | 5:22.59 | 103297 | 127505
7 | 28:20.06 | 6:27.51 | 127506 | 156581
8 | 34:47.57 | 5:57.01 | 156582 | 183357
9 | 40:44.58 | 3:52.08 | 183358 | 200765
10 | 44:36.66 | 10:55.35 | 200766 | 249925


Range status and errors

Selected range

Filename E:\Música\EAC\Anathema\Fine Days\ANATHEMA - A Natural Disaster - Fine Days- 1999 - 2004 (CD3).wav

Peak level 98.6 %
Extraction speed 4.7 X
Range quality 100.0 %
Test CRC DDF460C8
Copy CRC DDF460C8
Copy OK

No errors occurred


AccurateRip summary

Track 1 accurately ripped (confidence 4) [459AF988] (AR v2)
Track 2 accurately ripped (confidence 4) [A37DCF44] (AR v2)
Track 3 accurately ripped (confidence 4) [88E25883] (AR v2)
Track 4 accurately ripped (confidence 4) [CE50570B] (AR v2)
Track 5 accurately ripped (confidence 4) [B6BA5CC4] (AR v2)
Track 6 accurately ripped (confidence 4) [A24CD0E9] (AR v2)
Track 7 accurately ripped (confidence 4) [A9BC0E51] (AR v2)
Track 8 accurately ripped (confidence 4) [ADE7D471] (AR v2)
Track 9 accurately ripped (confidence 4) [6098D543] (AR v2)
Track 10 accurately ripped (confidence 4) [DE51FEE2] (AR v2)

All tracks accurately ripped

End of status report

–– CUETools DB Plugin V2.1.6

[CTDB TOCID: PGPHthFRFV71ZaxAIYTffgxhDCM-] found
Submit result: PGPHthFRFV71ZaxAIYTffgxhDCM- has been confirmed
Track | CTDB Status
1 | (25/25) Accurately ripped
2 | (23/25) Accurately ripped
3 | (24/25) Accurately ripped, or (1/25) differs in 3 samples @06:20:32
4 | (25/25) Accurately ripped
5 | (25/25) Accurately ripped
6 | (25/25) Accurately ripped
7 | (25/25) Accurately ripped
8 | (25/25) Accurately ripped
9 | (22/25) Accurately ripped, or (1/25) differs in 4 samples @01:14:47
10 | (25/25) Accurately ripped


==== Log checksum 05708B4AAD299EBC0A4A71AE5999F6A84B635467129E2DAE94DF29979CEBD14B ====

[CUETools log; Date: 31.07.2021 16:44:28; Version: 2.1.4]
[CTDB TOCID: PGPHthFRFV71ZaxAIYTffgxhDCM-] found.
Track | CTDB Status
1 | (92/92) Accurately ripped
2 | (90/92) Accurately ripped
3 | (91/92) Accurately ripped
4 | (92/92) Accurately ripped
5 | (92/92) Accurately ripped
6 | (92/92) Accurately ripped
7 | (92/92) Accurately ripped
8 | (92/92) Accurately ripped
9 | (89/92) Accurately ripped
10 | (90/92) Accurately ripped
[AccurateRip ID: 00131f2f-009a1fd1-900d040a] found.
Track [ CRC | V2 ] Status
01 [6041accb|459af988] (00+28/30) Accurately ripped
02 [5311276e|a37dcf44] (00+28/30) Accurately ripped
03 [c3ae17c5|88e25883] (00+28/30) Accurately ripped
04 [2266687a|ce50570b] (00+28/30) Accurately ripped
05 [bc44854a|b6ba5cc4] (00+28/30) Accurately ripped
06 [de1f8eba|a24cd0e9] (00+28/30) Accurately ripped
07 [34c13cd2|a9bc0e51] (00+28/30) Accurately ripped
08 [4e6af865|ade7d471] (00+28/30) Accurately ripped
09 [df7b6c9a|6098d543] (00+27/29) Accurately ripped
10 [faca9d64|de51fee2] (00+27/29) Accurately ripped
Offsetted by -12:
01 [5e33fed5] (00/30) No match (V2 was not tested)
02 [64613f87] (00/30) No match (V2 was not tested)
03 [61293365] (00/30) No match (V2 was not tested)
04 [53a5e247] (00/30) No match (V2 was not tested)
05 [325e375f] (00/30) No match (V2 was not tested)
06 [ef93bb79] (00/30) No match (V2 was not tested)
07 [b7715a4f] (00/30) No match (V2 was not tested)
08 [1cce6328] (00/30) No match (V2 was not tested)
09 [bdc6765c] (00/29) No match (V2 was not tested)
10 [5b8e4dd6] (00/29) No match (V2 was not tested)

Track Peak [ CRC32 ] [W/O NULL] [ LOG ]
– 98,6 [DDF460C8] [A4915D92] CRC32
01 97,4 [A1CBD53B] [5D05E606]
02 95,7 [E6DA0F49] [E9A528B2]
03 98,6 [13B43806] [515C6763]
04 95,1 [2192D8C8] [7A819BEA]
05 94,4 [8D093988] [99AFADBE]
06 96,1 [2C8C3FBF] [93E4F4D5]
07 96,7 [D325C8D1] [ED934D03]
08 98,1 [BD62EEE2] [5C2F598F]
09 95,6 [CFECE385] [C0552C51]
10 96,3 [C5BCCEE7] [2D983007]

Thanks to jarpomarx

See also: