Subcategories

Ancient Empire - The Tower (2017)

Posted By: Andi_Deris
Ancient Empire - The Tower (2017)

Ancient Empire - The Tower (2017)
EAC Rip | FLAC: Image+Cue+Log | 415 Mb | MP3 CBR 320 kbps | 136 Mb | Scans | 32 Mb | 54:41
Stormspell Records | SSR-DL-220
Heavy Metal

The science-fiction obsessed metal heads of Ancient Empire are back with The Tower, their third studio album for Stormspell Records. The Tower picks up pretty much where Other World left off - nine tracks of classy, melodic-but-heavy power metal. Recommended for the fans of Iron Savior, Grave Digger, Omen, Sanctuary (USA), Scanner, Overkill, Savatage, Battleroar and Rocka Rollas.

Ancient Empire - The Tower (2017)




Track Listing

01. The Tower (06:52)
02. Endless Curse (05:25)
03. View From Up Here (05:11)
04. In The Land Of The Damned (07:04)
05. The Battle Of Stirling Bridge (05:46)
06. Darker Side Of Midnight (04:54)
07. Yesterday's Hero (04:38)
08. Dawn Of Forever (07:05)
09. The Last Sunset (07:47)

Produced by Joe Liszt & Steve Pelletier

Personnel

• Joe Liszt - Guitar, Bass & Vocals
• Steve Pelletier - Drums

Exact Audio Copy V1.3 from 2. September 2016

EAC extraction logfile from 2. January 2018, 15:37

Ancient Empire / The Tower

Used drive : ATAPI iHAS122 W Adapter: 2 ID: 0

Read mode : Secure
Utilize accurate stream : Yes
Defeat audio cache : Yes
Make use of C2 pointers : No

Read offset correction : 48
Overread into Lead-In and Lead-Out : No
Fill up missing offset samples with silence : Yes
Delete leading and trailing silent blocks : No
Null samples used in CRC calculations : Yes
Used interface : Installed external ASPI interface

Used output format : User Defined Encoder
Selected bitrate : 1024 kBit/s
Quality : High
Add ID3 tag : No
Command line compressor : C:\Program Files\FLAC\flac.exe
Additional command line options : -V -8 -T "Date=%year%" -T "Genre=%genre%" -T"COMMENT=Ripped by Ilijan" -8 -V %source%


TOC of the extracted CD

Track | Start | Length | Start sector | End sector
––––––––––––––––––––––––––––-
1 | 0:00.00 | 6:51.53 | 0 | 30877
2 | 6:51.53 | 5:24.48 | 30878 | 55225
3 | 12:16.26 | 5:11.27 | 55226 | 78577
4 | 17:27.53 | 7:03.46 | 78578 | 110348
5 | 24:31.24 | 5:45.35 | 110349 | 136258
6 | 30:16.59 | 4:53.38 | 136259 | 158271
7 | 35:10.22 | 4:38.10 | 158272 | 179131
8 | 39:48.32 | 7:05.10 | 179132 | 211016
9 | 46:53.42 | 7:46.70 | 211017 | 246036


Range status and errors

Selected range

Filename D:\Ancient Empire - The Tower.wav

Peak level 98.8 %
Extraction speed 3.9 X
Range quality 99.9 %
Test CRC E5572BF4
Copy CRC E5572BF4
Copy OK

No errors occurred


AccurateRip summary

Track 1 not present in database
Track 2 not present in database
Track 3 not present in database
Track 4 not present in database
Track 5 not present in database
Track 6 not present in database
Track 7 not present in database
Track 8 not present in database
Track 9 not present in database

None of the tracks are present in the AccurateRip database

End of status report

–– CUETools DB Plugin V2.1.6

[CTDB TOCID: zjw1F2J0S2yjkzllDva.azIlWhQ-] found
Submit result: zjw1F2J0S2yjkzllDva.azIlWhQ- has been confirmed
Track | CTDB Status
1 | (1/1) Accurately ripped
2 | (1/1) Accurately ripped
3 | (1/1) Accurately ripped
4 | (1/1) Accurately ripped
5 | (1/1) Accurately ripped
6 | (1/1) Accurately ripped
7 | (1/1) Accurately ripped
8 | (1/1) Accurately ripped
9 | (1/1) Accurately ripped


==== Log checksum 6885B607682F5CDAEB03BA5EC30259C9DC2E56587B746AC925FB7D69109C8694 ====


Many thanks to the original uploader: Ilijan



Password: pass