Subcategories

André Rieu / Andre Rieu: Christmas in London (2016)

Posted By: RSU75
André Rieu / Andre Rieu: Christmas in London (2016)

André Rieu / Andre Rieu: Christmas in London (2016)
BDRip | MKV | AVC 1280x720, ~ 3.2 Mbps | 1hr 27mn | 3.27 GB
English: DTS, 6 ch, 1510 kbps \ AC3, 6 ch, 640 kbps
Subtitles: Dutch, German, French, Spanish, Portuguese
Genre: Music | Classical | neo-Classical




Stars: Andre Rieux (André Rieu / Andre Rieu), Johann Strauss Orchestra

Christmas is now more beautiful and cosy than ever! Experience Christmas in London, together with André Rieu. Decorated Christmas trees everywhere you look, beautifully lit streets, tempting Christmas window displays… Combine the unique London Christmas atmosphere with a magnificent Christmas concert by André Rieu, and you have all the ingredients for a lovely party in the dark December days. Together with fantastic soloists and his always joyful Johann Strauss orchestra, André Rieu provides a fabulous evening with the most beautiful and moving Christmas carols, but also with emotional songs such as Leonard Cohen's Hallelujah, The Holy City and the classic Concierto de Aranjuez.
Christmas in London means an evening enjoying lovely music, beautiful costumes and plenty of London cosiness.




General
Unique ID : 179927988557954849574556442587826402018 (0x875CDEBEDAD33F41AE099D224622B2E2)
Complete name : L:\AndrR.ChristmasInLondon.16.7p\AndrR.ChristmasInLondon.16.7p.mkv
Format : Matroska
Format version : Version 4 / Version 2
File size : 3.27 GiB
Duration : 1 h 27 min
Overall bit rate : 5 368 kb/s
Movie name : Release RSU75
Encoded date : UTC 2017-09-05 03:32:43
Writing application : mkvmerge v6.6.0 ('The Edge Of The In Between') built on Dec 1 2013 17:55:00
Writing library : libebml v1.3.0 + libmatroska v1.4.1

Video
ID : 1
Format : AVC
Format/Info : Advanced Video Codec
Format profile : High@L3.1
Format settings, CABAC : Yes
Format settings, ReFrames : 4 frames
Codec ID : V_MPEG4/ISO/AVC
Duration : 1 h 27 min
Bit rate : 3 200 kb/s
Width : 1 280 pixels
Height : 720 pixels
Display aspect ratio : 16:9
Frame rate mode : Constant
Frame rate : 25.000 FPS
Color space : YUV
Chroma subsampling : 4:2:0
Bit depth : 8 bits
Scan type : Progressive
Bits/(Pixel*Frame) : 0.139
Stream size : 1.89 GiB (58%)
Writing library : x264 core 144 r2533 c8a773e
Encoding settings : cabac=1 / ref=4 / deblock=1:0:0 / analyse=0x3:0x113 / me=umh / subme=8 / psy=1 / psy_rd=1.00:0.00 / mixed_ref=1 / me_range=24 / chroma_me=1 / trellis=1 / 8x8dct=1 / cqm=0 / deadzone=21,11 / fast_pskip=1 / chroma_qp_offset=-2 / threads=3 / lookahead_threads=1 / sliced_threads=0 / nr=0 / decimate=1 / interlaced=0 / bluray_compat=0 / constrained_intra=0 / bframes=3 / b_pyramid=0 / b_adapt=2 / b_bias=0 / direct=3 / weightb=1 / open_gop=0 / weightp=2 / keyint=250 / keyint_min=25 / scenecut=40 / intra_refresh=0 / rc_lookahead=40 / rc=abr / mbtree=1 / bitrate=3200 / ratetol=1.0 / qcomp=0.60 / qpmin=10 / qpmax=51 / qpstep=4 / ip_ratio=1.41 / aq=1:1.00
Language : English
Default : Yes
Forced : No

Audio #1
ID : 2
Format : DTS
Format/Info : Digital Theater Systems
Mode : 16
Format settings, Endianness : Big
Codec ID : A_DTS
Duration : 1 h 27 min
Bit rate mode : Constant
Bit rate : 1 509 kb/s
Channel(s) : 6 channels
Channel positions : Front: L C R, Side: L R, LFE
Sampling rate : 48.0 kHz
Frame rate : 93.750 FPS (512 spf)
Bit depth : 24 bits
Compression mode : Lossy
Delay relative to video : -40 ms
Stream size : 941 MiB (28%)
Language : English
Default : No
Forced : No

Audio #2
ID : 3
Format : AC-3
Format/Info : Audio Coding 3
Mode extension : CM (complete main)
Format settings, Endianness : Big
Codec ID : A_AC3
Duration : 1 h 27 min
Bit rate mode : Constant
Bit rate : 640 kb/s
Channel(s) : 6 channels
Channel positions : Front: L C R, Side: L R, LFE
Sampling rate : 48.0 kHz
Frame rate : 31.250 FPS (1536 spf)
Bit depth : 16 bits
Compression mode : Lossy
Delay relative to video : -40 ms
Stream size : 399 MiB (12%)
Language : English
Default : Yes
Forced : No

Text #1
ID : 4
Format : PGS
Muxing mode : zlib
Codec ID : S_HDMV/PGS
Codec ID/Info : Picture based subtitle format used on BDs/HD-DVDs
Language : French
Default : No
Forced : No

Text #2
ID : 5
Format : PGS
Muxing mode : zlib
Codec ID : S_HDMV/PGS
Codec ID/Info : Picture based subtitle format used on BDs/HD-DVDs
Language : Spanish
Default : No
Forced : No

Text #3
ID : 6
Format : PGS
Muxing mode : zlib
Codec ID : S_HDMV/PGS
Codec ID/Info : Picture based subtitle format used on BDs/HD-DVDs
Language : German
Default : No
Forced : No

Text #4
ID : 7
Format : PGS
Muxing mode : zlib
Codec ID : S_HDMV/PGS
Codec ID/Info : Picture based subtitle format used on BDs/HD-DVDs
Language : Portuguese
Default : No
Forced : No

Text #5
ID : 8
Format : PGS
Muxing mode : zlib
Codec ID : S_HDMV/PGS
Codec ID/Info : Picture based subtitle format used on BDs/HD-DVDs
Language : Dutch
Default : No
Forced : No

Menu
00:00:00.000 : en: 01. Winter Wonderland, Talk André
00:02:32.853 : en: 02. Seventy - Six Trombones
00:07:39.326 : en: 03. Skater's Waltz, Arv_11
00:16:51.110 : en: 04. Concierto de Aranjuez
00:21:43.102 : en: 05. Circus Renz, Arv_09
00:26:38.464 : en: 06. The Pearl Fishers' Duet
00:33:07.719 : en: 07. The Holy City, Arv_11
00:38:58.102 : en: 08. Sleigh Ride
00:43:49.126 : en: 09. O Holy Night, Arv_11
00:48:32.042 : en: 10. Hallelujah, Arv_10
00:53:43.420 : en: 11. Snowwaltz
00:59:12.482 : en: 12. This Land Is Mine
01:04:27.197 : en: 13. Radetzkymarch, Arv_15
01:07:11.561 : en: 14. White Christmas, Arv_11
01:08:33.743 : en: 15. Jingle Bells, Arv_15
01:11:02.692 : en: 16. Hallelujah
01:14:58.894 : en: 17. Amazing Grace, Arv_15
01:18:19.395 : en: 18. Adieu, Little Captain Of My Heart
01:22:35.918 : en: 19. We Wish You A Merry Christmas, Arv_15
01:23:51.960 : en: 20. We'll Meet Again
01:25:57.586 : en: Credits




Tracklist:
01. Winter Wonderland, Talk André
02. Seventy - Six Trombones
03. Skater's Waltz, Arv_11
04. Concierto de Aranjuez
05. Circus Renz, Arv_09
06. The Pearl Fishers' Duet
07. The Holy City, Arv_11
08. Sleigh Ride
09. O Holy Night, Arv_11
10. Hallelujah, Arv_10
11. Snowwaltz
12. This Land Is Mine
13. Radetzkymarch, Arv_15
14. White Christmas, Arv_11
15. Jingle Bells, Arv_15
16. Hallelujah
17. Amazing Grace, Arv_15
18. Adieu, Little Captain Of My Heart
19. We Wish You A Merry Christmas, Arv_15
20. We'll Meet Again


Screenshots (click to enlarge to original size):

André Rieu / Andre Rieu: Christmas in London (2016)

André Rieu / Andre Rieu: Christmas in London (2016)

André Rieu / Andre Rieu: Christmas in London (2016)


André Rieu / Andre Rieu: Christmas in London (2016)



–––––––––––––––––––––––––––––––––––––––-
>>> Other "Andre Rieu" <<< OR >>> "Andre Rieu" <<<
–––––––––––––––––––––––––––––––––––––––-
>>> Visit Blog RSU75 Here <<<
–––––––––––––––––––––––––––––––––––––––-