Tags
Language
Tags

André Previn and His Pals - West Side Story (1960) [Reissue 1990]

Posted By: gribovar
André Previn and His Pals - West Side Story (1960) [Reissue 1990]

Andre Previn and His Pals - West Side Story (1960) [Reissue 1990]
EAC Rip | FLAC (tracks+.cue+log) - 209 MB | MP3 CBR 320 kbps (LAME 3.93) - 106 MB | Covers (16 MB) included
Genre: Jazz, Piano Jazz | RAR 3% Rec. | Label: OJC/Contemporary Records (OJCCD-422-2 (S-7572))

The last of a series of showtune albums recorded by the trio of pianist Andre Previn, bassist Red Mitchell and drummer Shelly Manne finds the all-star group focusing on the music of West Side Story (Previn and Manne alternated leadership, and it was the drummer's good fortune to have the famous My Fair Lady album under his own name). This CD reissue has eight of the main themes from the famous musical, including "I Feel Pretty," "Maria" and "America." As usual, the melodies are treated respectfully yet swingingly, and Andre Previn in particular excels in this setting.
Tracklist:
01. Something's Coming
02. Jet Song
03. Tonight
04. I Feel Pretty
05. Gee, Officer Krupke!
06. Cool
07. Maria
08. America

Total time: 38:16

Exact Audio Copy V0.99 prebeta 4 from 23. January 2008

EAC extraction logfile from 24. December 2009, 12:16

Andre Previn and His Pals / West Side Story

Used drive : HL-DT-STDVD-RAM GH22NP20 Adapter: 0 ID: 0

Read mode : Secure
Utilize accurate stream : Yes
Defeat audio cache : Yes
Make use of C2 pointers : No

Read offset correction : 102
Overread into Lead-In and Lead-Out : No
Fill up missing offset samples with silence : Yes
Delete leading and trailing silent blocks : No
Null samples used in CRC calculations : Yes
Used interface : Installed external ASPI interface
Gap handling : Appended to previous track

Used output format : User Defined Encoder
Selected bitrate : 320 kBit/s
Quality : High
Add ID3 tag : No
Command line compressor : C:\Program Files\Exact Audio Copy\Flac\flac.exe
Additional command line options : -V -8 -T "artist=%a" -T "title=%t" -T "album=%g" -T "date=%y" -T "tracknumber=%n" -T "genre=%m" %s


TOC of the extracted CD

Track | Start | Length | Start sector | End sector
––––––––––––––––––––––––––––-
1 | 0:00.00 | 2:36.72 | 0 | 11771
2 | 2:36.72 | 4:48.38 | 11772 | 33409
3 | 7:25.35 | 5:24.10 | 33410 | 57719
4 | 12:49.45 | 6:47.40 | 57720 | 88284
5 | 19:37.10 | 4:55.65 | 88285 | 110474
6 | 24:33.00 | 3:21.02 | 110475 | 125551
7 | 27:54.02 | 5:30.15 | 125552 | 150316
8 | 33:24.17 | 4:51.50 | 150317 | 172191


Track 1

Filename D:\music\Musicgate's rips\Andre Previn and His Pals - West Side Story (1959)\01 - Something's Coming.wav

Pre-gap length 0:00:02.00

Peak level 70.8 %
Track quality 100.0 %
Test CRC C256627F
Copy CRC C256627F
Track not present in AccurateRip database
Copy OK

Track 2

Filename D:\music\Musicgate's rips\Andre Previn and His Pals - West Side Story (1959)\02 - Jet Song.wav

Pre-gap length 0:00:02.73

Peak level 57.8 %
Track quality 100.0 %
Test CRC D3E5A5D0
Copy CRC D3E5A5D0
Track not present in AccurateRip database
Copy OK

Track 3

Filename D:\music\Musicgate's rips\Andre Previn and His Pals - West Side Story (1959)\03 - Tonight.wav

Pre-gap length 0:00:02.77

Peak level 55.9 %
Track quality 100.0 %
Test CRC C6D9020C
Copy CRC C6D9020C
Track not present in AccurateRip database
Copy OK

Track 4

Filename D:\music\Musicgate's rips\Andre Previn and His Pals - West Side Story (1959)\04 - I Feel Pretty.wav

Pre-gap length 0:00:03.30

Peak level 57.9 %
Track quality 100.0 %
Test CRC 626B3851
Copy CRC 626B3851
Track not present in AccurateRip database
Copy OK

Track 5

Filename D:\music\Musicgate's rips\Andre Previn and His Pals - West Side Story (1959)\05 - Gee, Officer Krupke!.wav

Pre-gap length 0:00:02.66

Peak level 99.1 %
Track quality 99.9 %
Test CRC AD7D8660
Copy CRC AD7D8660
Track not present in AccurateRip database
Copy OK

Track 6

Filename D:\music\Musicgate's rips\Andre Previn and His Pals - West Side Story (1959)\06 - Cool.wav

Pre-gap length 0:00:02.84

Peak level 42.4 %
Track quality 100.0 %
Test CRC 30028A84
Copy CRC 30028A84
Track not present in AccurateRip database
Copy OK

Track 7

Filename D:\music\Musicgate's rips\Andre Previn and His Pals - West Side Story (1959)\07 - Maria.wav

Pre-gap length 0:00:02.80

Peak level 41.7 %
Track quality 100.0 %
Test CRC 5583D93A
Copy CRC 5583D93A
Track not present in AccurateRip database
Copy OK

Track 8

Filename D:\music\Musicgate's rips\Andre Previn and His Pals - West Side Story (1959)\08 - America.wav

Pre-gap length 0:00:03.22

Peak level 51.0 %
Track quality 100.0 %
Test CRC 3D351D0A
Copy CRC 3D351D0A
Track not present in AccurateRip database
Copy OK


None of the tracks are present in the AccurateRip database

No errors occurred

End of status report

[CUETools log; Date: 24.04.2020 11:39:59; Version: 2.1.4]
[CTDB TOCID: uYdvbhxqKISjMvhRYgC3kiqQ2_k-] found.
Track | CTDB Status
1 | (26/28) Accurately ripped, or (2/28) differs in 12489 samples @00:00:09-00:00:27
2 | (26/28) Accurately ripped, or (2/28) differs in 221 samples @00:41:45-00:41:46
3 | (28/28) Accurately ripped
4 | (26/28) Accurately ripped, or (2/28) differs in 2961 samples @00:00:55-00:00:57,00:01:63-00:01:70
5 | (28/28) Accurately ripped
6 | (28/28) Accurately ripped
7 | (26/28) Accurately ripped, or (2/28) differs in 409 samples @00:25:60-00:25:68
8 | (27/28) Accurately ripped
[AccurateRip ID: 000b709b-004dab0a-6d08f708] found.
Track [ CRC | V2 ] Status
01 [f0893c62|2c649f36] (03+00/21) Accurately ripped
02 [6cfaa08b|fa25b68a] (03+00/21) Accurately ripped
03 [554a493f|17fe868a] (03+00/21) Accurately ripped
04 [3a6d8a33|618faa88] (03+00/21) Accurately ripped
05 [18621886|fea48018] (03+00/21) Accurately ripped
06 [8fee3d64|f2fdb406] (03+00/21) Accurately ripped
07 [111cab0d|c8c3bdf2] (03+00/21) Accurately ripped
08 [89fba7b4|02f02dce] (03+00/21) Accurately ripped
Offsetted by 86:
01 [e1b538c3] (04/21) Accurately ripped
02 [3766e302] (04/21) Accurately ripped
03 [960ce6f7] (04/21) Accurately ripped
04 [0cf24e77] (04/21) Accurately ripped
05 [70867ce4] (04/21) Accurately ripped
06 [2fb26eb8] (04/21) Accurately ripped
07 [864854c7] (04/21) Accurately ripped
08 [0bf2cf7d] (04/21) Accurately ripped
Offsetted by 140:
01 [ee88eef6] (00/21) No match (V2 was not tested)
02 [42d44eee] (00/21) No match (V2 was not tested)
03 [f29738e2] (00/21) No match (V2 was not tested)
04 [8a0c226f] (00/21) No match (V2 was not tested)
05 [244131b1] (00/21) No match (V2 was not tested)
06 [c4eb770f] (00/21) No match (V2 was not tested)
07 [014a4b6a] (00/21) No match (V2 was not tested)
08 [4195e4d5] (00/21) No match (V2 was not tested)

Track Peak [ CRC32 ] [W/O NULL] [ LOG ]
– 99,1 [DE23C329] [05236AF8]
01 70,8 [C256627F] [BED86E4E] CRC32
02 57,8 [D3E5A5D0] [CF3FB828] CRC32
03 55,9 [C6D9020C] [A0CEF0B4] CRC32
04 57,9 [626B3851] [6A815899] CRC32
05 99,1 [AD7D8660] [84B4D5F3] CRC32
06 42,4 [30028A84] [2245BFC6] CRC32
07 41,7 [5583D93A] [AB5CB3D4] CRC32
08 51,0 [3D351D0A] [FA492413] CRC32

Thanks to Musicgate

See also:
André Previn & Russ Freeman - Double Play! (1957) [Reissue 1992]
André Previn and His Pals - We...y (1960) [XRCD2, Reissue 2001]