Subcategories

Andrea Bocelli - Victoria's Secret Presents: Mistero Dell' Amore (The Mystery Of Love) (2001)

Posted By: popsakov
Andrea Bocelli - Victoria's Secret Presents: Mistero Dell' Amore (The Mystery Of Love) (2001)

Andrea Bocelli - Victoria's Secret Presents: Mistero Dell' Amore (The Mystery Of Love) (2001)
EAC Rip | FLAC (Img) + Cue + Log ~ 187 Mb | MP3 CBR320 ~ 74 Mb
Scans (JPG, 600 dpi) ~ 24 Mb | RAR 5% Recovery
Classical Crossover, Pop, Vocal | Polydor #314 589 440-2

Andrea Bocelli has been called "the fourth tenor"; the blind, Tuscan-born vocalist has emerged as one of the most popular voices in the arena of light classical and crossover vocals and has made inroads into the world of opera as well. His participation in Pavarotti's 1992 hit Miserere album and Zucchero Fornaciari's 1993 world tour brought him international attention. Bocelli has been most successful as a pop ballad singer, having recorded duets with Celine Dion, Sarah Brightman, and Eros Ramazzotti. Al Jarreau, who sang with Bocelli during "The Night of Proms" in November 1995, praised Bocelli with these words: "I have had the honor to sing with the most beautiful voice in the world."
~ All Music

***************

Andrea Bocelli - Victoria's Secret Presents: Mistero Dell' Amore (The Mystery Of Love) (2001)

Track List:

01. Il Mistero Dell' Amore [0:04:28.57]
02. Romanza [0:03:43.50]
03. Sogno [0:04:03.08]
04. Rapsodia [0:05:29.42]
05. Le Tue Parole [0:03:57.23]
06. Immenso [0:04:47.17]
07. Mai Piu Cosi' Lontano [0:04:19.15]

Exact Audio Copy V1.0 beta 3 from 29. August 2011

EAC extraction logfile from 8. June 2014, 19:43

Andrea Bocelli / Victoria's Secret Presents - Mistero Dell' Amore (The Mystery Of Love)

Used drive : ATAPI iHAS124 D Adapter: 0 ID: 2

Read mode : Secure
Utilize accurate stream : Yes
Defeat audio cache : Yes
Make use of C2 pointers : No

Read offset correction : 6
Overread into Lead-In and Lead-Out : No
Fill up missing offset samples with silence : Yes
Delete leading and trailing silent blocks : No
Null samples used in CRC calculations : Yes
Used interface : Installed external ASPI interface

Used output format : User Defined Encoder
Selected bitrate : 1024 kBit/s
Quality : High
Add ID3 tag : No
Command line compressor : C:\Program Files (x86)\Exact Audio Copy\Flac\flac.exe
Additional command line options : -6 -V -T "ARTIST=%artist%" -T "TITLE=%title%" -T "ALBUM=%albumtitle%" -T "DATE=%year%" -T "TRACKNUMBER=%tracknr%" -T "GENRE=%genre%" -T "COMMENT=%comment%" -T "BAND=%albuminterpret%" -T "COMPOSER=%composer%" %haslyrics%–tag-from-file=LYRICS="%lyricsfile%"%haslyrics% -T "DISCNUMBER=%cdnumber%" -T "TOTALDISCS=%totalcds%" -T "TOTALTRACKS=%numtracks%" %hascover%–picture="%coverfile%"%hascover% %source% -o %dest%


TOC of the extracted CD

Track | Start | Length | Start sector | End sector
––––––––––––––––––––––––––––-
1 | 0:00.00 | 4:28.57 | 0 | 20156
2 | 4:28.57 | 3:43.50 | 20157 | 36931
3 | 8:12.32 | 4:03.08 | 36932 | 55164
4 | 12:15.40 | 5:29.42 | 55165 | 79881
5 | 17:45.07 | 3:57.23 | 79882 | 97679
6 | 21:42.30 | 4:47.17 | 97680 | 119221
7 | 26:29.47 | 4:19.15 | 119222 | 138661


Range status and errors

Selected range

Filename C:\mm\Andrea Bocelli\2001 - Mistero Dell' Amore (Victoria's Secret Present)[314 589 440-2]\Victoria's Secret Presents. Mistero Dell' Amore (The Mystery Of Love).wav

Peak level 100.0 %
Extraction speed 7.6 X
Range quality 100.0 %
Test CRC 460A40DD
Copy CRC 460A40DD
Copy OK

No errors occurred


AccurateRip summary

Track 1 accurately ripped (confidence 25) [28A45C11] (AR v2)
Track 2 accurately ripped (confidence 25) [6423D856] (AR v2)
Track 3 accurately ripped (confidence 25) [F7AEBDDA] (AR v2)
Track 4 accurately ripped (confidence 25) [C6769E30] (AR v2)
Track 5 accurately ripped (confidence 25) [3818D1A3] (AR v2)
Track 6 accurately ripped (confidence 25) [455EE8FB] (AR v2)
Track 7 accurately ripped (confidence 24) [EC3AA615] (AR v2)

All tracks accurately ripped

End of status report

foobar2000 1.2.6 / Dynamic Range Meter 1.1.1
log date: 2016-09-21 00:38:21

––––––––––––––––––––––––––––––––––––––––
Analyzed: Andrea Bocelli / Victoria's Secret Presents - Mistero Dell' Amore (The Mystery Of Love)
––––––––––––––––––––––––––––––––––––––––

DR Peak RMS Duration Track
––––––––––––––––––––––––––––––––––––––––
DR9 0.00 dB -10.71 dB 4:29 01-Il Mistero Dell' Amore
DR10 -0.10 dB -14.36 dB 3:44 02-Romanza
DR7 -0.10 dB -10.89 dB 4:03 03-Sogno
DR11 -0.10 dB -14.24 dB 5:30 04-Rapsodia
DR10 -0.10 dB -13.96 dB 3:57 05-Le Tue Parole
DR8 -0.10 dB -11.36 dB 4:47 06-Immenso
DR8 -0.10 dB -11.36 dB 4:19 07-Mai Piu Cosi' Lontano
––––––––––––––––––––––––––––––––––––––––

Number of tracks: 7
Official DR value: DR9

Samplerate: 44100 Hz
Channels: 2
Bits per sample: 16
Bitrate: 807 kbps
Codec: FLAC
================================================================================

[CUETools log; Date: 21.09.2016 0:38:20; Version: 2.1.5]
[CTDB TOCID: 105zos.UZon8mDRj0uk81QJW.a0-] found.
Track | CTDB Status
1 | (43/43) Accurately ripped
2 | (43/43) Accurately ripped
3 | (43/43) Accurately ripped
4 | (43/43) Accurately ripped
5 | (43/43) Accurately ripped
6 | (43/43) Accurately ripped
7 | (42/43) Accurately ripped
[AccurateRip ID: 00085b74-00325ef7-53073807] found.
Track [ CRC | V2 ] Status
01 [b65e7d9d|28a45c11] (56+40/96) Accurately ripped
02 [9892bc56|6423d856] (57+40/97) Accurately ripped
03 [00a4bdf1|f7aebdda] (55+40/95) Accurately ripped
04 [6a34c4a8|c6769e30] (56+41/97) Accurately ripped
05 [35cc3422|3818d1a3] (56+40/96) Accurately ripped
06 [827b1640|455ee8fb] (56+40/96) Accurately ripped
07 [f0e6253e|ec3aa615] (56+39/95) Accurately ripped

Track Peak [ CRC32 ] [W/O NULL] [ LOG ]
– 100,0 [460A40DD] [617969BB] CRC32
01 100,0 [8F6F62AD] [13AC9403]
02 98,8 [5BFF9688] [501C3852]
03 98,8 [7F6D3202] [BB71CE78]
04 98,8 [48DD229A] [33545EDB]
05 98,8 [C85FF563] [CA352359]
06 98,8 [E4A85B0D] [B6C72601]
07 98,8 [0DC814FA] [D6DD51FA]

Andrea Bocelli - Victoria's Secret Presents: Mistero Dell' Amore (The Mystery Of Love) (2001)

Andrea Bocelli - Victoria's Secret Presents: Mistero Dell' Amore (The Mystery Of Love) (2001)

See also:
Andrea Bocelli - Sentimento (2002) {Special Limited Edition}
Andrea Bocelli - The Best Of Andrea Bocelli: Vivere (2007)
Andrea Bocelli - Incanto (2008)

All thanks go to sergych

> Visit my blog <

Download:
Nitroflare: FLAC | Scans | mp3