Andrew Gold - Andrew Gold (1975) [2005, Remastered with Bonus Tracks]

Posted By: BlondStyle
Andrew Gold - Andrew Gold (1975) [2005, Remastered with Bonus Tracks]

Andrew Gold - Andrew Gold (1975) [2005, Remastered with Bonus Tracks]
Pop/Rock, Soft Rock | EAC Rip | FLAC, Img+CUE+LOG+Full Scans-600dpi (JPEG) | 54:07 Min | 381,36 Mb
Label: Collectors' Choice Music (USA) | Released: 2005, June, 21

Andrew Gold is the first album by singer/songwriter/multi-instrumentalist Andrew Gold. It was released in 1975 on Asylum Records. Linda Ronstadt, of whose band Gold was a member at the time, appears on the album. Rolling Stone's Stephen Holder said the album was "one of the year's most melodic" and "expresses, with warmth, humor and expertise, a special feeling for mid-Sixties rock." Holder notes that Gold "recaptures the essential spirit of 1964-65 Beatles music" and that his "ballads are as captivating as his rockers, if not more so." AllMusic's James Chrispell said the album contains "an abundance of riches." Noting "there are great Beatlesque melodies here, as well as heartfelt love songs that are Gold's specialties."
Andrew Gold - Andrew Gold (1975) [2005, Remastered with Bonus Tracks]

Andrew Gold - Andrew Gold (1975) [2005, Remastered with Bonus Tracks]


Release of this album: 1975 [LP Asylum Records, Cat.# K 53020, USA]
Release of this CD: 2005, June, 21 [CD Collectors' Choice Music (USA), Cat.# CCM-527 / UPC: 617742052725]
Ⓒ 2005 Collectors' Choice Music Ⓟ 2005 Elektra Entertainment Group
Manufactured by Rhino Entertainment Company
Printed in U.S.A.


Arranged By [Strings, Woodwinds] – David Campbell
Artwork By [Art Direction] – Glen Christensen
Artwork By [Design] – Tom Steele
Artwork By [Illustration] – Bill Imhoff
Backing Vocals – Gene Garfin (tracks: 1, 5, 10), Kenny Edwards (tracks: 1 to 6, 10)
Bass – Andrew Gold (tracks: 1, 3, 4, 8, 10), Kenny Edwards (tracks: 2, 6, 7)
Drums – Andrew Gold (tracks: 1, 3, 4, 8, 10)
Engineer – Val Garay
Engineer [Assistant] – Jeff Hawks
Guitar – Andrew Gold (tracks: 1 to 8, 10)
Mastered By – Doug Sax
Percussion – Andrew Gold (tracks: 1 to 8, 10)
Photography – Ken McGowan
Piano – Andrew Gold (tracks: 2 to 4, 7 to 9)
Producer – Charles Plotkin
Recorded By – Michael Boshears
Vocals – Andrew Gold


Tracklist:

01. "That's Why I Love You" (03:11)
(Andrew Gold, Gene Garfin)
02. "Heartaches In Heartaches" (03:18)
(Andrew Gold)
03. "Love Hurts" (03:48)
(Andrew Gold)
04. "A Note From You" (02:49)
(Andrew Gold)
05. "Resting In Your Arms" (03:14)
(Andrew Gold)
06. "I'm A Gambler" (02:27)
(Andrew Gold)
07. "Endless Flight" (05:00)
(Andrew Gold)
08. "Hang My Picture Straight" (03:23)
(Andrew Gold)
09. "Ten Years Behind Me" (04:04)
(Andrew Gold)
10. "I'm Coming Home" (03:11)
(Andrew Gold)

Bonus Tracks:

11. "Within A Word" (02:04)
(Andrew Gold)
12. "Sometime When A Man's On His Own" (02:48)
(Andrew Gold)
13. "Broken Pin Ball Machine" (03:16)
(Andrew Gold)
14. "To Be Someone" (04:18)
(Andrew Gold)
15. "Ten Years Behind Me" (Demo) (04:09)
(Andrew Gold)
16. "Hang My Picture Staight" (Live) (03:06)
(Andrew Gold)

Exact Audio Copy V0.99 prebeta 5 from 4. May 2009

Отчёт EAC об извлечении, выполненном 26. июня 2011, 16:16

Andrew Gold / Andrew Gold

Дисковод: SlimtypeDVD A DS8A5SH Adapter: 0 ID: 1

Режим чтения : Достоверность
Использование точного потока : Да
Отключение кэша аудио : Да
Использование указателей C2 : Нет

Коррекция смещения при чтении : 6
Способность читать области Lead-in и Lead-out : Нет
Заполнение пропущенных сэмплов тишиной : Да
Удаление блоков с тишиной в начале и конце : Нет
При вычислениях CRC использовались нулевые сэмплы : Да
Интерфейс : Встроенный Win32-интерфейс для Win NT/2000

Выходной формат : Пользовательский кодировщик
Выбранный битрейт : 320 kBit/s
Качество : Высокий
Добавление ID3-тэга : Нет
Утилита сжатия : C:\Program Files (x86)\Exact Audio Copy\Flac\flac.exe
Дополнительные параметры : -8 -V %s


TOC извлечённого CD

Трек | Старт | Длительность | Начальный сектор | Конечный сектор
––––––––––––––––––––––––––––––––––-
1 | 0:00.00 | 3:11.03 | 0 | 14327
2 | 3:11.03 | 3:17.74 | 14328 | 29176
3 | 6:29.02 | 3:47.41 | 29177 | 46242
4 | 10:16.43 | 2:49.12 | 46243 | 58929
5 | 13:05.55 | 3:14.12 | 58930 | 73491
6 | 16:19.67 | 2:26.53 | 73492 | 84494
7 | 18:46.45 | 5:00.24 | 84495 | 107018
8 | 23:46.69 | 3:23.23 | 107019 | 122266
9 | 27:10.17 | 4:04.18 | 122267 | 140584
10 | 31:14.35 | 3:11.20 | 140585 | 154929
11 | 34:25.55 | 2:04.04 | 154930 | 164233
12 | 36:29.59 | 2:48.06 | 164234 | 176839
13 | 39:17.65 | 3:16.04 | 176840 | 191543
14 | 42:33.69 | 4:18.08 | 191544 | 210901
15 | 46:52.02 | 4:09.05 | 210902 | 229581
16 | 51:01.07 | 3:06.14 | 229582 | 243545


Характеристики диапазона извлечения и сообщения об ошибках

Выбранный диапазон

Имя файла D:\My Music\Andrew Gold - 1975 Whirlwind\Andrew Gold - Andrew Gold.wav

Пиковый уровень 97.7 %
Качество диапазона 99.9 %
CRC копии E298F52C
Копирование… OK

Ошибок не произошло


AccurateRip: сводка

Трек 1 нет в базе данных
Трек 2 нет в базе данных
Трек 3 нет в базе данных
Трек 4 нет в базе данных
Трек 5 нет в базе данных
Трек 6 нет в базе данных
Трек 7 нет в базе данных
Трек 8 нет в базе данных
Трек 9 нет в базе данных
Трек 10 нет в базе данных
Трек 11 нет в базе данных
Трек 12 нет в базе данных
Трек 13 нет в базе данных
Трек 14 нет в базе данных
Трек 15 нет в базе данных
Трек 16 нет в базе данных

Ни одного трека нет в базе AccurateRip

Конец отчёта

foobar2000 1.3.9 / Dynamic Range Meter 1.1.1
log date: 2016-07-23 01:23:34

––––––––––––––––––––––––––––––––––––––––
Analyzed: Andrew Gold / Andrew Gold
––––––––––––––––––––––––––––––––––––––––

DR Peak RMS Duration Track
––––––––––––––––––––––––––––––––––––––––
DR13 -1.18 dB -16.22 dB 3:11 01-That's Why I Love You
DR14 -0.82 dB -17.73 dB 3:18 02-Heartaches In Heartaches
DR13 -3.09 dB -21.09 dB 3:48 03-Love Hurts
DR13 -0.85 dB -16.38 dB 2:49 04-A Note From You
DR13 -0.20 dB -15.86 dB 3:14 05-Resting In Your Arms
DR13 -2.12 dB -17.68 dB 2:27 06-I'm A Gambler
DR13 -2.47 dB -19.43 dB 5:00 07-Endless Flight
DR15 -0.48 dB -18.84 dB 3:23 08-Hang My Picture Straight
DR11 -7.03 dB -21.83 dB 4:04 09-Ten Years Behind Me
DR12 -0.86 dB -16.22 dB 3:11 10-I'm Coming Home
DR10 -2.21 dB -14.10 dB 2:04 11-Within A Word (bonus track)
DR9 -1.52 dB -13.29 dB 2:48 12-Sometime When A Man's On His Own (bonus track)
DR9 -0.25 dB -12.57 dB 3:16 13-Broken Pin Ball Machine (bonus track)
DR9 -0.20 dB -11.52 dB 4:18 14-To Be Someone (bonus track)
DR12 -0.22 dB -16.34 dB 4:09 15-Ten Years Behind Me (demo bonus track)
DR8 -3.06 dB -13.89 dB 3:06 16-Hang My Picture Straight (demo bonus track)
––––––––––––––––––––––––––––––––––––––––

Number of tracks: 16
Official DR value: DR12

Samplerate: 44100 Hz
Channels: 2
Bits per sample: 16
Bitrate: 879 kbps
Codec: FLAC
================================================================================

All thanks to kolushew


See also:
Nitroflare
password: BlondStyle