Subcategories

Andrew Kirkman, The Binchois Consort - Music for Saint Katherine of Alexandria (2019)

Posted By: ArlegZ
Andrew Kirkman, The Binchois Consort - Music for Saint Katherine of Alexandria (2019)

Andrew Kirkman, The Binchois Consort - Music for Saint Katherine of Alexandria (2019)
EAC | FLAC | Image (Cue & Log) ~ 294 Mb | Total time: 66:17 | Digital booklet
Classical | Label: Hyperion | # CDA68274 | Recorded: 2018

Saint Katherine of Alexandria may or may not have actually existed, but the tale of the imprisoned 17-year-old Christian martyr was catnip to medieval Christians, and the English cult of devotion to this saint (ca. 287-ca. 305) was in full swing in the era of Dunstaple and his contemporaries. This puts it right in the sweet spot of England's Binchois Consort and its conductor, Andrew Kirkman. Katherine was represented in quite a number of alabaster sculptures of the time, and Kirkman takes the unusual step of employing a "sculptor in residence," Sarah Danays, to add to this body of work. The music is the main attraction, however, and it's gorgeous. The very small Renaissance vocal group has its pros and cons, but here, in music of a highly devotional mood, it works very well. Dunstaple is represented, but more of the program is devoted to the likes of Walter Frye (d. 1475), Thomas Byttering (active 1410-1420), and Robert Driffelde (active mid-15th century). There are also examples of the faburden or fauxbourdon technique, a semi-improvised form of singing that cultivated composers took up and used to expand the palette of vertical harmonies in polyphony with the all-important third. Sample Virgo flagellatur to hear this unique effect, which is mentioned in music history books but not so often performed. The presence of this album on British classical charts (where several previous Binchois Consort albums had already landed) is unsurprising, for no matter how scholarly Kirkman's approach may be, he gets a sensuous tone from his six singers. Hyperion contributes superb engineering in the entirely appropriate Ascot Priory in Berkshire.
–James Manheim

Performer:
The Binchois Consort
Andrew Kirkman, conductor

Track List:
Missa Nobilis et pulchra
01. Kyrie. Deus creator omnium (Walter Frye (d1475))
02. Gloria (Walter Frye)
03. En Katerine solennia / Virginalis concio / Sponsus amat sponsam (Thomas[?] Byttering (fl c1410-1420))
04. Gloria 'Virgo flagellatur' (Anonymous)
05. Nobilis et pulchra (Gregorian Chant)
Missa Nobilis et pulchra
06. Credo (Walter Frye)
07. Gaude virgo Katherina (John Dunstaple (c1390-1453))
08. Sanctus & Benedictus 'Regnum mundi' (Robert[?] Driffelde (fl1424-1468))
09. Virgo flagellatur (Sarum Chant)
10. Agnus Dei 'Eructavit cor meum' (Robert Driffelde)
Missa Nobilis et pulchra
11. Sanctus & Benedictus (Walter Frye)
12. Agnus Dei (Walter Frye)
13. Salve scema sanctitatis / Salve salus servulorum / Cantant celi agmina laudes (John Dunstable)


Exact Audio Copy V1.3 from 2. September 2016

EAC extraction logfile from 8. October 2019, 13:13

The Binchois Consort / Music for Saint Katherine of Alexandria

Used drive : HL-DT-STBD-RE WH16NS40 Adapter: 1 ID: 0

Read mode : Secure
Utilize accurate stream : Yes
Defeat audio cache : Yes
Make use of C2 pointers : No

Read offset correction : 6
Overread into Lead-In and Lead-Out : No
Fill up missing offset samples with silence : Yes
Delete leading and trailing silent blocks : No
Null samples used in CRC calculations : Yes
Used interface : Native Win32 interface for Win NT & 2000

Used output format : User Defined Encoder
Selected bitrate : 1024 kBit/s
Quality : High
Add ID3 tag : No
Command line compressor : C:\Program Files (x86)\Exact Audio Copy\FLAC\FLAC.EXE
Additional command line options : -6 -V -T "ARTIST=%artist%" -T "TITLE=%title%" -T "ALBUM=%albumtitle%" -T "DATE=%year%" -T "TRACKNUMBER=%tracknr%" -T "GENRE=%genre%" -T "COMMENT=%comment%" -T "BAND=%albuminterpret%" -T "ALBUMARTIST=%albuminterpret%" -T "COMPOSER=%composer%" %haslyrics%–tag-from-file=LYRICS="%lyricsfile%"%haslyrics% -T "DISCNUMBER=%cdnumber%" -T "TOTALDISCS=%totalcds%" -T "TOTALTRACKS=%numtracks%" %hascover%–picture="%coverfile%"%hascover% %source% -o %dest%

TOC of the extracted CD

Track | Start | Length | Start sector | End sector
––––––––––––––––––––––––––––-
1 | 0:00.00 | 6:16.20 | 0 | 28219
2 | 6:16.20 | 6:27.32 | 28220 | 57276
3 | 12:43.52 | 2:46.17 | 57277 | 69743
4 | 15:29.69 | 6:30.11 | 69744 | 99004
5 | 22:00.05 | 1:57.37 | 99005 | 107816
6 | 23:57.42 | 6:07.14 | 107817 | 135355
7 | 30:04.56 | 4:26.58 | 135356 | 155363
8 | 34:31.39 | 4:46.27 | 155364 | 176840
9 | 39:17.66 | 2:48.74 | 176841 | 189514
10 | 42:06.65 | 5:02.10 | 189515 | 212174
11 | 47:09.00 | 6:25.55 | 212175 | 241104
12 | 53:34.55 | 6:09.06 | 241105 | 268785
13 | 59:43.61 | 6:34.09 | 268786 | 298344

Range status and errors

Selected range

Filename C:\Users\Grant\Desktop\The Binchois Consort - Music for Saint Katherine of Alexandria.wav

Peak level 98.0 %
Extraction speed 7.7 X
Range quality 100.0 %
Test CRC 06AC1A78
Copy CRC 06AC1A78
Copy OK

No errors occurred

AccurateRip summary

Track 1 not present in database
Track 2 not present in database
Track 3 not present in database
Track 4 not present in database
Track 5 not present in database
Track 6 not present in database
Track 7 not present in database
Track 8 not present in database
Track 9 not present in database
Track 10 not present in database
Track 11 not present in database
Track 12 not present in database
Track 13 not present in database

None of the tracks are present in the AccurateRip database

End of status report

–– CUETools DB Plugin V2.1.6

[CTDB TOCID: UVSkZBd6MTRINLjUVc2TaFjh23s-] disk not present in database
Submit result: UVSkZBd6MTRINLjUVc2TaFjh23s- has been uploaded

==== Log checksum DB0086E6B69853177C158186B02127953405549CB8A4DF21558B33FF74ABDBE1 ====

Andrew Kirkman, The Binchois Consort - Music for Saint Katherine of Alexandria (2019)

Thanks to the original releaser