Subcategories

Andru Donalds - Let's Talk About It (2001)

Posted By: Andi_Deris
Andru Donalds - Let's Talk About It (2001)

Andru Donalds - Let's Talk About It (2001)
EAC Rip | FLAC: Image+Cue+Log | 382 Mb | MP3 CBR 320 kbps | 146 Mb | Scans | Time: 49:28
Virgin | 7243 8 50652 2 4
New Age, Downtempo, Reggae

Andru Donalds is a musician and vocalist who works in collaboration with Enigma as lead vocalist (in E4 and E5), and with Michael Cretu, who produced Andru's album, "Snowin' Under My Skin" and "Let's Talk About It". Andru is now focusing on his solo career. Let's Talk About It, his fourth album, featured the single One Night Lover.



Andru Donalds - Let's Talk About It (2001)


Track Listing

01. Let's Talk About It (04:17)
02. What Kind Of Girl (03:10)
03. (I'm Not Your) One Night Lover (03:46)
04. Hurts To Be In Love (03:32)
05. My Place Is Here (04:42)
06. Words, Unspoken (03:47)
07. Someday … (05:01)
08. The Way I Am (04:11)
09. Muddy Water (04:05)
10. Send Me A Sign (03:48)
11. Living For Tomorrow (05:00)
12. Virtual World (04:03)

Produced by Michael Cretu and Jens Gad

Personnel

• Andru Donalds - all lead and background vocals

Notes

Recorded and mastered at A.R.T. Studios Ibiza/Spain.

℗ 2001 Virgin Schallplatten GmbH.
© 2001 Virgin Schallplatten GmbH.

Andru Donalds - Let's Talk About It (2001)


Exact Audio Copy V1.0 beta 3 from 29. August 2011

Отчёт EAC об извлечении, выполненном 11. августа 2012, 3:37

Andru Donalds / Let's Talk About It

Дисковод: PLEXTOR CD-R PREMIUM2 Adapter: 0 ID: 0

Режим чтения : Достоверность
Использование точного потока : Да
Отключение кэша аудио : Да
Использование указателей C2 : Нет

Коррекция смещения при чтении : 30
Способность читать области Lead-in и Lead-out : Нет
Заполнение пропущенных сэмплов тишиной : Да
Удаление блоков с тишиной в начале и конце : Нет
При вычислениях CRC использовались нулевые сэмплы : Да
Интерфейс : Встроенный Win32-интерфейс для Win NT/2000

Выходной формат : Внутренние WAV-операции
Формат сэмплов : 44.100 Гц; 16 бит; стерео


TOC извлечённого CD

Трек | Старт | Длительность | Начальный сектор | Конечный сектор
––––––––––––––––––––––––––––––––––-
1 | 0:00.32 | 4:17.15 | 32 | 19321
2 | 4:17.47 | 3:10.48 | 19322 | 33619
3 | 7:28.20 | 3:46.55 | 33620 | 50624
4 | 11:15.00 | 3:32.65 | 50625 | 66589
5 | 14:47.65 | 4:42.17 | 66590 | 87756
6 | 19:30.07 | 3:47.70 | 87757 | 104851
7 | 23:18.02 | 5:01.48 | 104852 | 127474
8 | 28:19.50 | 4:11.40 | 127475 | 146339
9 | 32:31.15 | 4:05.62 | 146340 | 164776
10 | 36:37.02 | 3:48.13 | 164777 | 181889
11 | 40:25.15 | 4:59.72 | 181890 | 204386
12 | 45:25.12 | 4:03.33 | 204387 | 222644


Характеристики диапазона извлечения и сообщения об ошибках

Выбранный диапазон

Имя файла E:\Andru Donalds - Let's Talk About It (Virgin 7243 8 50652 2 4)\Andru Donalds - Let's Talk About It.wav

Пиковый уровень 99.0 %
Скорость извлечения 5.5 X
Качество диапазона 100.0 %
CRC теста A3DCB9B8
CRC копии A3DCB9B8
Копирование… OK

Ошибок не произошло


AccurateRip: сводка

Трек 1 : извлечено точно (доверие 3) [3E404234] (AR v1)
Трек 2 : извлечено точно (доверие 3) [FE7329A3] (AR v1)
Трек 3 : извлечено точно (доверие 3) [F1D59397] (AR v1)
Трек 4 : извлечено точно (доверие 3) [B6675C3A] (AR v1)
Трек 5 : извлечено точно (доверие 3) [3EA94EAF] (AR v1)
Трек 6 : извлечено точно (доверие 3) [460DC9B6] (AR v1)
Трек 7 : извлечено точно (доверие 3) [4EAA5C6E] (AR v1)
Трек 8 : извлечено точно (доверие 3) [4ADEF2BD] (AR v1)
Трек 9 : извлечено точно (доверие 3) [38D48980] (AR v1)
Трек 10 : извлечено точно (доверие 3) [BE46528D] (AR v1)
Трек 11 : извлечено точно (доверие 3) [81D94389] (AR v1)
Трек 12 : извлечено точно (доверие 3) [EC67203D] (AR v1)

Все треки извлечены точно

Конец отчёта


Many thanks to the original uploader: Helena-S

–––––––––
Nitroflare