Subcategories

Andy Gibb - After Dark (1980)

Posted By: BlondStyle
Andy Gibb - After Dark (1980)

Andy Gibb - After Dark (1980)
Pop/Rock | EAC Rip | APE + CUE + LOG + Covers | 41:38 Min | 291,18 Mb
MP3 | 320 Kbps | Covers | 106,05 Mb
Label: RSO | Released: February 1980

After Dark is an album by Andy Gibb. It was his final studio album, and was released in 1980. With drugs impeding his previous ability to write and even fully sing the tracks on his own record, Gibb was only able to forge his performance with nearly intrusive support from brother Barry. In March 1980 the last of Gibb's Top Ten singles charted just ahead of the album's release. "Desire" was originally recorded for the Bee Gees' 1979 album Spirits Having Flown but had Andy record new lead vocals replacing those of Barry's. A second single, "I Can't Help It", a duet with family friend Olivia Newton-John, reached the Top Twenty.

TrackList:

01. "After Dark" - 04:23
02. "Desire" - 04:30
03. "Wherever You Are" - 4:32
04. "Warm Ride" - 03:36
05. "Rest Your Love on Me" (duet with Olivia Newton-John) - 04:59
06. "I Can't Help It" (duet with Olivia Newton-John) - 04:09
07. "One Love" - 04:09
08. "Someone I Ain't" - 03:12
09. "Falling in Love with You" - 04:16
10. "Dreamin' On" - 03:52

Exact Audio Copy V0.99 prebeta 4 from 23. January 2008

Отчёт EAC об извлечении, выполненном 20. августа 2009, 2:11

Andy Gibb / After Dark

Дисковод: ATAPI DVD DW 8X16X8X16 Adapter: 0 ID: 2

Режим чтения : Достоверность
Использование точного потока : Да
Отключение кэша аудио : Да
Использование указателей C2 : Нет

Коррекция смещения при чтении : 618
Способность читать области Lead-in и Lead-out : Нет
Заполнение пропущенных сэмплов тишиной : Да
Удаление блоков с тишиной в начале и конце : Нет
При вычислениях CRC использовались нулевые сэмплы : Нет
Интерфейс : Встроенный Win32-интерфейс для Win NT/2000

Выходной формат : Внутренние WAV-операции
Формат сэмплов : 44.100 Гц; 16 бит; стерео


TOC извлечённого CD

Трек | Старт | Длительность | Начальный сектор | Конечный сектор
––––––––––––––––––––––––––––––––––-
1 | 0:00.00 | 4:23.27 | 0 | 19751
2 | 4:23.27 | 4:30.53 | 19752 | 40054
3 | 8:54.05 | 4:32.00 | 40055 | 60454
4 | 13:26.05 | 3:36.17 | 60455 | 76671
5 | 17:02.22 | 4:59.68 | 76672 | 99164
6 | 22:02.15 | 4:09.22 | 99165 | 117861
7 | 26:11.37 | 4:09.05 | 117862 | 136541
8 | 30:20.42 | 3:12.38 | 136542 | 150979
9 | 33:33.05 | 4:16.10 | 150980 | 170189
10 | 37:49.15 | 3:52.32 | 170190 | 187621


Характеристики диапазона извлечения и сообщения об ошибках

Выбранный диапазон

Имя файла C:\Documents and Settings\OEM\Мои документы\Мои аудиозаписи\Andy Gibb - After Dark.wav

Пиковый уровень 100.0 %
Качество диапазона 100.0 %
CRC копии 9B440704
Копирование… OK

Ошибок не произошло


AccurateRip: сводка

Трек 1 точное извлечение (доверие 1) [88D2D6FB]
Трек 2 точное извлечение (доверие 1) [22407CE0]
Трек 3 точное извлечение (доверие 1) [F1127CAF]
Трек 4 точное извлечение (доверие 1) [EC22D8EB]
Трек 5 точное извлечение (доверие 1) [E77E0643]
Трек 6 точное извлечение (доверие 1) [E596EB23]
Трек 7 точное извлечение (доверие 1) [98791CB6]
Трек 8 точное извлечение (доверие 1) [F11AB696]
Трек 9 точное извлечение (доверие 1) [16BADB80]
Трек 10 точное извлечение (доверие 1) [10CF1838]

Все треки извлечены точно

Конец отчёта


All Download Links
are Here


Password: www.AvaxHome.ru

P.S.
Sorry guys for this secrecy but such way will help to save the links from deleting
and it much more better than crappy and greedy so called "linkprotectors".

No Mirror Please