Subcategories

Andy Summers - Triboluminescence (2017)

Posted By: SERTiL
Andy Summers - Triboluminescence (2017)

Andy Summers - Triboluminescence
EAC Rip | FLAC (tracks)+cue, log, m3u, artwork | 51:18 min | 289 MB
Label: Flickering Shadow Productions – 5055300391902 | Tracks: 09 | Rls.date: 2017
Jazz Fusion

2017 release from the veteran British guitarist. Andy Summers rose to fame in the early 1980's as the guitarist of the multi-million record selling rock band - The Police. The Police were the #1 band of the time and dominated the music scene and the media in the '80s with several #1 records. Summers' innovative guitar playing created a new paradigm for guitarists in this period and has been widely imitated ever since. After the band's dramatic exit from the music scene, Summers continued to develop his interest in photography as well touring, recording as a solo artist, composing for films, writing books, and exhibiting his photography. Triboluminescence is the follow up recording by Andy Summers to his 2016 release Metal Dog. In this release, Summers once again delves into the deep exotic textures which characterized Metal Dog saying that part of his quest is always to find fresh if not alien sounds that avoid all the standard electric guitar clichés. "We are now living in a world of a billion guitarists" he says "so the struggle to swim upstream, sound different and make original music has become more difficult, but then maybe that is a good challenge. I play for an audience of one - yours truly. Maybe it's the music of narcissism-although that's not how I think of it- but I have to end up with something that I like outside of commercial concerns - but if you are in the game these days you face a barrage of likes and dislikes. Everyone is a critic now…". But if Summers takes a position on his music he proves it with the disparate exotic threads and lyricism heard on the tracks of Triboluminescence - generated from non-standard tunings hammered guitars in tandem, looping, baritone guitar, terz guitar percussion and fretless bass and cello. Summers plays all instruments on the album apart from cello by Artyom Manukian

Andy Summers - Triboluminescence (2017)


TRACKLIST
1. If Anything
2. Triboluminescence
3. Adinkra
4. Elephant Bird
5. Shadyland
6. Haunted Dolls
7. Gigantopithecus
8. Pukul Bunye Bunye
9. Garden of the Sea

Exact Audio Copy V1.1 from 23. June 2015

EAC extraction logfile from 15. July 2017, 18:58

Andy Summers / Triboluminescence

Used drive : TSSTcorpCDDVDW SH-224DB Adapter: 1 ID: 0

Read mode : Secure
Utilize accurate stream : Yes
Defeat audio cache : Yes
Make use of C2 pointers : No

Read offset correction : 6
Overread into Lead-In and Lead-Out : No
Fill up missing offset samples with silence : Yes
Delete leading and trailing silent blocks : No
Null samples used in CRC calculations : Yes
Used interface : Native Win32 interface for Win NT & 2000
Gap handling : Appended to previous track

Used output format : User Defined Encoder
Selected bitrate : 1024 kBit/s
Quality : High
Add ID3 tag : No
Command line compressor : C:\Program Files (x86)\Exact Audio Copy\win64\flac.exe
Additional command line options : -8 -V -T "ARTIST=%artist%" -T "TITLE=%title%" -T "ALBUM=%albumtitle%" -T "DATE=%year%" -T "TRACKNUMBER=%tracknr%" -T "GENRE=%genre%" -T "COMMENT=%comment%" %source% -o %dest%


TOC of the extracted CD

Track | Start | Length | Start sector | End sector
––––––––––––––––––––––––––––-
1 | 0:00.00 | 5:29.50 | 0 | 24724
2 | 5:29.50 | 9:49.10 | 24725 | 68909
3 | 15:18.60 | 5:47.32 | 68910 | 94966
4 | 21:06.17 | 5:38.21 | 94967 | 120337
5 | 26:44.38 | 7:29.19 | 120338 | 154031
6 | 34:13.57 | 3:59.39 | 154032 | 171995
7 | 38:13.21 | 5:43.35 | 171996 | 197755
8 | 43:56.56 | 3:47.20 | 197756 | 214800
9 | 47:44.01 | 3:37.72 | 214801 | 231147


Track 1

Filename F:\Sket4er\Andy Summers – Triboluminescence 2017\01 If Anything.wav

Pre-gap length 0:00:02.00

Peak level 98.7 %
Extraction speed 1.9 X
Track quality 99.9 %
Test CRC 3E75876C
Copy CRC 3E75876C
Track not present in AccurateRip database
Copy OK

Track 2

Filename F:\Sket4er\Andy Summers – Triboluminescence 2017\02 Triboluminescence.wav

Pre-gap length 0:00:02.00

Peak level 98.9 %
Extraction speed 2.5 X
Track quality 100.0 %
Test CRC DF6124E2
Copy CRC DF6124E2
Track not present in AccurateRip database
Copy OK

Track 3

Filename F:\Sket4er\Andy Summers – Triboluminescence 2017\03 Adinkra.wav

Pre-gap length 0:00:02.00

Peak level 99.7 %
Extraction speed 2.7 X
Track quality 100.0 %
Test CRC EE2E31EB
Copy CRC EE2E31EB
Track not present in AccurateRip database
Copy OK

Track 4

Filename F:\Sket4er\Andy Summers – Triboluminescence 2017\04 Elephant Bird.wav

Pre-gap length 0:00:02.00

Peak level 100.0 %
Extraction speed 2.4 X
Track quality 99.9 %
Test CRC 4A4ABDBA
Copy CRC 4A4ABDBA
Track not present in AccurateRip database
Copy OK

Track 5

Filename F:\Sket4er\Andy Summers – Triboluminescence 2017\05 Shadyland.wav

Pre-gap length 0:00:02.00

Peak level 99.0 %
Extraction speed 3.2 X
Track quality 100.0 %
Test CRC 8B95134D
Copy CRC 8B95134D
Track not present in AccurateRip database
Copy OK

Track 6

Filename F:\Sket4er\Andy Summers – Triboluminescence 2017\06 Haunted Dolls.wav

Pre-gap length 0:00:02.00

Peak level 99.0 %
Extraction speed 3.1 X
Track quality 100.0 %
Test CRC 0FD7C1DE
Copy CRC 0FD7C1DE
Track not present in AccurateRip database
Copy OK

Track 7

Filename F:\Sket4er\Andy Summers – Triboluminescence 2017\07 Gigantopithecus.wav

Pre-gap length 0:00:02.00

Peak level 99.1 %
Extraction speed 3.4 X
Track quality 100.0 %
Test CRC D4539FC2
Copy CRC D4539FC2
Track not present in AccurateRip database
Copy OK

Track 8

Filename F:\Sket4er\Andy Summers – Triboluminescence 2017\08 Pukul Buny Bunye.wav

Pre-gap length 0:00:02.00

Peak level 99.9 %
Extraction speed 3.3 X
Track quality 100.0 %
Test CRC 6581E8AB
Copy CRC 6581E8AB
Track not present in AccurateRip database
Copy OK

Track 9

Filename F:\Sket4er\Andy Summers – Triboluminescence 2017\09 Garden Of The Sea.wav

Pre-gap length 0:00:02.00

Peak level 32.3 %
Extraction speed 3.4 X
Track quality 100.0 %
Test CRC 118A892B
Copy CRC 118A892B
Track not present in AccurateRip database
Copy OK


None of the tracks are present in the AccurateRip database

No errors occurred

End of status report

–– CUETools DB Plugin V2.1.6

[CTDB TOCID: ndhwEy4JfBtK2buwJsE4PExtKOQ-] found
Submit result: ndhwEy4JfBtK2buwJsE4PExtKOQ- has been confirmed
Track | CTDB Status
1 | (6/6) Accurately ripped
2 | (6/6) Accurately ripped
3 | (6/6) Accurately ripped
4 | (6/6) Accurately ripped
5 | (6/6) Accurately ripped
6 | (6/6) Accurately ripped
7 | (6/6) Accurately ripped
8 | (6/6) Accurately ripped
9 | (6/6) Accurately ripped


==== Log checksum D4E4684C56D4FCBC7F44F61B7F0807BBFE162061F461A8071F902B283DFD4C16 ====


Andy Summers - Triboluminescence (2017)


Thanks to the Original customer.