Subcategories

Andy Summers & Robert Fripp - Bewitched (1984) [Reissue 2002] (Repost)

Posted By: gribovar
Andy Summers & Robert Fripp - Bewitched (1984) [Reissue 2002] (Repost)

Andy Summers & Robert Fripp - Bewitched (1984) [Reissue 2002]
EAC Rip | FLAC (tracks+.cue+log) - 256 MB | MP3 CBR 320 kbps (LAME 3.93) - 102 MB | Covers (7 MB) included
Genre: Instrumental Progressive Rock/Fusion | RAR 3% Rec. | Label: Universal Music Japan (UICY-9241)

On Andy Summers and Robert Fripp's second album, Bewitched, the duo offered a new batch of their instrumental songs, which turned out to be much more rock-oriented than their texturized 1982 debut, I Advance Masked. The album was originally going to be a more musically varied affair - at the time, Summers talked about recording calypso and Tex-Mex/Ry Cooder-like tunes with Fripp, but they never saw the light of day. Like its predecessor, it contains plenty of great guitar work, with songwriting being stressed over instrumental virtuosity. For example, Summers and Fripp know how to subtly insert challenging sections into their songs (such as the 7/4 time signature in "Maquillage"), without making them seem like an obvious attempt to impress fellow musicians. Although '80s-sounding electronic drums are primarily used for backbeats (such as the track "Train"), it doesn't take away from the album's charm. Whereas their last album featured a few compositions that were quite King Crimson-like, their sophomore effort contains a few that sound like Police instrumentals (the title track). Unfortunately, Bewitched would prove to be Summers and Fripp's last collaboration together.

Tracklist:
01. Parade
02. What Kind of Man Reads Playboy
03. Begin the Day
04. Train
05. Bewitched
06. Tribe
07. Maquillage
08. Guide
09. Forgotten Steps
10. Image and Likeness

Total time: 40:18

Exact Audio Copy V0.99 prebeta 5 from 4. May 2009

EAC extraction logfile from 21. August 2009, 11:01

Andy Summers & Robert Fripp / Bewitched

Used drive : PLEXTOR CD-R PREMIUM2 Adapter: 1 ID: 0

Read mode : Secure
Utilize accurate stream : Yes
Defeat audio cache : Yes
Make use of C2 pointers : No

Read offset correction : 30
Overread into Lead-In and Lead-Out : Yes
Fill up missing offset samples with silence : Yes
Delete leading and trailing silent blocks : No
Null samples used in CRC calculations : Yes
Used interface : Native Win32 interface for Win NT & 2000
Gap handling : Appended to previous track

Used output format : Internal WAV Routines
Sample format : 44.100 Hz; 16 Bit; Stereo


TOC of the extracted CD

Track | Start | Length | Start sector | End sector
––––––––––––––––––––––––––––-
1 | 0:00.00 | 3:02.40 | 0 | 13689
2 | 3:02.40 | 11:10.72 | 13690 | 64011
3 | 14:13.37 | 3:38.05 | 64012 | 80366
4 | 17:51.42 | 4:34.58 | 80367 | 100974
5 | 22:26.25 | 3:54.42 | 100975 | 118566
6 | 26:20.67 | 3:29.33 | 118567 | 134274
7 | 29:50.25 | 2:18.10 | 134275 | 144634
8 | 32:08.35 | 2:34.67 | 144635 | 156251
9 | 34:43.27 | 4:02.03 | 156252 | 174404
10 | 38:45.30 | 1:32.42 | 174405 | 181346


Track 1

Filename C:\supang\Andy Summers & Robert Fripp -1984- Bewitched {UICY-9241 Japan}\01. Parade.wav

Pre-gap length 0:00:02.00

Peak level 99.9 %
Track quality 100.0 %
Test CRC F1FAA40A
Copy CRC F1FAA40A
Cannot be verified as accurate (confidence 1) [7E7F3306], AccurateRip returned [1E0720AC]
Copy OK

Track 2

Filename C:\supang\Andy Summers & Robert Fripp -1984- Bewitched {UICY-9241 Japan}\02. What Kind of Man Reads Playboy.wav

Peak level 99.9 %
Track quality 100.0 %
Test CRC B3605339
Copy CRC B3605339
Cannot be verified as accurate (confidence 1) [47C48552], AccurateRip returned [2975B55E]
Copy OK

Track 3

Filename C:\supang\Andy Summers & Robert Fripp -1984- Bewitched {UICY-9241 Japan}\03. Begin the Day.wav

Pre-gap length 0:00:01.00

Peak level 99.9 %
Track quality 100.0 %
Test CRC D4CC1432
Copy CRC D4CC1432
Cannot be verified as accurate (confidence 1) [1884294A], AccurateRip returned [E8E66EA6]
Copy OK

Track 4

Filename C:\supang\Andy Summers & Robert Fripp -1984- Bewitched {UICY-9241 Japan}\04. Train.wav

Pre-gap length 0:00:01.20

Peak level 99.9 %
Track quality 100.0 %
Test CRC 6C91AFB7
Copy CRC 6C91AFB7
Cannot be verified as accurate (confidence 1) [B397A0B3], AccurateRip returned [59F42253]
Copy OK

Track 5

Filename C:\supang\Andy Summers & Robert Fripp -1984- Bewitched {UICY-9241 Japan}\05. Bewitched.wav

Pre-gap length 0:00:01.28

Peak level 99.8 %
Track quality 100.0 %
Test CRC 4FDA9240
Copy CRC 4FDA9240
Cannot be verified as accurate (confidence 1) [55DC7E23], AccurateRip returned [BF2226A4]
Copy OK

Track 6

Filename C:\supang\Andy Summers & Robert Fripp -1984- Bewitched {UICY-9241 Japan}\06. Tribe.wav

Peak level 99.2 %
Track quality 100.0 %
Test CRC 5CF06148
Copy CRC 5CF06148
Cannot be verified as accurate (confidence 1) [B227B215], AccurateRip returned [A5F50286]
Copy OK

Track 7

Filename C:\supang\Andy Summers & Robert Fripp -1984- Bewitched {UICY-9241 Japan}\07. Maquillage.wav

Pre-gap length 0:00:03.30

Peak level 91.2 %
Track quality 99.9 %
Test CRC 9D1760FA
Copy CRC 9D1760FA
Cannot be verified as accurate (confidence 1) [33579DFF], AccurateRip returned [F14BE9F9]
Copy OK

Track 8

Filename C:\supang\Andy Summers & Robert Fripp -1984- Bewitched {UICY-9241 Japan}\08. Guide.wav

Peak level 63.7 %
Track quality 100.0 %
Test CRC C0FA0696
Copy CRC C0FA0696
Cannot be verified as accurate (confidence 1) [81E5E984], AccurateRip returned [729657E1]
Copy OK

Track 9

Filename C:\supang\Andy Summers & Robert Fripp -1984- Bewitched {UICY-9241 Japan}\09. Forgotten Steps.wav

Peak level 58.2 %
Track quality 100.0 %
Test CRC 2AC9283E
Copy CRC 2AC9283E
Cannot be verified as accurate (confidence 1) [DF3944EE], AccurateRip returned [AACD39C5]
Copy OK

Track 10

Filename C:\supang\Andy Summers & Robert Fripp -1984- Bewitched {UICY-9241 Japan}\10. Image and Likeness.wav

Pre-gap length 0:00:02.05

Peak level 69.4 %
Track quality 100.0 %
Test CRC D111B116
Copy CRC D111B116
Cannot be verified as accurate (confidence 1) [B0790F08], AccurateRip returned [EDC32B1B]
Copy OK


No tracks could be verified as accurate
You may have a different pressing from the one(s) in the database

No errors occurred

End of status report

[CUETools log; Date: 06.02.2018 15:22:13; Version: 2.1.4]
[CTDB TOCID: LZnmcWPfF4SMIVfzG9PIeOWb6Ic-] found.
Track | CTDB Status
1 | (5/5) Accurately ripped
2 | (5/5) Accurately ripped
3 | (5/5) Accurately ripped
4 | (5/5) Accurately ripped
5 | (5/5) Accurately ripped
6 | (5/5) Accurately ripped
7 | (5/5) Accurately ripped
8 | (5/5) Accurately ripped
9 | (5/5) Accurately ripped
10 | (5/5) Accurately ripped
[AccurateRip ID: 0011d48d-00895186-8909710a] found.
Track [ CRC | V2 ] Status
01 [7e7f3306|d5062724] (0+0/2) No match
02 [47c48552|bbe90655] (0+0/2) No match
03 [1884294a|18e719f2] (0+0/2) No match
04 [b397a0b3|a27ad21e] (0+0/2) No match
05 [55dc7e23|c8135a3f] (0+0/2) No match
06 [b227b215|9a4cfb0d] (0+0/2) No match
07 [33579dff|5d8a722f] (0+0/2) No match
08 [81e5e984|92cfe2ee] (0+0/2) No match
09 [df3944ee|8dba4d52] (0+0/2) No match
10 [b0790f08|c5b5d220] (0+0/2) No match
Offsetted by -1570:
01 [1e0720ac] (0/2) No match (V2 was not tested)
02 [2975b55e] (0/2) No match (V2 was not tested)
03 [e8e66ea6] (0/2) No match (V2 was not tested)
04 [59f42253] (0/2) No match (V2 was not tested)
05 [bf2226a4] (0/2) No match (V2 was not tested)
06 [a5f50286] (0/2) No match (V2 was not tested)
07 [f14be9f9] (0/2) No match (V2 was not tested)
08 [729657e1] (0/2) No match (V2 was not tested)
09 [aacd39c5] (0/2) No match (V2 was not tested)
10 [edc32b1b] (0/2) No match (V2 was not tested)

Track Peak [ CRC32 ] [W/O NULL] [ LOG ]
– 99,9 [E2D6BEDD] [DD953AE9]
01 99,9 [F1FAA40A] [F668409A] CRC32
02 99,9 [B3605339] [A507BC83] CRC32
03 99,9 [D4CC1432] [EA8EBBE4] CRC32
04 99,9 [6C91AFB7] [F7332F3D] CRC32
05 99,8 [4FDA9240] [83EB1F66] CRC32
06 99,1 [5CF06148] [C6909230] CRC32
07 91,2 [9D1760FA] [2C033399] CRC32
08 63,7 [C0FA0696] [72C71DBC] CRC32
09 58,2 [2AC9283E] [91610216] CRC32
10 69,4 [D111B116] [8E657281] CRC32

Thanks to supang

See also:
Robert Fripp & The League Of Crafty Guitarists - Show Of Hands (1991)
Robert Fripp & The League of Gentlemen - Thrang Thrang Gozinbulx [Official Bootleg Live in 1980] (1996)