Tags
Language
Tags

Andy Summers & Robert Fripp - I Advance Masked (1982) [Reissue 2002] (Repost)

Posted By: gribovar
Andy Summers & Robert Fripp - I Advance Masked (1982) [Reissue 2002] (Repost)

Andy Summers & Robert Fripp - I Advance Masked (1982) [Reissue 2002]
EAC Rip | FLAC (tracks+.cue+log) - 229 MB | MP3 CBR 320 kbps (LAME 3.93) - 98 MB | Covers (6 MB) included
Genre: Instrumental Progressive Rock/Fusion | RAR 3% Rec. | Label: Universal Music Japan (UICY-9240)

Many a guitar fan would have predicted that a summit between legendary guitarists Andy Summers (the Police) and Robert Fripp (King Crimson) would result in a guitar solofest. But the music on their first collaboration together, I Advance Masked, stresses guitar textures and moods over indulgent soloing. Although the recording sessions weren't entirely enjoyable for Summers (who was experiencing marital problems at the time), some very beautiful music can be found on the resulting album. The music for the track "Girl on a Swing" does an excellent job of conveying the song's title in one's mind, and the duo's guitars weave wonderful polyrhythmic guitar lines throughout "China - Yellow Leader." "The Truth of Skies" is an atmospheric piece, created by a wash of keyboard sounds and guitar dissonance, while "New Marimba" would have sounded right at home on an early-'80s King Crimson album. I Advance Masked has a dreamlike quality to it, and is definitely not typical rock music. It's highly recommended to fans of these two great and original guitarists.

Tracklist:
01. I Advance Masked
02. Under Bridges of Silence
03. China - Yellow Leader
04. In the Cloud Forest
05. New Marimba
06. Girl on a Swing
07. Hardy Country
08. The Truth of Skies
09. Painting and Dance
10. Still Point
11. Lakeland/Aquarelle
12. Seven on Seven
13. Stultified

Total time: 38:48

Exact Audio Copy V0.99 prebeta 5 from 4. May 2009

EAC extraction logfile from 21. August 2009, 10:33

Andy Summers & Robert Fripp / I Advance Masked

Used drive : PLEXTOR CD-R PREMIUM2 Adapter: 1 ID: 0

Read mode : Secure
Utilize accurate stream : Yes
Defeat audio cache : Yes
Make use of C2 pointers : No

Read offset correction : 30
Overread into Lead-In and Lead-Out : Yes
Fill up missing offset samples with silence : Yes
Delete leading and trailing silent blocks : No
Null samples used in CRC calculations : Yes
Used interface : Native Win32 interface for Win NT & 2000
Gap handling : Appended to previous track

Used output format : Internal WAV Routines
Sample format : 44.100 Hz; 16 Bit; Stereo


TOC of the extracted CD

Track | Start | Length | Start sector | End sector
––––––––––––––––––––––––––––-
1 | 0:00.00 | 5:14.50 | 0 | 23599
2 | 5:14.50 | 1:41.60 | 23600 | 31234
3 | 6:56.35 | 7:09.57 | 31235 | 63466
4 | 14:06.17 | 2:30.25 | 63467 | 74741
5 | 16:36.42 | 3:38.35 | 74742 | 91126
6 | 20:15.02 | 2:03.58 | 91127 | 100409
7 | 22:18.60 | 3:00.20 | 100410 | 113929
8 | 25:19.05 | 2:07.45 | 113930 | 123499
9 | 27:26.50 | 3:24.45 | 123500 | 138844
10 | 30:51.20 | 3:08.50 | 138845 | 152994
11 | 33:59.70 | 1:43.12 | 152995 | 160731
12 | 35:43.07 | 1:38.33 | 160732 | 168114
13 | 37:21.40 | 1:26.17 | 168115 | 174581


Track 1

Filename C:\supang\Andy Summers & Robert Fripp -1982- I Advance Masked {UICY-9240 Japan}\01. I Advance Masked.wav

Pre-gap length 0:00:02.00

Peak level 99.8 %
Track quality 100.0 %
Test CRC CEFD360F
Copy CRC CEFD360F
Accurately ripped (confidence 1) [B4797B79]
Copy OK

Track 2

Filename C:\supang\Andy Summers & Robert Fripp -1982- I Advance Masked {UICY-9240 Japan}\02. Under Bridges of Silence.wav

Pre-gap length 0:00:02.40

Peak level 99.8 %
Track quality 100.0 %
Test CRC FF1EBB0B
Copy CRC FF1EBB0B
Accurately ripped (confidence 1) [216599E7]
Copy OK

Track 3

Filename C:\supang\Andy Summers & Robert Fripp -1982- I Advance Masked {UICY-9240 Japan}\03. China - Yellow Leader.wav

Peak level 99.8 %
Track quality 100.0 %
Test CRC 01A7E743
Copy CRC 01A7E743
Accurately ripped (confidence 1) [A87A2056]
Copy OK

Track 4

Filename C:\supang\Andy Summers & Robert Fripp -1982- I Advance Masked {UICY-9240 Japan}\04. In the Cloud Forest.wav

Pre-gap length 0:00:01.02

Peak level 99.8 %
Track quality 100.0 %
Test CRC C56F09FA
Copy CRC C56F09FA
Accurately ripped (confidence 1) [4AA296D9]
Copy OK

Track 5

Filename C:\supang\Andy Summers & Robert Fripp -1982- I Advance Masked {UICY-9240 Japan}\05. New Marimba.wav

Peak level 99.8 %
Track quality 99.9 %
Test CRC 2AC4928A
Copy CRC 2AC4928A
Accurately ripped (confidence 1) [F7545AF9]
Copy OK

Track 6

Filename C:\supang\Andy Summers & Robert Fripp -1982- I Advance Masked {UICY-9240 Japan}\06. Girl on a Swing.wav

Peak level 99.8 %
Track quality 100.0 %
Test CRC EE55C65F
Copy CRC EE55C65F
Accurately ripped (confidence 1) [B49B55C2]
Copy OK

Track 7

Filename C:\supang\Andy Summers & Robert Fripp -1982- I Advance Masked {UICY-9240 Japan}\07. Hardy Country.wav

Pre-gap length 0:00:01.68

Peak level 99.8 %
Track quality 100.0 %
Test CRC BCA289E6
Copy CRC BCA289E6
Accurately ripped (confidence 1) [26D1FBE9]
Copy OK

Track 8

Filename C:\supang\Andy Summers & Robert Fripp -1982- I Advance Masked {UICY-9240 Japan}\08. The Truth of Skies.wav

Peak level 99.8 %
Track quality 100.0 %
Test CRC 45E6C5CE
Copy CRC 45E6C5CE
Accurately ripped (confidence 1) [F6665ACD]
Copy OK

Track 9

Filename C:\supang\Andy Summers & Robert Fripp -1982- I Advance Masked {UICY-9240 Japan}\09. Painting and Dance.wav

Peak level 99.8 %
Track quality 100.0 %
Test CRC D713E873
Copy CRC D713E873
Accurately ripped (confidence 1) [F4C60E4E]
Copy OK

Track 10

Filename C:\supang\Andy Summers & Robert Fripp -1982- I Advance Masked {UICY-9240 Japan}\10. Still Point.wav

Peak level 99.8 %
Track quality 100.0 %
Test CRC FE59F95A
Copy CRC FE59F95A
Accurately ripped (confidence 1) [BBE5C742]
Copy OK

Track 11

Filename C:\supang\Andy Summers & Robert Fripp -1982- I Advance Masked {UICY-9240 Japan}\11. Lakeland-Aquarelle.wav

Pre-gap length 0:00:04.38

Peak level 99.8 %
Track quality 100.0 %
Test CRC A5870D23
Copy CRC A5870D23
Accurately ripped (confidence 1) [61949E4C]
Copy OK

Track 12

Filename C:\supang\Andy Summers & Robert Fripp -1982- I Advance Masked {UICY-9240 Japan}\12. Seven on Seven.wav

Peak level 99.8 %
Track quality 100.0 %
Test CRC D60E9E09
Copy CRC D60E9E09
Accurately ripped (confidence 1) [5E1AA570]
Copy OK

Track 13

Filename C:\supang\Andy Summers & Robert Fripp -1982- I Advance Masked {UICY-9240 Japan}\13. Stultified.wav

Pre-gap length 0:00:01.45

Peak level 99.8 %
Track quality 100.0 %
Test CRC FB2C34E1
Copy CRC FB2C34E1
Accurately ripped (confidence 1) [2FD8DE5E]
Copy OK


All tracks accurately ripped

No errors occurred

End of status report

[CUETools log; Date: 05.09.2018 1:38:37; Version: 2.1.4]
[CTDB TOCID: 7IMby5PFVHIAHP0J3WsE1VdleAM-] found.
Track | CTDB Status
1 | (11/11) Accurately ripped
2 | (11/11) Accurately ripped
3 | (11/11) Accurately ripped
4 | (11/11) Accurately ripped
5 | (11/11) Accurately ripped
6 | (11/11) Accurately ripped
7 | (11/11) Accurately ripped
8 | (11/11) Accurately ripped
9 | (11/11) Accurately ripped
10 | (11/11) Accurately ripped
11 | (11/11) Accurately ripped
12 | (11/11) Accurately ripped
13 | (10/11) Accurately ripped
[AccurateRip ID: 0015a040-00d099de-a509170d] found.
Track [ CRC | V2 ] Status
01 [b4797b79|f8c1d126] (2+0/4) Accurately ripped
02 [216599e7|411a2fdc] (2+0/4) Accurately ripped
03 [a87a2056|3c388573] (2+0/4) Accurately ripped
04 [4aa296d9|789f241a] (2+0/4) Accurately ripped
05 [f7545af9|81e0d010] (2+0/4) Accurately ripped
06 [b49b55c2|cd16be73] (2+0/4) Accurately ripped
07 [26d1fbe9|4d7159a0] (2+0/4) Accurately ripped
08 [f6665acd|3c8d1e8b] (2+0/4) Accurately ripped
09 [f4c60e4e|e0a85803] (2+0/4) Accurately ripped
10 [bbe5c742|a79a3e5d] (2+0/4) Accurately ripped
11 [61949e4c|67e0bafd] (2+0/4) Accurately ripped
12 [5e1aa570|debb06a1] (2+0/4) Accurately ripped
13 [2fd8de5e|bdd94dde] (2+0/4) Accurately ripped
Offsetted by 112:
01 [24ea3099] (0/4) No match (V2 was not tested)
02 [dbed8297] (0/4) No match (V2 was not tested)
03 [d12bc196] (0/4) No match (V2 was not tested)
04 [cf2e0fdd] (0/4) No match (V2 was not tested)
05 [968f5f85] (0/4) No match (V2 was not tested)
06 [9015f052] (0/4) No match (V2 was not tested)
07 [23257270] (0/4) No match (V2 was not tested)
08 [9de139b6] (0/4) No match (V2 was not tested)
09 [33186d9e] (0/4) No match (V2 was not tested)
10 [bbf935f2] (0/4) No match (V2 was not tested)
11 [c632a38c] (0/4) No match (V2 was not tested)
12 [15387bf0] (0/4) No match (V2 was not tested)
13 [e785049e] (0/4) No match (V2 was not tested)

Track Peak [ CRC32 ] [W/O NULL] [ LOG ]
– 99,8 [861678C4] [313349D5]
01 99,8 [CEFD360F] [290D1182] CRC32
02 99,8 [FF1EBB0B] [1DDBEFE2] CRC32
03 99,8 [01A7E743] [3532F5BD] CRC32
04 99,8 [C56F09FA] [AF631AC1] CRC32
05 99,8 [2AC4928A] [0225C5C4] CRC32
06 99,8 [EE55C65F] [A341DD9A] CRC32
07 99,8 [BCA289E6] [C875A89E] CRC32
08 99,8 [45E6C5CE] [D03BA7E4] CRC32
09 99,8 [D713E873] [8B6A01F0] CRC32
10 99,8 [FE59F95A] [F1623AED] CRC32
11 99,8 [A5870D23] [91A77926] CRC32
12 99,8 [D60E9E09] [32A5D92C] CRC32
13 99,8 [FB2C34E1] [1B7EE94E] CRC32

Thanks to supang