Subcategories

Angel - White Hot (1978) [2011, Japanese SHM-CD] Repost

Posted By: v3122
Angel - White Hot (1978) [2011, Japanese SHM-CD] Repost

Angel - White Hot (1978)
EAC | Flac(Image) + Cue + Log & MP3 CBR 320Kbps
Universal Music Japan, UICY-94618 | ~ 274 or 90 Mb | Artwork(png) -> 524Mb
Hard Rock, Glam

In the 1970s, Angel epitomized the type of commercial rockers who were hated by rock journalists but adored by their fans. When White Hot came out in 1977, critics wondered why anyone would spend money on Angel's ultra-slick, formulaic pop-metal, hard rock and arena rock when the punk and new wave explosions were giving us such challenging, cutting-edge risk-takers as the Clash, Elvis Costello and the Talking Heads. Truth be told, rock can and should accommodate a variety of approaches – in 1977, there was room for those who challenged and provoked and those who, like Angel, simply entertained. White Hot, Angel's best selling album, isn't the least bit challenging, but then it isn't supposed to be. Angel was unapologetically commercial, and high-gloss numbers such as "Over and Over," "Stick Like Glue," and "Hold Me, Squeeze Me" point to the fact that the East Coast band was generally good at what it did. Also likable is Angel's cover of "Ain't Gonna Eat Out My Heart Anymore," which became a moderate hit. As far as pop-metal goes, Angel didn't quite have the hooks of Kiss, Sweet, or Cheap Trick; but while White Hot isn't fantastic, it's decent. If you want to hear one of the 1970s bands that helped pave the way for Bon Jovi, Winger, Warrant, and numerous other MTV-friendly hair bands that were huge in the 1980s, White Hot is worth a listen.

by Alex Henderson, allmusic
Angel - White Hot (1978):

Angel - White Hot (1978) [2011, Japanese SHM-CD] Repost

Tracklist:

01. Don't Leave Me Lonely 04:01
02. Ain't Gonna Eat Out My Heart Anymore 02:52
03. Hold Me, Squeeze Me 03:51
04. Over And Over 03:01
05. Under Suspicion 04:46
06. Got Love If You Want It 04:28
07. Stick Like Glue 02:39
08. Flying With Broken Wings (Without You) 03:37
09. You Could Lose Me 04:54
10. The Winter Song 03:46

Exact Audio Copy V1.0 beta 3 from 29. August 2011

EAC extraction logfile from 1. March 2012, 20:30

Angel / White Hot

Used drive : HL-DT-STDVDRAM GSA-H60N Adapter: 2 ID: 0

Read mode : Secure
Utilize accurate stream : Yes
Defeat audio cache : Yes
Make use of C2 pointers : No

Read offset correction : 667
Overread into Lead-In and Lead-Out : No
Fill up missing offset samples with silence : Yes
Delete leading and trailing silent blocks : No
Null samples used in CRC calculations : Yes
Used interface : Native Win32 interface for Win NT & 2000

Used output format : Internal WAV Routines
Sample format : 44.100 Hz; 16 Bit; Stereo


TOC of the extracted CD

Track | Start | Length | Start sector | End sector
––––––––––––––––––––––––––––-
1 | 0:00.00 | 4:01.12 | 0 | 18086
2 | 4:01.12 | 2:52.08 | 18087 | 30994
3 | 6:53.20 | 3:51.07 | 30995 | 48326
4 | 10:44.27 | 3:01.50 | 48327 | 61951
5 | 13:46.02 | 4:46.63 | 61952 | 83464
6 | 18:32.65 | 4:28.12 | 83465 | 103576
7 | 23:01.02 | 2:39.73 | 103577 | 115574
8 | 25:41.00 | 3:37.30 | 115575 | 131879
9 | 29:18.30 | 4:54.20 | 131880 | 153949
10 | 34:12.50 | 3:46.47 | 153950 | 170946


Range status and errors

Selected range

Filename C:\Documents and Settings\Admin\Рабочий стол\Rip by ALLexxess\Angel\1978 White Hot (Universal Music Japan Mini LP SHM-CD 2011)\Angel - White Hot.wav

Peak level 100.0 %
Extraction speed 5.6 X
Range quality 100.0 %
Test CRC D892345D
Copy CRC D892345D
Copy OK

No errors occurred


AccurateRip summary

Track 1 accurately ripped (confidence 1) [B5E68293] (AR v1)
Track 2 accurately ripped (confidence 1) [127D8522] (AR v1)
Track 3 accurately ripped (confidence 1) [EE9A5B89] (AR v1)
Track 4 accurately ripped (confidence 1) [4CD55244] (AR v1)
Track 5 accurately ripped (confidence 1) [8AD2014C] (AR v1)
Track 6 accurately ripped (confidence 1) [C971C450] (AR v1)
Track 7 accurately ripped (confidence 1) [36AA130B] (AR v1)
Track 8 accurately ripped (confidence 1) [0C744D22] (AR v1)
Track 9 accurately ripped (confidence 1) [B1682547] (AR v1)
Track 10 accurately ripped (confidence 1) [83A55C07] (AR v1)

All tracks accurately ripped

End of status report

==== Log checksum D6BD3753845A61849BEB339615E51207CE69AC542D68C766547F39122BB31996 ====


[CUETools log; Date: 12.02.2019 6:39:10; Version: 2.1.4]
[AccurateRip ID: 000e04e3-0070c136-7308e70a] found.
Track [ CRC | V2 ] Status
01 [b5e68293|130347fe] (0+2/2) Accurately ripped
02 [127d8522|ca7fc074] (0+2/2) Accurately ripped
03 [ee9a5b89|23b8f896] (0+2/2) Accurately ripped
04 [4cd55244|6c7473d2] (0+2/2) Accurately ripped
05 [8ad2014c|6b8ab864] (0+2/2) Accurately ripped
06 [c971c450|c1b9c8ad] (0+2/2) Accurately ripped
07 [36aa130b|3cecc1b5] (0+2/2) Accurately ripped
08 [0c744d22|3e4e5f90] (0+2/2) Accurately ripped
09 [b1682547|5e67b3af] (0+2/2) Accurately ripped
10 [83a55c07|d9671c4f] (0+2/2) Accurately ripped

Track Peak [ CRC32 ] [W/O NULL] [ LOG ]
– 100,0 [D892345D] [CFBE6A24] CRC32
01 100,0 [F2025901] [B40A0F13]
02 100,0 [93E321E9] [F07C610D]
03 100,0 [15BBBB33] [3083290D]
04 100,0 [846CFF23] [03061311]
05 100,0 [51EC0F0B] [FB6AD240]
06 100,0 [DBF1F55C] [4F10FB9A]
07 100,0 [20911E15] [53EA6B14]
08 100,0 [BD38853F] [7599087F]
09 100,0 [A150C716] [B9963B4B]
10 100,0 [60F693E0] [0D394341]


Angel - White Hot (1978) [2011, Japanese SHM-CD] Repost

All thanks go to ALLexxess

Angel in my Blog

Download Angel - White Hot (1978):