Subcategories

Angel Witch - Angel Witch (1980) [Japan SHM-CD, 2011]

Posted By: Andi_Deris
Angel Witch - Angel Witch (1980) [Japan SHM-CD, 2011]

Angel Witch - Angel Witch (1980) [Japan SHM-CD, 2011]
EAC Rip | FLAC: Image+Cue+Log | 567 Mb | MP3 CBR 320 kbps | 189 Mb | Scans | Time: 01:18:34
Universal Music | UICY-25105
Heavy Metal, NWOBHM

Angel Witch is the first album by British heavy metal band Angel Witch. The album was released in 1980 through Bronze Records. The album made Angel Witch one of the key bands in the New Wave of British Heavy Metal movement.

Daniel Barenboim - Berlioz Symphonie Fantastique & Liszt Les Preludes (2013) {Decca}




Daniel Barenboim - Berlioz Symphonie Fantastique & Liszt Les Preludes (2013) {Decca}


Track Listing

01. Angel Witch (3:25)
02. Atlantis (3:42)
03. White Witch (4:48)
04. Confused (2:51)
05. Sorcerers (4:16)
06. Gorgon (4:06)
07. Sweet Danger (3:07)
08. Free Man (4:44)
09. Angel Of Death (4:52)
10. Devil's Tower (2:28)

Bonus tracks
11. Loser [7'' Single A-Side] (2:50)
12. Suffer [Loser 7'' Single B-Side] (3:24)
13. Dr. Phibes [Loser 7'' Single B-Side] (2:50)
14. Flight Nineteen [Sweet Danger, Single B-Side] (5:55)
15. Baphomet (5:00)
16. Hades Paradise [12'' Single B-Side] (4:39)
17. Sweet Danger * (3:13)
18. Angel Of Death * (5:13)
19. Extermination Day * (3:40)
20. Angel Witch * (3:31)

* Recorded for the March 14, 1980 edition of the BBC's Friday Rock Show

Produced by Martin Smith

The Band

• Kevin Heybourne - lead guitar, vocals
• Kevin Riddles - bass, keyboards, backing vocals
• Dave Hogg - drums, percussion

Notes

Despite a modest budget and a 1980's recording, the songs are well produced. Surprisingly every instrument is clearly heard, including the bass guitar. As a matter of fact, the bass lines of Kevin Riddles are not only audible but are a very driving part of the songs themselves, much like Geezer was the driving force behind Sabbath. Kevin Heybourne sings in a mostly clean style but adds some aggressive screams when needed. Angel Witch use a lot of background vocals as well, which helps define their sound.

Daniel Barenboim - Berlioz Symphonie Fantastique & Liszt Les Preludes (2013) {Decca}


Exact Audio Copy V1.0 beta 3 from 29. August 2011

Отчёт EAC об извлечении, выполненном 17. декабря 2012, 20:55

Angel Witch / Angel Witch

Дисковод: PLEXTOR DVDR PX-810SA Adapter: 3 ID: 1

Режим чтения : Достоверность
Использование точного потока : Да
Отключение кэша аудио : Да
Использование указателей C2 : Нет

Коррекция смещения при чтении : 48
Способность читать области Lead-in и Lead-out : Нет
Заполнение пропущенных сэмплов тишиной : Да
Удаление блоков с тишиной в начале и конце : Нет
При вычислениях CRC использовались нулевые сэмплы : Да
Интерфейс : Установленный внешний ASPI-интерфейс

Выходной формат : Пользовательский кодировщик
Выбранный битрейт : 768 kBit/s
Качество : Высокий
Добавление ID3-тега : Нет
Утилита сжатия : C:\Program Files\Monkey's Audio\MAC.exe
Дополнительные параметры : %source% %dest% -c3000

TOC извлечённого CD

Трек | Старт | Длительность | Начальный сектор | Конечный сектор
––––––––––––––––––––––––––––––––––-
1 | 0:00.00 | 3:25.05 | 0 | 15379
2 | 3:25.05 | 3:42.45 | 15380 | 32074
3 | 7:07.50 | 4:48.07 | 32075 | 53681
4 | 11:55.57 | 2:51.73 | 53682 | 66579
5 | 14:47.55 | 4:16.12 | 66580 | 85791
6 | 19:03.67 | 4:06.53 | 85792 | 104294
7 | 23:10.45 | 3:07.45 | 104295 | 118364
8 | 26:18.15 | 4:44.15 | 118365 | 139679
9 | 31:02.30 | 4:52.12 | 139680 | 161591
10 | 35:54.42 | 2:28.35 | 161592 | 172726
11 | 38:23.02 | 2:50.60 | 172727 | 185536
12 | 41:13.62 | 3:24.15 | 185537 | 200851
13 | 44:38.02 | 2:50.28 | 200852 | 213629
14 | 47:28.30 | 5:55.35 | 213630 | 240289
15 | 53:23.65 | 5:00.45 | 240290 | 262834
16 | 58:24.35 | 4:39.32 | 262835 | 283791
17 | 63:03.67 | 3:13.15 | 283792 | 298281
18 | 66:17.07 | 5:13.50 | 298282 | 321806
19 | 71:30.57 | 3:40.72 | 321807 | 338378
20 | 75:11.54 | 3:31.02 | 338379 | 354205

Характеристики диапазона извлечения и сообщения об ошибках

Выбранный диапазон

Имя файла E:\UPLOADS\Angel Witch\Angel Witch (1980)\Angel Witch - Angel Witch.wav

Пиковый уровень 98.8 %
Скорость извлечения 8.5 X
Качество диапазона 100.0 %
CRC теста E9BB3544
CRC копии E9BB3544
Копирование… OK

Ошибок не произошло

AccurateRip: сводка

Трек 1 точность не определена (достоверность 8) [842DE56F], AccurateRip вернул [22A73176] (AR v2)
Трек 2 точность не определена (достоверность 8) [25FB190C], AccurateRip вернул [6D407426] (AR v2)
Трек 3 точность не определена (достоверность 8) [EB80EF82], AccurateRip вернул [1DFA3C07] (AR v2)
Трек 4 точность не определена (достоверность 8) [66DAF51F], AccurateRip вернул [D85D8EFD] (AR v2)
Трек 5 точность не определена (достоверность 8) [E7A8A1A6], AccurateRip вернул [DA715B40] (AR v2)
Трек 6 точность не определена (достоверность 8) [E4ED425C], AccurateRip вернул [76D3047C] (AR v2)
Трек 7 точность не определена (достоверность 8) [78065DF1], AccurateRip вернул [60ECCAD8] (AR v2)
Трек 8 точность не определена (достоверность 8) [C213DCF0], AccurateRip вернул [C6EECFB5] (AR v2)
Трек 9 точность не определена (достоверность 8) [419E47C9], AccurateRip вернул [42776DFB] (AR v2)
Трек 10 точность не определена (достоверность 8) [8CD0C0A9], AccurateRip вернул [27D7972F] (AR v2)
Трек 11 точность не определена (достоверность 8) [3E5152F1], AccurateRip вернул [B3F5EEB9] (AR v2)
Трек 12 точность не определена (достоверность 8) [5BC446D1], AccurateRip вернул [B6767AB4] (AR v2)
Трек 13 точность не определена (достоверность 8) [D5DB21B6], AccurateRip вернул [A249BAD5] (AR v2)
Трек 14 точность не определена (достоверность 8) [E8E063AC], AccurateRip вернул [51C3D43B] (AR v2)
Трек 15 точность не определена (достоверность 8) [1BD7C730], AccurateRip вернул [EB2E4384] (AR v2)
Трек 16 точность не определена (достоверность 8) [34BDAC98], AccurateRip вернул [54800975] (AR v2)
Трек 17 точность не определена (достоверность 8) [56E28BE3], AccurateRip вернул [1A46FEA3] (AR v2)
Трек 18 точность не определена (достоверность 8) [F97CAAFA], AccurateRip вернул [DD61E5D1] (AR v2)
Трек 19 точность не определена (достоверность 8) [76517A29], AccurateRip вернул [711CCD4D] (AR v2)
Трек 20 точность не определена (достоверность 8) [978DFE45], AccurateRip вернул [0E48DB7A] (AR v2)

Ни один трек не прошёл проверки на точность
В вашей базе может быть иной вариант штамповки диска

Конец отчёта

==== Контрольная сумма отчёта FDE80C348783238FCE1690D90EA6CB22E0EE7F6C36194383A6CC466B2195394A ====


Many thanks to the original uploader: Atheist_KHV

SEE also:
Angel Witch 1985 Screamin' 'N' Bleedin' [Reissue 2004]
Angel Witch 2012 As Above, So Below [Japanese Edition]