Subcategories

Angel Witch - As Above, So Below (2012) [Japanese Edition]

Posted By: Andi_Deris
Angel Witch - As Above, So Below (2012) [Japanese Edition]

Angel Witch - As Above, So Below (2012) [Japanese Edition]
EAC Rip | FLAC: Image+Cue+Log | 426 Mb | MP3 CBR 320 kbps | 152 Mb | Scans | Time: 55:49
Trooper Ent. | QATE-10020
Heavy Metal, NWOBHM

Legendary British heavy metallers Angel Witch have risen from the grave (once again) with their first studio album since 1998’s Resurrection. This new album, entitled As Above, So Below, is undeniable proof that a classic NWOBHM sound can survive and even thrive in today’s metal environment.

Hitman 01 - A Rage in Arkham Pt.1




Hitman 01 - A Rage in Arkham Pt.1


Track Listing

01. Dead Sea Scrolls (5:59)
02. Into The Dark (5:11)
03. Ceburah (5:24)
04. The Horla (7:29)
05. Witching Hour (5:49)
06. Upon This Cord (6:33)
07. Guillotine (6:53)
08. Brainwashed (7:09)
09. Devil's Tower (Bonus track for Japan) (5:22)

Produced by Jaime Gomez Arellano

The Band

• Kevin Heybourne - vocals, guitars
• Will Palmer - bass
• Andy Prestridge - drums

*****
• Bill Steer - guitar (touring)

Acoustica Premium Edition v5.0.0 Build 62


Exact Audio Copy V1.0 beta 3 from 29. August 2011

EAC extraction logfile from 15. September 2012, 22:28

Angel Witch / As Above, So Below (Japan)

Used drive : Optiarc DVD RW AD-7260S Adapter: 1 ID: 1

Read mode : Secure
Utilize accurate stream : Yes
Defeat audio cache : Yes
Make use of C2 pointers : No

Read offset correction : 48
Overread into Lead-In and Lead-Out : No
Fill up missing offset samples with silence : Yes
Delete leading and trailing silent blocks : No
Null samples used in CRC calculations : Yes
Used interface : Native Win32 interface for Win NT & 2000

Used output format : Internal WAV Routines
Sample format : 44.100 Hz; 16 Bit; Stereo


TOC of the extracted CD

Track | Start | Length | Start sector | End sector
––––––––––––––––––––––––––––-
1 | 0:00.00 | 5:59.47 | 0 | 26971
2 | 5:59.47 | 5:11.10 | 26972 | 50306
3 | 11:10.57 | 5:24.01 | 50307 | 74607
4 | 16:34.58 | 7:29.60 | 74608 | 108342
5 | 24:04.43 | 5:49.63 | 108343 | 134580
6 | 29:54.31 | 6:33.15 | 134581 | 164070
7 | 36:27.46 | 6:53.53 | 164071 | 195098
8 | 43:21.24 | 7:09.72 | 195099 | 227345
9 | 50:31.21 | 5:22.41 | 227346 | 251536


Range status and errors

Selected range

Filename C:\Мои документы\Angel Witch - 2012 - As Above, So Below (Japan).wav

Peak level 97.0 %
Extraction speed 3.8 X
Range quality 99.9 %
Test CRC A42A0DB1
Copy CRC A42A0DB1
Copy OK

No errors occurred


AccurateRip summary

Track 1 not present in database
Track 2 not present in database
Track 3 not present in database
Track 4 not present in database
Track 5 not present in database
Track 6 not present in database
Track 7 not present in database
Track 8 not present in database
Track 9 not present in database

None of the tracks are present in the AccurateRip database

End of status report

–– CUETools DB Plugin V2.1.4

[CTDB TOCID: oSI0dAAyB6M99iM1zHVud_yfdIQ-] disk not present in database
Submit result: oSI0dAAyB6M99iM1zHVud_yfdIQ- has been uploaded


==== Log checksum 50FC13ED8494D644B6D6E50E650D0745CF47905FAA6F9B50A7D6B3A408FA072A ====


Many thanks to the original uploader: slayer19

SEE also:
Angel Witch 1980 Angel Witch [Japan SHM-CD, 2011]
Angel Witch 1985 Screamin' 'N' Bleedin' [Reissue 2004]