Angelo Santo Lombardi - I Giorni Di Eurisko (2004)

Posted By: popsakov
Angelo Santo Lombardi - I Giorni Di Eurisko (2004)

Angelo Santo Lombardi - I Giorni Di Eurisko (2004)
EAC Rip | FLAC (Img) + Cue + Log ~ 474 Mb | MP3 CBR320 ~ 166 Mb
Scans (PNG, 600 dpi) ~ 119 Mb | RAR 5% Recovery
Sympho-Prog Rock, RPI | Music Center #BA 065 CD

Self producted debut album as Angelo Santo Lombardi (actually known as Gan Eden - Il Giardino delle Delizie). "Gan Eden" (Hebrew word for "Garden of Eden", "Il Giardino delle Delizie" in italian language) is a new studio project put together by keyboardist Angelo Santo Lombardi with other musicians helping out to give the record a true band sound.

Classic 1970s style Italian progressive rock is what they wanted to create. A fantastic new italian project, in the tradition of the best italian symphonic prog of the Seventies (ref: Banco Del Mutuo Soccorso , PFM, Le Orme), this band follows the footsteps of "Torre dell'Alchimista" and "La Maschera di Cera". Il Giardino delle Delizie will become a future classic.
***************
Review by apps79

Coming from Milan, Angelo Santo Lombardi is a keyboardist who appreciates Italian Progressive Rock. For this reason he collaborated with bassist/guitarist Gabriele Paganoni and came up with his original material in 2004. His debut was a self-produced work, produced by Alessio Brocca in Lissone near Milan, and saw the light under the title ''I giorni di Eurisko''.

What strikes the listener already from the first listening is Lombardi's very romantic and highly emotional approach in music, highlighted by his work on piano and keyboards. For keyboard/piano lovers there are lots of things to love in this album. From Lombardi's vintage organ sounds to his sensitive piano interludes and the atmospheric synth work. Additionally his voice is great, typical of an emotional Italian singer and close to this of PIETRO RATTO of ATON'S fame. Actually the musicianship has often much to share with ATON'S albums, soft and melodic semi-prog adventures with plenty of vocal parts with a warm delivery but still with some nice instrumental parts. The style is fairly symphonic with a fair dose of Classical influences but also plenty of pop sensibilities of fine inspiration. The drumming though is programmed and a reason the album never really takes of in terms of quality. Paganoni has his moments too and when the space is offered he performs some great electric solos, making the album a bit more flexible.

A new entry, which is more than welcome.If you are a fan of LE ORME and a few accesible tunes do not bother you, Angelo Santo Lombardi's debut is a reason to stay at home and listen to some decent modern Italian Prog with an excellent atmosphere. Recommended.
~ progarchives.com

***************

Angelo Santo Lombardi - I Giorni Di Eurisko (2004)

Track List:

01. One Way [03:25]
02. Tu Sai [07:07]
03. La Tua Voce [04:50]
04. Eurisko [06:55]
05. Il Tuo Canto [06:45]
06. Regina Mia [04:28]
07. Vivere Accanto a Te [04:44]
08. La Vita (Old Dream) [05:43]
09. Che Dolce Dono 'I Miei' per Noi [04:06]
10. In Tre Tempi [06:32]
11. La Principessa Sara [05:03]
12. Quando Sorgera il Sole [06:44]
13. Ballata [03:11]

Angelo Santo Lombardi - vocals, piano Steinway, electric piano, organ, keyboards
Gabriele Paganoni - acoustic and electric guitars, bass, keyboards, effects, synth drums and percussions

Guest:
Sara Lombardi - vocals (11)

Exact Audio Copy V1.0 beta 6 from 9. April 2015

EAC extraction logfile from 25. May 2015, 10:42

Angelo Santo Lombardi / I GiorniI Di Eurisko

Used drive : PIONEER BD-RW BDR-XD04 Adapter: 1 ID: 0

Read mode : Secure
Utilize accurate stream : Yes
Defeat audio cache : Yes
Make use of C2 pointers : No

Read offset correction : 667
Overread into Lead-In and Lead-Out : No
Fill up missing offset samples with silence : Yes
Delete leading and trailing silent blocks : No
Null samples used in CRC calculations : Yes
Used interface : Native Win32 interface for Win NT & 2000

Used output format : User Defined Encoder
Selected bitrate : 768 kBit/s
Quality : High
Add ID3 tag : No
Command line compressor : c:\Program Files (x86)\Exact Audio Copy\wavpack\wavpack.exe
Additional command line options : -hm -w "Year=%year%" -w "Genre=%genre%" %source% %dest%


TOC of the extracted CD

Track | Start | Length | Start sector | End sector
––––––––––––––––––––––––––––-
1 | 0:00.01 | 3:24.04 | 1 | 15304
2 | 3:24.05 | 7:06.47 | 15305 | 47301
3 | 10:30.52 | 4:49.24 | 47302 | 69000
4 | 15:20.01 | 6:54.04 | 69001 | 100054
5 | 22:14.05 | 6:44.18 | 100055 | 130372
6 | 28:58.23 | 4:27.19 | 130373 | 150416
7 | 33:25.42 | 4:43.33 | 150417 | 171674
8 | 38:09.00 | 5:42.46 | 171675 | 197370
9 | 43:51.46 | 4:05.40 | 197371 | 215785
10 | 47:57.11 | 6:31.49 | 215786 | 245159
11 | 54:28.60 | 5:02.46 | 245160 | 267855
12 | 59:31.31 | 6:43.29 | 267856 | 298109
13 | 66:14.60 | 3:10.73 | 298110 | 312432


Range status and errors

Selected range

Filename C:\_NL+_\CD70\Angelo Santo Lombardi - I GiorniI Di Eurisko.wav

Peak level 98.6 %
Extraction speed 1.9 X
Range quality 100.0 %
Test CRC FFE29E09
Copy CRC FFE29E09
Copy OK

No errors occurred


AccurateRip summary

Track 1 accurately ripped (confidence 1) [9144E1A1] (AR v1)
Track 2 accurately ripped (confidence 1) [F0C12321] (AR v1)
Track 3 accurately ripped (confidence 1) [B6ACDFCC] (AR v1)
Track 4 accurately ripped (confidence 1) [364C9876] (AR v1)
Track 5 accurately ripped (confidence 1) [8D6F9A92] (AR v1)
Track 6 accurately ripped (confidence 1) [B9957D80] (AR v1)
Track 7 accurately ripped (confidence 1) [49081207] (AR v1)
Track 8 accurately ripped (confidence 1) [E401E280] (AR v1)
Track 9 accurately ripped (confidence 1) [05FD3CA7] (AR v1)
Track 10 accurately ripped (confidence 1) [46AC8DDB] (AR v1)
Track 11 accurately ripped (confidence 1) [4D3EA364] (AR v1)
Track 12 accurately ripped (confidence 1) [7F1B35ED] (AR v1)
Track 13 accurately ripped (confidence 1) [1AB8D534] (AR v1)

All tracks accurately ripped

End of status report

–– CUETools DB Plugin V2.1.6

[CTDB TOCID: rs86CGoauJQa..vxD..45eS36AI-] disk not present in database
Submit result: rs86CGoauJQa..vxD..45eS36AI- has been uploaded


==== Log checksum DAC3AB7CB1E6B7B308DBD70CFE428FEC69DD37167D50A97EF4FD32A0C96D143A ====

foobar2000 1.2.6 / Dynamic Range Meter 1.1.1
log date: 2015-05-30 19:10:25

––––––––––––––––––––––––––––––––––––––––
Analyzed: Angelo Santo Lombardi / I GiorniI Di Eurisko
––––––––––––––––––––––––––––––––––––––––

DR Peak RMS Duration Track
––––––––––––––––––––––––––––––––––––––––
DR5 -0.12 dB -7.76 dB 3:24 01-One Way
DR5 -0.14 dB -6.19 dB 7:07 02-Tu Sai
DR6 -0.12 dB -8.63 dB 4:49 03-La Tua Voce
DR3 -0.12 dB -6.22 dB 6:54 04-Eurisko
DR4 -0.20 dB -6.18 dB 6:44 05-Il Tuo Canto
DR6 -0.13 dB -8.17 dB 4:27 06-Regina Mia
DR4 -0.12 dB -7.64 dB 4:43 07-Vivere Accanto a Te
DR5 -0.12 dB -9.19 dB 5:43 08-La Vita (Old Dream)
DR5 -0.12 dB -8.28 dB 4:06 09-Che Dolce Dono 'I Miei' per Noi
DR6 -0.13 dB -9.70 dB 6:32 10-In Tre Tempi
DR4 -0.12 dB -8.09 dB 5:03 11-La Principessa Sara
DR4 -0.29 dB -6.17 dB 6:43 12-Quando Sorgera il Sole
DR5 -0.37 dB -8.55 dB 3:11 13-Ballata
––––––––––––––––––––––––––––––––––––––––

Number of tracks: 13
Official DR value: DR5

Samplerate: 44100 Hz
Channels: 2
Bits per sample: 16
Bitrate: 909 kbps
Codec: FLAC
================================================================================

[CUETools log; Date: 06.06.2015 1:38:22; Version: 2.1.5]
Pregap length 00:00:01.
[CTDB TOCID: rs86CGoauJQa..vxD..45eS36AI-] found.
Track | CTDB Status
1 | (1/1) Accurately ripped
2 | (1/1) Accurately ripped
3 | (1/1) Accurately ripped
4 | (1/1) Accurately ripped
5 | (1/1) Accurately ripped
6 | (1/1) Accurately ripped
7 | (1/1) Accurately ripped
8 | (1/1) Accurately ripped
9 | (1/1) Accurately ripped
10 | (1/1) Accurately ripped
11 | (1/1) Accurately ripped
12 | (1/1) Accurately ripped
13 | (1/1) Accurately ripped
[AccurateRip ID: 0021e32d-01538a2c-b110450d] found.
Track [ CRC | V2 ] Status
01 [9144e1a1|c4fa34ab] (1+1/2) Accurately ripped
02 [f0c12321|c35556aa] (1+1/2) Accurately ripped
03 [b6acdfcc|0ee2b624] (1+1/2) Accurately ripped
04 [364c9876|029d6956] (1+1/2) Accurately ripped
05 [8d6f9a92|be6fe5bc] (1+1/2) Accurately ripped
06 [b9957d80|ac093d67] (1+1/2) Accurately ripped
07 [49081207|3cd8c328] (1+1/2) Accurately ripped
08 [e401e280|1eeb3d40] (1+1/2) Accurately ripped
09 [05fd3ca7|ccb2df1f] (1+1/2) Accurately ripped
10 [46ac8ddb|8ac5ee5e] (1+1/2) Accurately ripped
11 [4d3ea364|6ce46580] (1+1/2) Accurately ripped
12 [7f1b35ed|678a38ec] (1+1/2) Accurately ripped
13 [1ab8d534|d2babaae] (1+1/2) Accurately ripped

Track Peak [ CRC32 ] [W/O NULL] [ LOG ]
– 98,6 [FFE29E09] [83FABF05] CRC32
01 98,6 [2D2EC03C] [A6FAB258]
02 98,4 [D24D2BF4] [CEA6D0E2]
03 98,6 [0C61BF33] [9EDCC613]
04 98,6 [DC06EADA] [F87294CC]
05 97,7 [B41C953E] [B7D14F56]
06 98,5 [85563EE0] [7F7BCB28]
07 98,6 [9C56BFCE] [7570162E]
08 98,6 [E3ED8F59] [2AB831B4]
09 98,6 [FF659175] [34584C69]
10 98,4 [5316666A] [21EE4255]
11 98,6 [103DAA20] [798AF674]
12 96,7 [FA334623] [64049C82]
13 95,8 [58CB1E5E] [AA6C7948]

Angelo Santo Lombardi - I Giorni Di Eurisko (2004)

Uploadable: FLAC-part 1 | FLAC-part 2 | Scans | mp3