Subcategories

Anna Netrebko, Rolando Villazon, Carlo Rizzi - Giuseppe Verdi: La Traviata (2005)

Posted By: tirexiss
Anna Netrebko, Rolando Villazon, Carlo Rizzi - Giuseppe Verdi: La Traviata (2005)

Anna Netrebko, Rolando Villazon, Carlo Rizzi - Giuseppe Verdi: La Traviata (2005)
EAC | FLAC (tracks+.cue, log) | Covers Included | 02:03:33 | 520 MB
Genre: Classical, Opera | Label: Deutsche Grammophon | Catalog: 0028947759331

This new Traviata belongs near the top of the fine recorded versions of the opera despite a serious vocal problem in the middle. The great news is in the casting of the two lovers: Rolando Villazon's Alfredo is just about perfect. He sings with handsome, shaded tone, great attention to the text–his anger feels as real as his grief and passion–and absolute freedom throughout the range. He partners the stunning Anna Netrebko beautifully in their duets as well. She is breathtaking–delicate, sincere, proud–singing with beautiful tone and intelligent, graceful musicality. They're an unforgettable couple. Baritone Thomas Hampson, on the other hand, despite his usual attention to detail and wise dramatic choices, is in very poor voice and he sounds strained and out of sorts all the time. Carlo Rizzi leads a very energetic performance and the orchestra and chorus, except for a few moments of being out-of-sync with eachother, are splendid. The rest of the cast are fine and the sound from this live recording is excellent. Very highly recommended. – Robert Levine

Anna Netrebko, Rolando Villazon, Carlo Rizzi - Giuseppe Verdi: La Traviata (2005)

Track List:

CD 1:
Act 1
01. Prelude 3:36
02. "Dell'invito trascorsa è già l'ora" 4:41
03. "Libiamo ne'lieti calici" 3:04
04. "Che è ciò?" 2:11
05. "Un dì felice, eterea" 3:33
06. "Ebben? che diavol fate?" 1:12
07. "Si ridesta in ciel l'aurora" 1:27
08. "E strano!" - "Ah, fors'è lui" 4:28
09. "Follie! Delirio vano è questo!" - "Sempre libera" 4:53
Act 2
10. "Lunge da lei" - "De' miei bollenti spiriti" 3:38
11. "Annina, donde vieni?" - "Oh mio rimorso!" 2:21
12. "Alfredo?" "Per Parigi or or partiva" 3:45
13. "Pura siccome un angelo" 1:50
14. "Non sapete quale affetto" 2:13
15. "Un dì, quando le veneri" 2:49
16. "Ah! Dite alla giovine" 4:51
17. "Imponete" "Non amarlo ditegli" 5:03
18. "Dammi tu forza, o cielo!" 1:48
19. "Che fai?" "Nulla" 2:28
20. "Ah, vive sol quel core" 2:24
21. "Di Provenza il mar, il suol" 4:25
22. "Né rispondi d'un padre all'affetto?" - "No, non udrai rimproveri" 3:48

Anna Netrebko, Rolando Villazon, Carlo Rizzi - Giuseppe Verdi: La Traviata (2005)

Exact Audio Copy V1.0 beta 3 from 29. August 2011

EAC extraction logfile from 9. May 2012, 20:44

Anna Netrebko, Rolando Villazon, Thomas Hampson, Carlo Rizzi & Wiener Philharmoniker / La Traviata - Rizzi CD 1

Used drive : Optiarc DVD RW AD-7561S Adapter: 1 ID: 0

Read mode : Secure
Utilize accurate stream : Yes
Defeat audio cache : Yes
Make use of C2 pointers : No

Read offset correction : 6
Overread into Lead-In and Lead-Out : No
Fill up missing offset samples with silence : Yes
Delete leading and trailing silent blocks : No
Null samples used in CRC calculations : Yes
Used interface : Native Win32 interface for Win NT & 2000
Gap handling : Appended to previous track

Used output format : User Defined Encoder
Selected bitrate : 768 kBit/s
Quality : High
Add ID3 tag : No
Command line compressor : C:\Program Files\Exact Audio Copy\FLAC\FLAC.EXE
Additional command line options : -V -8 -T "Genre=%genre%" -T "Artist=%artist%" -T "Title=%title%" -T "Album=%albumtitle%" -T "Date=%year%" -T "Tracknumber=%tracknr%" -T "Comment=%comment%" %source%


TOC of the extracted CD

Track | Start | Length | Start sector | End sector
––––––––––––––––––––––––––––-
1 | 0:00.00 | 3:36.65 | 0 | 16264
2 | 3:36.65 | 4:41.04 | 16265 | 37343
3 | 8:17.69 | 3:04.08 | 37344 | 51151
4 | 11:22.02 | 2:11.53 | 51152 | 61029
5 | 13:33.55 | 3:33.19 | 61030 | 77023
6 | 17:06.74 | 1:12.08 | 77024 | 82431
7 | 18:19.07 | 1:27.59 | 82432 | 89015
8 | 19:46.66 | 4:28.53 | 89016 | 109168
9 | 24:15.44 | 4:53.40 | 109169 | 131183
10 | 29:09.09 | 3:38.73 | 131184 | 147606
11 | 32:48.07 | 2:21.32 | 147607 | 158213
12 | 35:09.39 | 3:45.35 | 158214 | 175123
13 | 38:54.74 | 1:50.72 | 175124 | 183445
14 | 40:45.71 | 2:13.55 | 183446 | 193475
15 | 42:59.51 | 2:49.47 | 193476 | 206197
16 | 45:49.23 | 4:51.20 | 206198 | 228042
17 | 50:40.43 | 5:03.10 | 228043 | 250777
18 | 55:43.53 | 1:48.62 | 250778 | 258939
19 | 57:32.40 | 2:28.45 | 258940 | 270084
20 | 60:01.10 | 2:24.09 | 270085 | 280893
21 | 62:25.19 | 4:25.26 | 280894 | 300794
22 | 66:50.45 | 3:48.30 | 300795 | 317924


Track 1

Filename D:\Temp\Верди - La Traviata - Anna Netrebko, Rolando Villazon, Thomas Hampson - Rizzi 2005\La Traviata - Rizzi CD 1\01. Preludio.wav

Pre-gap length 0:00:02.00

Peak level 16.5 %
Extraction speed 1.2 X
Track quality 100.0 %
Test CRC 05CBC73F
Copy CRC 05CBC73F
Accurately ripped (confidence 7) [C5CF879E] (AR v2)
Copy OK

Track 2

Filename D:\Temp\Верди - La Traviata - Anna Netrebko, Rolando Villazon, Thomas Hampson - Rizzi 2005\La Traviata - Rizzi CD 1\02. Dell'invito trascorsa e gia l'ora.wav

Peak level 99.9 %
Extraction speed 1.4 X
Track quality 100.0 %
Test CRC 760AAAE0
Copy CRC 760AAAE0
Accurately ripped (confidence 7) [6823CD74] (AR v2)
Copy OK

Track 3

Filename D:\Temp\Верди - La Traviata - Anna Netrebko, Rolando Villazon, Thomas Hampson - Rizzi 2005\La Traviata - Rizzi CD 1\03. Libiamo ne'lieti calici.wav

Peak level 99.9 %
Extraction speed 1.4 X
Track quality 100.0 %
Test CRC C7F30410
Copy CRC C7F30410
Accurately ripped (confidence 7) [243161EF] (AR v2)
Copy OK

Track 4

Filename D:\Temp\Верди - La Traviata - Anna Netrebko, Rolando Villazon, Thomas Hampson - Rizzi 2005\La Traviata - Rizzi CD 1\04. Che e cio.wav

Peak level 72.2 %
Extraction speed 1.3 X
Track quality 100.0 %
Test CRC C4E4D98B
Copy CRC C4E4D98B
Accurately ripped (confidence 8) [7E04F971] (AR v2)
Copy OK

Track 5

Filename D:\Temp\Верди - La Traviata - Anna Netrebko, Rolando Villazon, Thomas Hampson - Rizzi 2005\La Traviata - Rizzi CD 1\05. Un di felice, eterea.wav

Peak level 50.1 %
Extraction speed 1.5 X
Track quality 100.0 %
Test CRC B51CCE7F
Copy CRC B51CCE7F
Accurately ripped (confidence 8) [90AE4A6B] (AR v2)
Copy OK

Track 6

Filename D:\Temp\Верди - La Traviata - Anna Netrebko, Rolando Villazon, Thomas Hampson - Rizzi 2005\La Traviata - Rizzi CD 1\06. Ebben che diavol fate.wav

Peak level 42.3 %
Extraction speed 1.2 X
Track quality 100.0 %
Test CRC 86B2280D
Copy CRC 86B2280D
Accurately ripped (confidence 8) [C81B9365] (AR v2)
Copy OK

Track 7

Filename D:\Temp\Верди - La Traviata - Anna Netrebko, Rolando Villazon, Thomas Hampson - Rizzi 2005\La Traviata - Rizzi CD 1\07. Si ridesta in ciel l'aurora.wav

Peak level 91.8 %
Extraction speed 1.3 X
Track quality 100.0 %
Test CRC 933E6A78
Copy CRC 933E6A78
Accurately ripped (confidence 8) [883DEF41] (AR v2)
Copy OK

Track 8

Filename D:\Temp\Верди - La Traviata - Anna Netrebko, Rolando Villazon, Thomas Hampson - Rizzi 2005\La Traviata - Rizzi CD 1\08. E strano! - Ah, fors'e lui.wav

Peak level 55.9 %
Extraction speed 1.7 X
Track quality 100.0 %
Test CRC 1731B3CF
Copy CRC 1731B3CF
Accurately ripped (confidence 8) [0A585117] (AR v2)
Copy OK

Track 9

Filename D:\Temp\Верди - La Traviata - Anna Netrebko, Rolando Villazon, Thomas Hampson - Rizzi 2005\La Traviata - Rizzi CD 1\09. Follie! Follie! Delirio vano e questo! - Sempre libera.wav

Peak level 96.1 %
Extraction speed 1.9 X
Track quality 100.0 %
Test CRC 63745795
Copy CRC 63745795
Accurately ripped (confidence 8) [4FE4D5B9] (AR v2)
Copy OK

Track 10

Filename D:\Temp\Верди - La Traviata - Anna Netrebko, Rolando Villazon, Thomas Hampson - Rizzi 2005\La Traviata - Rizzi CD 1\10. Lunge da lei - De' miei bollenti spiriti.wav

Peak level 31.8 %
Extraction speed 1.9 X
Track quality 100.0 %
Test CRC FCAB2573
Copy CRC FCAB2573
Accurately ripped (confidence 8) [F622A09C] (AR v2)
Copy OK

Track 11

Filename D:\Temp\Верди - La Traviata - Anna Netrebko, Rolando Villazon, Thomas Hampson - Rizzi 2005\La Traviata - Rizzi CD 1\11. Annina, donde vieni - Oh mio rimorso!.wav

Peak level 97.7 %
Extraction speed 1.5 X
Track quality 99.9 %
Test CRC 4D043E08
Copy CRC 4D043E08
Accurately ripped (confidence 8) [F69257D3] (AR v2)
Copy OK

Track 12

Filename D:\Temp\Верди - La Traviata - Anna Netrebko, Rolando Villazon, Thomas Hampson - Rizzi 2005\La Traviata - Rizzi CD 1\12. Alfredo - Per Parigi or or partiva.wav

Peak level 57.9 %
Extraction speed 2.0 X
Track quality 100.0 %
Test CRC BF6B211E
Copy CRC BF6B211E
Accurately ripped (confidence 8) [AF5B0F02] (AR v2)
Copy OK

Track 13

Filename D:\Temp\Верди - La Traviata - Anna Netrebko, Rolando Villazon, Thomas Hampson - Rizzi 2005\La Traviata - Rizzi CD 1\13. Pura siccome un angelo.wav

Peak level 83.7 %
Extraction speed 1.8 X
Track quality 100.0 %
Test CRC F2AB0BE0
Copy CRC F2AB0BE0
Accurately ripped (confidence 8) [ED3D0593] (AR v2)
Copy OK

Track 14

Filename D:\Temp\Верди - La Traviata - Anna Netrebko, Rolando Villazon, Thomas Hampson - Rizzi 2005\La Traviata - Rizzi CD 1\14. Non sapete quale affetto.wav

Peak level 98.9 %
Extraction speed 1.9 X
Track quality 100.0 %
Test CRC 0F11B90D
Copy CRC 0F11B90D
Accurately ripped (confidence 8) [D4E7B4D3] (AR v2)
Copy OK

Track 15

Filename D:\Temp\Верди - La Traviata - Anna Netrebko, Rolando Villazon, Thomas Hampson - Rizzi 2005\La Traviata - Rizzi CD 1\15. Un di quando le veneri.wav

Peak level 53.1 %
Extraction speed 1.7 X
Track quality 99.9 %
Test CRC 6A22A3C8
Copy CRC 6A22A3C8
Accurately ripped (confidence 8) [D00CC878] (AR v2)
Copy OK

Track 16

Filename D:\Temp\Верди - La Traviata - Anna Netrebko, Rolando Villazon, Thomas Hampson - Rizzi 2005\La Traviata - Rizzi CD 1\16. Ah! Dite alla giovine.wav

Peak level 51.7 %
Extraction speed 2.3 X
Track quality 100.0 %
Test CRC 80802A51
Copy CRC 80802A51
Accurately ripped (confidence 8) [7005FAAB] (AR v2)
Copy OK

Track 17

Filename D:\Temp\Верди - La Traviata - Anna Netrebko, Rolando Villazon, Thomas Hampson - Rizzi 2005\La Traviata - Rizzi CD 1\17. Imponete - Non amarlo ditegli.wav

Peak level 82.7 %
Extraction speed 2.1 X
Track quality 99.9 %
Test CRC AD898C1C
Copy CRC AD898C1C
Accurately ripped (confidence 8) [94B525A8] (AR v2)
Copy OK

Track 18

Filename D:\Temp\Верди - La Traviata - Anna Netrebko, Rolando Villazon, Thomas Hampson - Rizzi 2005\La Traviata - Rizzi CD 1\18. Dammi tu forza, o cielo!.wav

Peak level 22.0 %
Extraction speed 2.0 X
Track quality 100.0 %
Test CRC 9767FA11
Copy CRC 9767FA11
Accurately ripped (confidence 8) [E9E836CF] (AR v2)
Copy OK

Track 19

Filename D:\Temp\Верди - La Traviata - Anna Netrebko, Rolando Villazon, Thomas Hampson - Rizzi 2005\La Traviata - Rizzi CD 1\19. Che fai - Nulla.wav

Peak level 97.2 %
Extraction speed 2.2 X
Track quality 100.0 %
Test CRC 7E0D27A0
Copy CRC 7E0D27A0
Accurately ripped (confidence 8) [9693DADF] (AR v2)
Copy OK

Track 20

Filename D:\Temp\Верди - La Traviata - Anna Netrebko, Rolando Villazon, Thomas Hampson - Rizzi 2005\La Traviata - Rizzi CD 1\20. Ah, vive sol quel core.wav

Peak level 91.9 %
Extraction speed 2.2 X
Track quality 100.0 %
Test CRC 07539A34
Copy CRC 07539A34
Accurately ripped (confidence 8) [C64E7FBD] (AR v2)
Copy OK

Track 21

Filename D:\Temp\Верди - La Traviata - Anna Netrebko, Rolando Villazon, Thomas Hampson - Rizzi 2005\La Traviata - Rizzi CD 1\21. Di Provenza il mar, il suol.wav

Peak level 51.3 %
Extraction speed 2.5 X
Track quality 100.0 %
Test CRC E5BF4782
Copy CRC E5BF4782
Accurately ripped (confidence 8) [EECE6D45] (AR v2)
Copy OK

Track 22

Filename D:\Temp\Верди - La Traviata - Anna Netrebko, Rolando Villazon, Thomas Hampson - Rizzi 2005\La Traviata - Rizzi CD 1\22. Ne rispondi d'un padre all'affetto - No, non udrai rimproveri.wav

Peak level 95.7 %
Extraction speed 2.2 X
Track quality 99.9 %
Test CRC 5336650D
Copy CRC 5336650D
Accurately ripped (confidence 8) [9AE59649] (AR v2)
Copy OK


All tracks accurately ripped

No errors occurred

End of status report

==== Log checksum B1C3682889F77C7E9F5D6F4401E01824C59519DF7F5C606ACC36C765769133C3 ====

[CUETools log; Date: 17.04.2017 10:05:27; Version: 2.1.5]
[CTDB TOCID: oHtNMTlD8nN84xjIBiyTnltIFRw-] found.
Track | CTDB Status
1 | (131/133) Accurately ripped
2 | (132/133) Accurately ripped
3 | (132/133) Accurately ripped
4 | (132/133) Accurately ripped
5 | (132/133) Accurately ripped
6 | (132/133) Accurately ripped
7 | (131/133) Accurately ripped
8 | (129/133) Accurately ripped
9 | (130/133) Accurately ripped
10 | (131/133) Accurately ripped
11 | (131/133) Accurately ripped
12 | (130/133) Accurately ripped
13 | (132/133) Accurately ripped
14 | (132/133) Accurately ripped
15 | (131/133) Accurately ripped
16 | (132/133) Accurately ripped
17 | (132/133) Accurately ripped
18 | (132/133) Accurately ripped
19 | (132/133) Accurately ripped
20 | (131/133) Accurately ripped
21 | (129/133) Accurately ripped
22 | (132/133) Accurately ripped
[AccurateRip ID: 0037549d-03721945-27108f16] found.
Track [ CRC | V2 ] Status
01 [3714cd6f|c5cf879e] (058+063/121) Accurately ripped
02 [03ff7247|6823cd74] (059+063/124) Accurately ripped
03 [de4d3e26|243161ef] (059+063/124) Accurately ripped
04 [86378c4c|7e04f971] (059+064/125) Accurately ripped
05 [3f032c41|90ae4a6b] (059+064/125) Accurately ripped
06 [4bf4615d|c81b9365] (059+064/125) Accurately ripped
07 [03451d21|883def41] (059+064/125) Accurately ripped
08 [bf7c7bcf|0a585117] (059+063/124) Accurately ripped
09 [93c3a224|4fe4d5b9] (057+063/122) Accurately ripped
10 [6a34792f|f622a09c] (059+063/124) Accurately ripped
11 [e3bae290|f69257d3] (059+063/124) Accurately ripped
12 [9c60146d|af5b0f02] (059+063/124) Accurately ripped
13 [550affca|ed3d0593] (058+064/124) Accurately ripped
14 [8bfab111|d4e7b4d3] (059+064/125) Accurately ripped
15 [dcd50c30|d00cc878] (059+063/124) Accurately ripped
16 [0aa625f2|7005faab] (059+063/124) Accurately ripped
17 [a7cbd6c9|94b525a8] (056+063/123) Accurately ripped
18 [62949904|e9e836cf] (059+064/125) Accurately ripped
19 [44e78a24|9693dadf] (059+064/125) Accurately ripped
20 [3bb3091f|c64e7fbd] (059+064/125) Accurately ripped
21 [0d4ac238|eece6d45] (058+064/124) Accurately ripped
22 [0797eb38|9ae59649] (059+065/126) Accurately ripped
Offsetted by -756:
01 [76eb37b9] (000/121) No match (V2 was not tested)
02 [8cef47e2] (000/124) No match (V2 was not tested)
03 [61c0297c] (000/124) No match (V2 was not tested)
04 [90a986c5] (000/125) No match (V2 was not tested)
05 [78ef7bdb] (000/125) No match (V2 was not tested)
06 [5cb6b341] (000/125) No match (V2 was not tested)
07 [a9db279f] (000/125) No match (V2 was not tested)
08 [b3c4f802] (000/124) No match (V2 was not tested)
09 [75825304] (000/122) No match (V2 was not tested)
10 [ba533034] (000/124) No match (V2 was not tested)
11 [360d6702] (000/124) No match (V2 was not tested)
12 [6582ed56] (000/124) No match (V2 was not tested)
13 [4ede4bbf] (000/124) No match (V2 was not tested)
14 [e45f4487] (000/125) No match (V2 was not tested)
15 [5886b263] (000/124) No match (V2 was not tested)
16 [66017947] (000/124) No match (V2 was not tested)
17 [d5e35a86] (000/123) No match (V2 was not tested)
18 [0f483c13] (000/125) No match (V2 was not tested)
19 [b4dd8fcc] (000/125) No match (V2 was not tested)
20 [202babbd] (000/125) No match (V2 was not tested)
21 [ccdcbf4c] (000/124) No match (V2 was not tested)
22 [91b9bcfc] (000/126) No match (V2 was not tested)
Offsetted by -18:
01 [5d44eb45] (000/121) No match (V2 was not tested)
02 [8a669c04] (000/124) No match (V2 was not tested)
03 [cc462a1f] (000/124) No match (V2 was not tested)
04 [47fdd26a] (000/125) No match (V2 was not tested)
05 [cc3d0fac] (000/125) No match (V2 was not tested)
06 [ca871d73] (000/125) No match (V2 was not tested)
07 [5f1bbfb7] (000/125) No match (V2 was not tested)
08 [5c28ea09] (000/124) No match (V2 was not tested)
09 [9f89fd05] (000/122) No match (V2 was not tested)
10 [3d428527] (000/124) No match (V2 was not tested)
11 [1683f3af] (000/124) No match (V2 was not tested)
12 [c6dd9119] (000/124) No match (V2 was not tested)
13 [10be6a6e] (000/124) No match (V2 was not tested)
14 [5385b579] (000/125) No match (V2 was not tested)
15 [26a49048] (000/124) No match (V2 was not tested)
16 [35470c09] (000/124) No match (V2 was not tested)
17 [04bbe06c] (000/123) No match (V2 was not tested)
18 [0a4a1028] (000/125) No match (V2 was not tested)
19 [85fd91e8] (000/125) No match (V2 was not tested)
20 [5562740f] (000/125) No match (V2 was not tested)
21 [66aefcc4] (000/124) No match (V2 was not tested)
22 [ce150f8b] (000/126) No match (V2 was not tested)

Track Peak [ CRC32 ] [W/O NULL] [ LOG ]
– 99,9 [A4A78D71] [EF04B6B9]
01 16,5 [05CBC73F] [96076CC6] CRC32
02 99,9 [760AAAE0] [9176E3CF] CRC32
03 99,9 [C7F30410] [8C7C11B8] CRC32
04 72,2 [C4E4D98B] [5055D19C] CRC32
05 50,1 [B51CCE7F] [A5532391] CRC32
06 42,3 [86B2280D] [305E0FFF] CRC32
07 91,8 [933E6A78] [8E8EE7D0] CRC32
08 55,9 [1731B3CF] [4526EF09] CRC32
09 96,1 [63745795] [D172F632] CRC32
10 31,8 [FCAB2573] [98FF6B73] CRC32
11 97,7 [4D043E08] [C0CA01B7] CRC32
12 57,9 [BF6B211E] [83F2195E] CRC32
13 83,7 [F2AB0BE0] [F0E01457] CRC32
14 98,9 [0F11B90D] [6DF3492C] CRC32
15 53,1 [6A22A3C8] [86F89666] CRC32
16 51,7 [80802A51] [17C54E0C] CRC32
17 82,7 [AD898C1C] [621C9798] CRC32
18 22,0 [9767FA11] [14F9EBD4] CRC32
19 97,2 [7E0D27A0] [B1F51B5E] CRC32
20 91,9 [07539A34] [54F90B24] CRC32
21 51,3 [E5BF4782] [66A5B217] CRC32
22 95,7 [5336650D] [3DA1AA7D] CRC32

CD 2:
01. "Avrem lieta di maschere la notte" 0:56
02. "Noi siamo zingarelle" 2:50
03. "Di Madride noi siam mattadori" 2:23
04. "Alfredo! Voi!" 3:44
05. "Invitato a qui seguirmi" 2:24
06. "Ogni suo aver tal femmina" 1:31
07. "Di sprezzo degno se stesso rende" 1:56
08. "Alfredo, Alfredo, di questo core" 4:42
Act 3
09. Prelude 3:38
10. "Annina?" "Comandate?" 4:59
11. Teneste la promessa…Addio del passato 7:27
12. "Largo a quadrupede" 0:53
13. Signora…Che t'accadde…Parigi, o cara 6:02
14. "Ah, non più!" - "Ah! Gran Dio! Morir sì giovine" 3:43
15. "Ah, Violetta!" "Voi? Signor?" 1:43
16. "Prendi, quest'è l'immagine" 4:35

Anna Netrebko, Rolando Villazon, Carlo Rizzi - Giuseppe Verdi: La Traviata (2005)

Exact Audio Copy V1.0 beta 3 from 29. August 2011

EAC extraction logfile from 9. May 2012, 22:10

Anna Netrebko, Rolando Villazon, Thomas Hampson, Carlo Rizzi & Wiener Philharmoniker / La Traviata - Rizzi CD 2

Used drive : Optiarc DVD RW AD-7561S Adapter: 1 ID: 0

Read mode : Secure
Utilize accurate stream : Yes
Defeat audio cache : Yes
Make use of C2 pointers : No

Read offset correction : 6
Overread into Lead-In and Lead-Out : No
Fill up missing offset samples with silence : Yes
Delete leading and trailing silent blocks : No
Null samples used in CRC calculations : Yes
Used interface : Native Win32 interface for Win NT & 2000
Gap handling : Appended to previous track

Used output format : User Defined Encoder
Selected bitrate : 768 kBit/s
Quality : High
Add ID3 tag : No
Command line compressor : C:\Program Files\Exact Audio Copy\FLAC\FLAC.EXE
Additional command line options : -V -8 -T "Genre=%genre%" -T "Artist=%artist%" -T "Title=%title%" -T "Album=%albumtitle%" -T "Date=%year%" -T "Tracknumber=%tracknr%" -T "Comment=%comment%" %source%


TOC of the extracted CD

Track | Start | Length | Start sector | End sector
––––––––––––––––––––––––––––-
1 | 0:00.00 | 0:56.22 | 0 | 4221
2 | 0:56.22 | 2:50.14 | 4222 | 16985
3 | 3:46.36 | 2:23.31 | 16986 | 27741
4 | 6:09.67 | 3:44.06 | 27742 | 44547
5 | 9:53.73 | 2:24.71 | 44548 | 55418
6 | 12:18.69 | 1:31.59 | 55419 | 62302
7 | 13:50.53 | 1:56.30 | 62303 | 71032
8 | 15:47.08 | 4:42.74 | 71033 | 92256
9 | 20:30.07 | 3:38.18 | 92257 | 108624
10 | 24:08.25 | 4:59.22 | 108625 | 131071
11 | 29:07.47 | 7:27.28 | 131072 | 164624
12 | 36:35.00 | 0:53.57 | 164625 | 168656
13 | 37:28.57 | 6:02.00 | 168657 | 195806
14 | 43:30.57 | 3:43.46 | 195807 | 212577
15 | 47:14.28 | 1:43.62 | 212578 | 220364
16 | 48:58.15 | 4:35.50 | 220365 | 241039


Track 1

Filename D:\Temp\Верди - La Traviata - Anna Netrebko, Rolando Villazon, Thomas Hampson - Rizzi 2005\La Traviata - Rizzi CD 2\01. Avrem lieta di maschere la notte.wav

Pre-gap length 0:00:02.00

Peak level 70.9 %
Extraction speed 0.7 X
Track quality 100.0 %
Test CRC 6268D5CF
Copy CRC 6268D5CF
Accurately ripped (confidence 7) [4EE6F89F] (AR v2)
Copy OK

Track 2

Filename D:\Temp\Верди - La Traviata - Anna Netrebko, Rolando Villazon, Thomas Hampson - Rizzi 2005\La Traviata - Rizzi CD 2\02. Noi siamo zingarelle.wav

Peak level 66.0 %
Extraction speed 1.0 X
Track quality 100.0 %
Test CRC 5F822711
Copy CRC 5F822711
Accurately ripped (confidence 7) [11B6A1BA] (AR v2)
Copy OK

Track 3

Filename D:\Temp\Верди - La Traviata - Anna Netrebko, Rolando Villazon, Thomas Hampson - Rizzi 2005\La Traviata - Rizzi CD 2\03. Di Madride noi siam mattadori.wav

Peak level 90.9 %
Extraction speed 0.9 X
Track quality 99.9 %
Test CRC 7B8934A9
Copy CRC 7B8934A9
Accurately ripped (confidence 7) [EB8015B3] (AR v2)
Copy OK

Track 4

Filename D:\Temp\Верди - La Traviata - Anna Netrebko, Rolando Villazon, Thomas Hampson - Rizzi 2005\La Traviata - Rizzi CD 2\04. Alfredo! Voi!.wav

Peak level 64.3 %
Extraction speed 1.1 X
Track quality 99.9 %
Test CRC 40625CAF
Copy CRC 40625CAF
Accurately ripped (confidence 7) [61AC507C] (AR v2)
Copy OK

Track 5

Filename D:\Temp\Верди - La Traviata - Anna Netrebko, Rolando Villazon, Thomas Hampson - Rizzi 2005\La Traviata - Rizzi CD 2\05. Invitato a qui seguirmi.wav

Peak level 98.4 %
Extraction speed 1.2 X
Track quality 100.0 %
Test CRC 36D78626
Copy CRC 36D78626
Accurately ripped (confidence 7) [58473200] (AR v2)
Copy OK

Track 6

Filename D:\Temp\Верди - La Traviata - Anna Netrebko, Rolando Villazon, Thomas Hampson - Rizzi 2005\La Traviata - Rizzi CD 2\06. Ogni suo aver tal femmina.wav

Peak level 99.9 %
Extraction speed 1.1 X
Track quality 100.0 %
Test CRC 7ED210AD
Copy CRC 7ED210AD
Accurately ripped (confidence 7) [136619EF] (AR v2)
Copy OK

Track 7

Filename D:\Temp\Верди - La Traviata - Anna Netrebko, Rolando Villazon, Thomas Hampson - Rizzi 2005\La Traviata - Rizzi CD 2\07. Di sprezzo degno se stesso rende.wav

Peak level 66.2 %
Extraction speed 1.2 X
Track quality 100.0 %
Test CRC 05C0AEEC
Copy CRC 05C0AEEC
Accurately ripped (confidence 7) [4406307B] (AR v2)
Copy OK

Track 8

Filename D:\Temp\Верди - La Traviata - Anna Netrebko, Rolando Villazon, Thomas Hampson - Rizzi 2005\La Traviata - Rizzi CD 2\08. Alfredo, Alfredo, di questo core.wav

Peak level 98.6 %
Extraction speed 1.6 X
Track quality 100.0 %
Test CRC 12AB3A80
Copy CRC 12AB3A80
Accurately ripped (confidence 7) [CE9BBC33] (AR v2)
Copy OK

Track 9

Filename D:\Temp\Верди - La Traviata - Anna Netrebko, Rolando Villazon, Thomas Hampson - Rizzi 2005\La Traviata - Rizzi CD 2\09. Preludio.wav

Peak level 24.5 %
Extraction speed 1.6 X
Track quality 100.0 %
Test CRC C5781996
Copy CRC C5781996
Accurately ripped (confidence 7) [EAD24589] (AR v2)
Copy OK

Track 10

Filename D:\Temp\Верди - La Traviata - Anna Netrebko, Rolando Villazon, Thomas Hampson - Rizzi 2005\La Traviata - Rizzi CD 2\10. Annina - Comandate.wav

Peak level 25.1 %
Extraction speed 1.8 X
Track quality 100.0 %
Test CRC 1B741B17
Copy CRC 1B741B17
Accurately ripped (confidence 7) [BDDE204E] (AR v2)
Copy OK

Track 11

Filename D:\Temp\Верди - La Traviata - Anna Netrebko, Rolando Villazon, Thomas Hampson - Rizzi 2005\La Traviata - Rizzi CD 2\11. Teneste la promessa…Addio del passato.wav

Peak level 50.5 %
Extraction speed 2.0 X
Track quality 100.0 %
Test CRC 571580BC
Copy CRC 571580BC
Accurately ripped (confidence 7) [921129C3] (AR v2)
Copy OK

Track 12

Filename D:\Temp\Верди - La Traviata - Anna Netrebko, Rolando Villazon, Thomas Hampson - Rizzi 2005\La Traviata - Rizzi CD 2\12. Largo a quadrupede.wav

Peak level 13.2 %
Extraction speed 0.9 X
Track quality 99.8 %
Test CRC 7620E5E5
Copy CRC 7620E5E5
Accurately ripped (confidence 7) [58B205ED] (AR v2)
Copy OK

Track 13

Filename D:\Temp\Верди - La Traviata - Anna Netrebko, Rolando Villazon, Thomas Hampson - Rizzi 2005\La Traviata - Rizzi CD 2\13. Signora…Che t'accadde…Parigi, o cara.wav

Peak level 95.6 %
Extraction speed 2.1 X
Track quality 100.0 %
Test CRC 3B852F44
Copy CRC 3B852F44
Accurately ripped (confidence 7) [4B5F82D7] (AR v2)
Copy OK

Track 14

Filename D:\Temp\Верди - La Traviata - Anna Netrebko, Rolando Villazon, Thomas Hampson - Rizzi 2005\La Traviata - Rizzi CD 2\14. Ah, non piu - Ah! Gran Dio! Morir si giovine.wav

Peak level 98.2 %
Extraction speed 2.0 X
Track quality 100.0 %
Test CRC C72444DB
Copy CRC C72444DB
Accurately ripped (confidence 7) [1FF5F12B] (AR v2)
Copy OK

Track 15

Filename D:\Temp\Верди - La Traviata - Anna Netrebko, Rolando Villazon, Thomas Hampson - Rizzi 2005\La Traviata - Rizzi CD 2\15. Ah, Violetta! - Voi, Signor.wav

Peak level 54.9 %
Extraction speed 1.8 X
Track quality 100.0 %
Test CRC 9FF29064
Copy CRC 9FF29064
Accurately ripped (confidence 7) [4D05ECF4] (AR v2)
Copy OK

Track 16

Filename D:\Temp\Верди - La Traviata - Anna Netrebko, Rolando Villazon, Thomas Hampson - Rizzi 2005\La Traviata - Rizzi CD 2\16. Prendi, quest'e l'immagine.wav

Peak level 99.2 %
Extraction speed 2.2 X
Track quality 100.0 %
Test CRC 11C4837F
Copy CRC 11C4837F
Accurately ripped (confidence 7) [DA86C944] (AR v2)
Copy OK


All tracks accurately ripped

No errors occurred

End of status report

==== Log checksum 1FA64365A242B3288B55776473BDA2767E7A7006C5CAD89D33ECC833FC9D7FB7 ====

[CUETools log; Date: 17.04.2017 10:05:54; Version: 2.1.5]
[CTDB TOCID: 0VXWH76hvjrMHN1lvLRM_JMcvi8-] found.
Track | CTDB Status
1 | (126/127) Accurately ripped
2 | (127/127) Accurately ripped
3 | (127/127) Accurately ripped
4 | (127/127) Accurately ripped
5 | (126/127) Accurately ripped
6 | (127/127) Accurately ripped
7 | (127/127) Accurately ripped
8 | (127/127) Accurately ripped
9 | (127/127) Accurately ripped
10 | (126/127) Accurately ripped
11 | (125/127) Accurately ripped
12 | (127/127) Accurately ripped
13 | (127/127) Accurately ripped
14 | (127/127) Accurately ripped
15 | (127/127) Accurately ripped
16 | (126/127) Accurately ripped
[AccurateRip ID: 001bbabf-015c0d26-d70c8d10] found.
Track [ CRC | V2 ] Status
01 [6672e919|4ee6f89f] (059+063/122) Accurately ripped
02 [e6a275eb|11b6a1ba] (059+063/124) Accurately ripped
03 [0ed31c17|eb8015b3] (056+063/123) Accurately ripped
04 [8287895b|61ac507c] (059+063/124) Accurately ripped
05 [067f7c2d|58473200] (059+063/124) Accurately ripped
06 [9ccff917|136619ef] (059+063/124) Accurately ripped
07 [1cfc34bb|4406307b] (059+063/124) Accurately ripped
08 [da2ca62c|ce9bbc33] (059+063/124) Accurately ripped
09 [2e554045|ead24589] (059+063/124) Accurately ripped
10 [1ee848f7|bdde204e] (059+062/123) Accurately ripped
11 [2105985a|921129c3] (059+062/123) Accurately ripped
12 [087c7e33|58b205ed] (056+063/123) Accurately ripped
13 [7aa4921f|4b5f82d7] (059+061/122) Accurately ripped
14 [3d41c7d2|1ff5f12b] (059+064/123) Accurately ripped
15 [8e439057|4d05ecf4] (059+063/124) Accurately ripped
16 [eeda0455|da86c944] (059+064/125) Accurately ripped
Offsetted by -756:
01 [af31f070] (000/122) No match (V2 was not tested)
02 [4e1d56b8] (000/124) No match (V2 was not tested)
03 [f7908819] (000/123) No match (V2 was not tested)
04 [3e76b697] (000/124) No match (V2 was not tested)
05 [bb92621a] (000/124) No match (V2 was not tested)
06 [66820b4f] (000/124) No match (V2 was not tested)
07 [50dcfce9] (000/124) No match (V2 was not tested)
08 [fb32ba63] (000/124) No match (V2 was not tested)
09 [796b4ab6] (000/124) No match (V2 was not tested)
10 [cd2a15d0] (000/123) No match (V2 was not tested)
11 [ae1d7361] (000/123) No match (V2 was not tested)
12 [1df23e61] (000/123) No match (V2 was not tested)
13 [7275fd2c] (000/122) No match (V2 was not tested)
14 [36d7c176] (000/123) No match (V2 was not tested)
15 [d058b371] (000/124) No match (V2 was not tested)
16 [0d991117] (000/125) No match (V2 was not tested)
Offsetted by -18:
01 [17e05f02] (000/122) No match (V2 was not tested)
02 [8c6825d5] (000/124) No match (V2 was not tested)
03 [609b744c] (000/123) No match (V2 was not tested)
04 [a9ac046d] (000/124) No match (V2 was not tested)
05 [c017a832] (000/124) No match (V2 was not tested)
06 [ee2e5302] (000/124) No match (V2 was not tested)
07 [bce1f9a6] (000/124) No match (V2 was not tested)
08 [6be11e96] (000/124) No match (V2 was not tested)
09 [ac2af4f1] (000/124) No match (V2 was not tested)
10 [f629f86d] (000/123) No match (V2 was not tested)
11 [f1bec8a6] (000/123) No match (V2 was not tested)
12 [b145a0e3] (000/123) No match (V2 was not tested)
13 [b5e59ad5] (000/122) No match (V2 was not tested)
14 [85859bb7] (000/123) No match (V2 was not tested)
15 [d3a251f5] (000/124) No match (V2 was not tested)
16 [81657c41] (000/125) No match (V2 was not tested)

Track Peak [ CRC32 ] [W/O NULL] [ LOG ]
– 99,9 [87D8772C] [6029BA4F]
01 70,9 [6268D5CF] [4176D9F2] CRC32
02 66,0 [5F822711] [D4F443EB] CRC32
03 90,9 [7B8934A9] [8DC9CF48] CRC32
04 64,3 [40625CAF] [82F85B33] CRC32
05 98,4 [36D78626] [15CD32A5] CRC32
06 99,9 [7ED210AD] [E1F9ADE0] CRC32
07 66,2 [05C0AEEC] [9E40E113] CRC32
08 98,6 [12AB3A80] [6CDB29A2] CRC32
09 24,5 [C5781996] [3F9D3BBD] CRC32
10 25,1 [1B741B17] [C0448871] CRC32
11 50,5 [571580BC] [ACD72BA1] CRC32
12 13,2 [7620E5E5] [3F8AB5A5] CRC32
13 95,6 [3B852F44] [5876F56B] CRC32
14 98,2 [C72444DB] [5D0E233C] CRC32
15 54,9 [9FF29064] [95923456] CRC32
16 99,2 [11C4837F] [7321337C] CRC32

Performers:
Anna Netrebko (Violetta)
Rolando Villazón (Alfredo)
Thomas Hampson (Germont Pere)
Helene Schneiderman (Flora)
Diane Pilcher (Annina)
Salvatore Cordella (Gastone)
Luigi Roni (Dottore Grenvil)
Paul Gay (Barone Douphol)
Herman Wallen (Marchese d'Obigny)

Wiener Philharmoniker
Carlo Rizzi, conductor

Thanks to the Original ripper этиламин!

Download: