Anna Moffo - Canteloube: Songs of the Auvergne - Villa-Lobos: Bachianas No.5 - Rachmaninov: Vocalise [2003]

Posted By: Aregak
Anna Moffo - Canteloube: Songs of the Auvergne - Villa-Lobos: Bachianas No.5 - Rachmaninov: Vocalise [2003]

Anna Moffo - Canteloube: Songs of the Auvergne - Villa-Lobos: Bachianas No.5 - Rachmaninov: Vocalise
(American Symphony Orchestra, Leopold Stokowski) [2003]

EAC Rip | FLAC, TRACKS+CUE, LOG | Covers | 1cd, 173 MB
Classical | Label: AQUARIUS | Catalog Number: AQVR 169-2 | TT: 41:22

A lot has been said about Anna Moffo's early vocal decline and mismanaged carreer but let's not forget what a lovely singer she was in her prime. This recital from the early 1970's let us hear "late Moffo" though she was not yet 40. There is a slight hoarseness and unsteadiness in the voice that was not present in earlier recordings but it is still by any means a beautiful instrument used with skill. This recital also reminds us what a verstatile artist she was - she sings arias from the italian bel canto and verismo repertoire, french lyric and also german operettas and she passes from one to the other with considerable naturalness, ease and charm..
Performer:
Anna Moffo soprano
American Symphony Orchestra
Leopold Stokowski

Tracklisting:
Joseph Canteloube
Chants d'Auvergne
01. L'Antoueno (Vol.2 №.5) (3:14)
02. Pastourelle (Vol.2 №.1) (4:32)
03. L'aio de rotso (Vol.I №.3а) (1:10)
04. Bailero (Chant de bergers de Haute-Auvergne) (Vol.I №.2) (5:19)
05. Passo pel prat (Vol.3 №.2) (3:2S)
06. Malurous qu'o uno fenno (Vol.3 №.5) (1:26)
07. Brezairola (Vol.3 №.3) (3:34)

Heitor Villa-Lobos
Bachianas Brasileiras №5
08. Aria: Cantilena (7:03)
09. Danza: Martelo (4:33)

Sergei Rachmaninov
10. Vocalise Op.34 (7:06)

Exact Audio Copy V1.0 beta 3 from 29. August 2011

EAC extraction logfile from 8. March 2014, 14:48

Anna Moffo / Canteloube - Villa Lobos - Rachmaninoff

Used drive : ATAPI iHAS122 C Adapter: 0 ID: 0

Read mode : Secure
Utilize accurate stream : Yes
Defeat audio cache : Yes
Make use of C2 pointers : No

Read offset correction : 6
Overread into Lead-In and Lead-Out : No
Fill up missing offset samples with silence : Yes
Delete leading and trailing silent blocks : No
Null samples used in CRC calculations : Yes
Used interface : Native Win32 interface for Win NT & 2000
Gap handling : Appended to previous track

Used output format : User Defined Encoder
Selected bitrate : 192 kBit/s
Quality : High
Add ID3 tag : No
Command line compressor : C:\Program Files\Exact Audio Copy\Flac\flac.exe
Additional command line options : -V -8 -T "Date=%year%" -T "Genre=%genre%" %source%


TOC of the extracted CD

Track | Start | Length | Start sector | End sector
––––––––––––––––––––––––––––-
1 | 0:00.00 | 3:17.13 | 0 | 14787
2 | 3:17.13 | 4:35.02 | 14788 | 35414
3 | 7:52.15 | 1:12.25 | 35415 | 40839
4 | 9:04.40 | 5:21.08 | 40840 | 64922
5 | 14:25.48 | 3:28.37 | 64923 | 80559
6 | 17:54.10 | 1:27.10 | 80560 | 87094
7 | 19:21.20 | 3:39.13 | 87095 | 103532
8 | 23:00.33 | 7:05.72 | 103533 | 135479
9 | 30:06.30 | 4:36.18 | 135480 | 156197
10 | 34:42.48 | 7:07.25 | 156198 | 188247


Track 1

Filename C:\Program Files\Exact Audio Copy\Flac\01 L'antoueno (Songs Of The Auvergne-Canteloube).wav

Pre-gap length 0:00:02.00

Peak level 55.9 %
Extraction speed 4.5 X
Track quality 99.9 %
Test CRC 67084AF6
Copy CRC 67084AF6
Track not present in AccurateRip database
Copy OK

Track 2

Filename C:\Program Files\Exact Audio Copy\Flac\02 Pastourelle (Songs Of The Auvergne-Canteloube).wav

Peak level 36.9 %
Extraction speed 1.1 X
Track quality 100.0 %
Test CRC 6DDC2222
Copy CRC 6DDC2222
Track not present in AccurateRip database
Copy OK

Track 3

Filename C:\Program Files\Exact Audio Copy\Flac\03 L'aio de rotso (Songs Of The Auvergne-Canteloube).wav

Peak level 84.3 %
Extraction speed 5.0 X
Track quality 100.0 %
Test CRC 829932DE
Copy CRC 829932DE
Track not present in AccurateRip database
Copy OK

Track 4

Filename C:\Program Files\Exact Audio Copy\Flac\04 Bailero (Songs Of The Auvergne-Canteloube).wav

Peak level 26.9 %
Extraction speed 7.2 X
Track quality 100.0 %
Test CRC DE75DD51
Copy CRC DE75DD51
Track not present in AccurateRip database
Copy OK

Track 5

Filename C:\Program Files\Exact Audio Copy\Flac\05 Passo pel prat (Songs Of The Auvergne-Canteloube).wav

Peak level 58.9 %
Extraction speed 6.0 X
Track quality 99.9 %
Test CRC 41E8112B
Copy CRC 41E8112B
Track not present in AccurateRip database
Copy OK

Track 6

Filename C:\Program Files\Exact Audio Copy\Flac\06 Malurous qu'o uno fenno (Songs Of The Auvergne-Canteloube).wav

Peak level 74.3 %
Extraction speed 6.2 X
Track quality 100.0 %
Test CRC 8F7B1206
Copy CRC 8F7B1206
Track not present in AccurateRip database
Copy OK

Track 7

Filename C:\Program Files\Exact Audio Copy\Flac\07 Brezairola (Songs Of The Auvergne-Canteloube).wav

Peak level 22.6 %
Extraction speed 8.0 X
Track quality 100.0 %
Test CRC 10D9B7B7
Copy CRC 10D9B7B7
Track not present in AccurateRip database
Copy OK

Track 8

Filename C:\Program Files\Exact Audio Copy\Flac\08 Aria (Cantilena) (Bachianas Brasileiras No.5-Villa-Lobos).wav

Peak level 49.6 %
Extraction speed 1.7 X
Track quality 99.9 %
Test CRC 0BBC90CB
Copy CRC 0BBC90CB
Track not present in AccurateRip database
Copy OK

Track 9

Filename C:\Program Files\Exact Audio Copy\Flac\09 Danza (Martelo) (Bachianas Brasileiras No.5-Villa-Lobos).wav

Peak level 60.7 %
Extraction speed 7.9 X
Track quality 99.9 %
Test CRC 2F324FCE
Copy CRC 2F324FCE
Track not present in AccurateRip database
Copy OK

Track 10

Filename C:\Program Files\Exact Audio Copy\Flac\10 Vocalise, Op.34, No.14 (Rachmaninoff).wav

Peak level 46.1 %
Extraction speed 10.2 X
Track quality 100.0 %
Test CRC 951181C7
Copy CRC 951181C7
Track not present in AccurateRip database
Copy OK


None of the tracks are present in the AccurateRip database

No errors occurred

End of status report

==== Log checksum 82CF0648D2687A8FD4EEFD2E4D8D7D644755B131396B71123FAFF49F35381968 ====