Anouar Brahem - Astrakan Cafe (2000) {ECM 1718}

Posted By: tiburon
Anouar Brahem - Astrakan Cafe (2000) {ECM 1718}

Anouar Brahem - Astrakan Cafe (2000) {ECM 1718}
EAC 1.3 | FLAC tracks level 8 | Cue+Log+M3U | Full Scans 300dpi | 345MB + 5% Recovery
MP3 CBR 320 Kbps | 238MB + 5% Recovery
Genre: Ethnic Fusion
Anouar Brahem - Astrakan Cafe (2000) {ECM 1718}

Innovative Tunisian oud virtuoso Anouar Brahem presents this highly-acclaimed album of typically Middle Eastern music, recorded in 1999 with a trio that had been his first priority for several years. The improvisational exchanges between Brahem, clarinettist Barbaros Erköse and percussionist Lassad Hosni are exceptionally fluid and the atmospheres they create here are by turns mysterious, hypnotic and dramatic.
Track List
01 - Aube rouge a Grozny
02 - Astrakan cafe (1)
03 - The Mozdok's Train
04 - Blue Jewels
05 - Nihawend Lunga
06 - Ashkabad
07 - Halfaouine
08 - Parfum de gitane
09 - Khotan
10 - Karakoum
11 - Astara
12 - Dar es Salaam
13 - Hijaz pechref
14 - Astrakan cafe (2)

musicians
Anouar Brahem - oud
Barbaros Erkose - clarinet
Lassad Hosni - bendir darbouka

Produced by Manfred Eicher


Exact Audio Copy V1.3 from 2. September 2016

EAC extraction logfile from 6. June 2017, 22:35

Anouar Brahem Trio / Astrakan Cafe

Used drive : hp CDDVDW SN-208BB Adapter: 1 ID: 0

Read mode : Secure
Utilize accurate stream : Yes
Defeat audio cache : Yes
Make use of C2 pointers : No

Read offset correction : 6
Overread into Lead-In and Lead-Out : No
Fill up missing offset samples with silence : Yes
Delete leading and trailing silent blocks : No
Null samples used in CRC calculations : Yes
Used interface : Native Win32 interface for Win NT & 2000
Gap handling : Appended to previous track

Used output format : User Defined Encoder
Selected bitrate : 768 kBit/s
Quality : High
Add ID3 tag : No
Command line compressor : C:\Program Files (x86)\Exact Audio Copy\Flac\flac.exe
Additional command line options : -V -8 -T "Genre=%genre%" -T "Artist=%artist%" -T "Title=%title%" -T "Album=%albumtitle%" -T "Date=%year%" -T "Tracknumber=%tracknr%" -T "Comment=%comment%" %source%


TOC of the extracted CD

Track | Start | Length | Start sector | End sector
––––––––––––––––––––––––––––-
1 | 0:00.00 | 4:22.72 | 0 | 19721
2 | 4:22.72 | 3:18.48 | 19722 | 34619
3 | 7:41.45 | 4:46.30 | 34620 | 56099
4 | 12:28.00 | 8:31.25 | 56100 | 94449
5 | 20:59.25 | 3:32.32 | 94450 | 110381
6 | 24:31.57 | 5:38.43 | 110382 | 135774
7 | 30:10.25 | 5:57.52 | 135775 | 162601
8 | 36:08.02 | 7:03.68 | 162602 | 194394
9 | 43:11.70 | 3:31.50 | 194395 | 210269
10 | 46:43.45 | 5:08.00 | 210270 | 233369
11 | 51:51.45 | 10:46.60 | 233370 | 281879
12 | 62:38.30 | 3:47.45 | 281880 | 298949
13 | 66:26.00 | 6:24.45 | 298950 | 327794
14 | 72:50.45 | 4:49.32 | 327795 | 349501


Track 1

Filename E:\Music\CDRip\Anouar Brahem Trio - Astrakan Cafe (2000) {FLAC] {ECM 1718 159 494-2}\01 - Aube rouge a Grozny.wav

Pre-gap length 0:00:02.00

Peak level 93.3 %
Extraction speed 2.1 X
Track quality 99.9 %
Test CRC 4B583AFC
Copy CRC 4B583AFC
Accurately ripped (confidence 79) [E21466F1] (AR v2)
Copy OK

Track 2

Filename E:\Music\CDRip\Anouar Brahem Trio - Astrakan Cafe (2000) {FLAC] {ECM 1718 159 494-2}\02 - Astrakan cafe (1).wav

Pre-gap length 0:00:03.67

Peak level 50.7 %
Extraction speed 2.7 X
Track quality 100.0 %
Test CRC ADBF2A77
Copy CRC ADBF2A77
Accurately ripped (confidence 80) [3550EB6E] (AR v2)
Copy OK

Track 3

Filename E:\Music\CDRip\Anouar Brahem Trio - Astrakan Cafe (2000) {FLAC] {ECM 1718 159 494-2}\03 - The Mozdok's train.wav

Pre-gap length 0:00:03.00

Peak level 99.8 %
Extraction speed 3.0 X
Track quality 100.0 %
Test CRC 53CE724C
Copy CRC 53CE724C
Accurately ripped (confidence 81) [AE71355C] (AR v2)
Copy OK

Track 4

Filename E:\Music\CDRip\Anouar Brahem Trio - Astrakan Cafe (2000) {FLAC] {ECM 1718 159 494-2}\04 - Blue jewels.wav

Pre-gap length 0:00:02.33

Peak level 66.8 %
Extraction speed 3.5 X
Track quality 100.0 %
Test CRC C50E95E4
Copy CRC C50E95E4
Accurately ripped (confidence 81) [F8B9EA50] (AR v2)
Copy OK

Track 5

Filename E:\Music\CDRip\Anouar Brahem Trio - Astrakan Cafe (2000) {FLAC] {ECM 1718 159 494-2}\05 - Nihawend Lunga.wav

Pre-gap length 0:00:03.15

Peak level 87.6 %
Extraction speed 3.4 X
Track quality 100.0 %
Test CRC A5DCCF05
Copy CRC A5DCCF05
Accurately ripped (confidence 81) [A139E5EF] (AR v2)
Copy OK

Track 6

Filename E:\Music\CDRip\Anouar Brahem Trio - Astrakan Cafe (2000) {FLAC] {ECM 1718 159 494-2}\06 - Ashkabad.wav

Pre-gap length 0:00:02.55

Peak level 94.4 %
Extraction speed 3.8 X
Track quality 100.0 %
Test CRC D8391B4F
Copy CRC D8391B4F
Accurately ripped (confidence 81) [C23199C1] (AR v2)
Copy OK

Track 7

Filename E:\Music\CDRip\Anouar Brahem Trio - Astrakan Cafe (2000) {FLAC] {ECM 1718 159 494-2}\07 - Halfaouine.wav

Pre-gap length 0:00:03.63

Peak level 95.0 %
Extraction speed 4.1 X
Track quality 100.0 %
Test CRC 92FC52FA
Copy CRC 92FC52FA
Accurately ripped (confidence 81) [2913FF9A] (AR v2)
Copy OK

Track 8

Filename E:\Music\CDRip\Anouar Brahem Trio - Astrakan Cafe (2000) {FLAC] {ECM 1718 159 494-2}\08 - Parfum de gitane.wav

Pre-gap length 0:00:03.37

Peak level 86.7 %
Extraction speed 4.4 X
Track quality 100.0 %
Test CRC 9F92A51C
Copy CRC 9F92A51C
Accurately ripped (confidence 81) [CEB37019] (AR v2)
Copy OK

Track 9

Filename E:\Music\CDRip\Anouar Brahem Trio - Astrakan Cafe (2000) {FLAC] {ECM 1718 159 494-2}\09 - Khotan.wav

Pre-gap length 0:00:01.58

Peak level 56.4 %
Extraction speed 4.2 X
Track quality 100.0 %
Test CRC 9828CF23
Copy CRC 9828CF23
Accurately ripped (confidence 81) [26670BE8] (AR v2)
Copy OK

Track 10

Filename E:\Music\CDRip\Anouar Brahem Trio - Astrakan Cafe (2000) {FLAC] {ECM 1718 159 494-2}\10 - Karakoum.wav

Pre-gap length 0:00:01.58

Peak level 63.4 %
Extraction speed 4.6 X
Track quality 100.0 %
Test CRC FBF509C3
Copy CRC FBF509C3
Accurately ripped (confidence 81) [C210F028] (AR v2)
Copy OK

Track 11

Filename E:\Music\CDRip\Anouar Brahem Trio - Astrakan Cafe (2000) {FLAC] {ECM 1718 159 494-2}\11 - Astara.wav

Pre-gap length 0:00:03.65

Peak level 78.1 %
Extraction speed 5.1 X
Track quality 100.0 %
Test CRC 947A945F
Copy CRC 947A945F
Accurately ripped (confidence 79) [9F863AEA] (AR v2)
Copy OK

Track 12

Filename E:\Music\CDRip\Anouar Brahem Trio - Astrakan Cafe (2000) {FLAC] {ECM 1718 159 494-2}\12 - Dar es Salam.wav

Pre-gap length 0:00:04.23

Peak level 43.3 %
Extraction speed 4.8 X
Track quality 100.0 %
Test CRC AC06A567
Copy CRC AC06A567
Accurately ripped (confidence 80) [3186F4A1] (AR v2)
Copy OK

Track 13

Filename E:\Music\CDRip\Anouar Brahem Trio - Astrakan Cafe (2000) {FLAC] {ECM 1718 159 494-2}\13 - Hijaz pechref.wav

Pre-gap length 0:00:04.65

Peak level 82.4 %
Extraction speed 5.2 X
Track quality 100.0 %
Test CRC CB34A07F
Copy CRC CB34A07F
Accurately ripped (confidence 80) [240A1196] (AR v2)
Copy OK

Track 14

Filename E:\Music\CDRip\Anouar Brahem Trio - Astrakan Cafe (2000) {FLAC] {ECM 1718 159 494-2}\14 - Astrakan cafe (2).wav

Pre-gap length 0:00:04.00

Peak level 46.6 %
Extraction speed 5.2 X
Track quality 100.0 %
Test CRC 979BFA3F
Copy CRC 979BFA3F
Accurately ripped (confidence 80) [9C0BC82E] (AR v2)
Copy OK


All tracks accurately ripped

No errors occurred

End of status report

==== Log checksum 8F260B4E106DFF4C3F2725E218B8B83A1A28564ECDA329262F7EA146314596BC ====


––––––––––––––––––––––––––––––––––––––––
Analyzed: Anouar Brahem / Astrakan Cafe
––––––––––––––––––––––––––––––––––––––––

DR Peak RMS Duration Track
––––––––––––––––––––––––––––––––––––––––
DR13 -0.60 dB -21.01 dB 4:23 01-Aube rouge a Grozny
DR15 -5.90 dB -25.38 dB 3:19 02-Astrakan cafe (1)
DR12 -0.01 dB -17.30 dB 4:46 03-The Mozdok's Train
DR12 -3.50 dB -21.13 dB 8:31 04-Blue Jewels
DR15 -1.14 dB -22.63 dB 3:32 05-Nihawend Lunga
DR13 -0.50 dB -19.02 dB 5:39 06-Ashkabad
DR12 -0.44 dB -17.06 dB 5:58 07-Halfaouine
DR14 -1.24 dB -19.69 dB 7:04 08-Parfum de gitane
DR15 -4.97 dB -25.57 dB 3:32 09-Khotan
DR13 -3.95 dB -20.06 dB 5:08 10-Karakoum
DR14 -2.14 dB -21.36 dB 10:47 11-Astara
DR14 -7.27 dB -26.42 dB 3:48 12-Dar es Salaam
DR12 -1.67 dB -20.70 dB 6:25 13-Hijaz pechref
DR12 -6.62 dB -22.12 dB 4:49 14-Astrakan cafe (2)
––––––––––––––––––––––––––––––––––––––––

Number of tracks: 14
Official DR value: DR13

Samplerate: 44100 Hz
Channels: 2
Bits per sample: 16
Bitrate: 486 kbps
Codec: FLAC
================================================================================

Anouar Brahem - Astrakan Cafe (2000) {ECM 1718}
Anouar Brahem - Astrakan Cafe (2000) {ECM 1718}
Anouar Brahem - Astrakan Cafe (2000) {ECM 1718}


Thanks to the original ripper