Subcategories

The Ant Trip Ceremony - 24 Hours (1968) [Reissue 2008]

Posted By: antonyart
The Ant Trip Ceremony - 24 Hours (1968) [Reissue 2008]

The Ant Trip Ceremony - 24 Hours (1968) [Reissue 2008]
EAC Rip | FLAC (IMG+CUE+LOG) | 240 MB | Complete HQ Scans 600 dpi JPG included | MP3 Lame 320 CBR | 107 MB
Genre: Psychedelic Acid Folk Rock | RAR 5% Rec. | Label: Cicadelic (CICD-1968) | Uploaded, Depositfiles

Released in 1968 by a group of Oberlin College students and pressed in very limited numbers (i.e. 500 copies), 24 Hours is a blend of folk, blues, jazz and eastern psychedelia. Songs on the album explode with originality, with meditative pieces like Pale Shades Of Gray and it's eerily beautiful melody or Elaborations, a lengthy raga-ish instrumental with some very effective flute. Just one look at the tripped out psychedelic cover is enough to guarantee that the music contained within the confines of this album is a mind blowing artifact of the 60's counterculture. Comes with faithfully reproduced original graphics as well as liner notes and photos detailing the short lived but amazing story of Ant Trip Ceremony.
The Ant Trip Ceremony - 24 Hours (1968) [Reissue 2008]

Tracklist:

01. Locomotive Lamp 03:38
02. What's The Matter Now 02:43
03. Violets Of Dawn 04:31
04. Riverdawn 03:34
05. Hey Joe 04:14
06. Outskirts 01:39
07. Little Baby 03:01
08. Get Out Of My Life 03:06
09. Four In The Morning 04:32
10. Sometimes I Wonder 03:47
11. Pale Shades Of Gray 04:32
12. Elaborations 07:13

Total: 46:29

Exact Audio Copy V1.0 beta 3 from 29. August 2011

EAC extraction logfile from 17. January 2013, 8:51

The Ant Trip Ceremony / 24 Hours

Used drive : HL-DT-STDVDRAM GT34N Adapter: 0 ID: 2

Read mode : Secure
Utilize accurate stream : Yes
Defeat audio cache : Yes
Make use of C2 pointers : No

Read offset correction : 103
Overread into Lead-In and Lead-Out : No
Fill up missing offset samples with silence : Yes
Delete leading and trailing silent blocks : No
Null samples used in CRC calculations : Yes
Used interface : Native Win32 interface for Win NT & 2000

Used output format : User Defined Encoder
Selected bitrate : 896 kBit/s
Quality : High
Add ID3 tag : Yes
Command line compressor : C:\Program Files (x86)\Exact Audio Copy\FLAC\FLAC.EXE
Additional command line options : -6 -V -T "ARTIST=%artist%" -T "TITLE=%title%" -T "ALBUM=%albumtitle%" -T "DATE=%year%" -T "TRACKNUMBER=%tracknr%" -T "GENRE=%genre%" -T "COMMENT=%comment%" -T "BAND=%albuminterpret%" -T "ALBUMARTIST=%albuminterpret%" -T "COMPOSER=%composer%" %haslyrics%–tag-from-file=LYRICS="%lyricsfile%"%haslyrics% -T "DISCNUMBER=%cdnumber%" -T "TOTALDISCS=%totalcds%" -T "TOTALTRACKS=%numtracks%" %hascover%–picture="%coverfile%"%hascover% %source% -o %dest%


TOC of the extracted CD

Track | Start | Length | Start sector | End sector
––––––––––––––––––––––––––––-
1 | 0:00.00 | 3:38.35 | 0 | 16384
2 | 3:38.35 | 2:42.58 | 16385 | 28592
3 | 6:21.18 | 4:31.05 | 28593 | 48922
4 | 10:52.23 | 3:33.44 | 48923 | 64941
5 | 14:25.67 | 4:14.13 | 64942 | 84004
6 | 18:40.05 | 1:38.55 | 84005 | 91409
7 | 20:18.60 | 3:00.67 | 91410 | 104976
8 | 23:19.52 | 3:05.44 | 104977 | 118895
9 | 26:25.21 | 4:32.06 | 118896 | 139301
10 | 30:57.27 | 3:47.21 | 139302 | 156347
11 | 34:44.48 | 4:31.42 | 156348 | 176714
12 | 39:16.15 | 7:13.12 | 176715 | 209201


Range status and errors

Selected range

Filename D:\FLAC\ANT TRIP CEREMONY, The -68- 24 Hours\The Ant Trip Ceremony - 24 Hours.wav

Peak level 100.0 %
Extraction speed 2.0 X
Range quality 100.0 %
Test CRC 84E77D34
Copy CRC 84E77D34
Copy OK

No errors occurred


AccurateRip summary

Track 1 not present in database
Track 2 not present in database
Track 3 not present in database
Track 4 not present in database
Track 5 not present in database
Track 6 not present in database
Track 7 not present in database
Track 8 not present in database
Track 9 not present in database
Track 10 not present in database
Track 11 not present in database
Track 12 not present in database

None of the tracks are present in the AccurateRip database

End of status report

==== Log checksum CC723C0E2A31B7674EE237EA048FB6B8FCF04AC45E29EEB9EB8505D79C3A65BC ====

foobar2000 1.1.9 / Dynamic Range Meter 1.1.1
log date: 2013-02-20 17:33:01

––––––––––––––––––––––––––––––––––––––––
Analyzed: The Ant Trip Ceremony / 24 Hours
––––––––––––––––––––––––––––––––––––––––

DR Peak RMS Duration Track
––––––––––––––––––––––––––––––––––––––––
DR6 0.00 dB -6.89 dB 3:38 01-Locomotive Lamp
DR6 0.00 dB -8.08 dB 2:43 02-What's The Matter
DR6 0.00 dB -7.16 dB 4:31 03-Violets of Dawn
DR6 0.00 dB -7.60 dB 3:34 04-Riverdawn
DR6 0.00 dB -6.79 dB 4:14 05-hey Joe
DR6 0.00 dB -7.08 dB 1:39 06-Outskirts
DR7 0.00 dB -8.09 dB 3:01 07-Little Baby
DR7 0.00 dB -8.21 dB 3:06 08-Get Out Of My Life
DR6 0.00 dB -6.92 dB 4:32 09-Four In The Morning
DR7 0.00 dB -8.66 dB 3:47 10-Sometimes I Wonder
DR6 0.00 dB -7.18 dB 4:32 11-Pale Shades Of Gray
DR6 0.00 dB -7.62 dB 7:13 12-Elaborations
––––––––––––––––––––––––––––––––––––––––

Number of tracks: 12
Official DR value: DR6

Samplerate: 44100 Hz
Channels: 2
Bits per sample: 16
Bitrate: 691 kbps
Codec: FLAC
================================================================================

The singer in this band is great, great! I like Psych that is more in the mode of sugarcube music, as opposed to the raucousness of Garage, and this singer embodies otherworldliness! Just listen to "Pale Shades of Gray"- real spooky singing, man. Real Ethereal. A lot of the tracks on the album rock-out somewhat, but the rhythm is subservient to the mood- guitars sound somewhat distant and chime like the bells of a haunted church. Low-fi recording- but not low-fi enough to diminish enjoyment- heighten the Psych effect. And has a cover of the greatest song written in the '60s- maybe ever- Eric Anderson's "Violets of Dawn". Doesn't cut Anderson's version- would be hard to do that- but is real good. Nice woodwind break on that track.
OMG! That was my first thought. Never even heard of this obscure psychedelic band made up of students from the college in Oberlin, Ohio. Album first came out in 1968 in a limited edition of something like 500 copies. Twelve mind-altering tracks to provide more brain damage for your time, effort and money. Tunes here I was digging the most were their unreal cover of the Leave's "Hey Joe", the seven-minute "Elaborations", the stunning "Riverdawn", the all-out psychedelic "Violets Of Dawn", "Locomotive Lamp" and their Willie Dixon cover "Little Baby". Ant Trip Ceremony successfully fuses together blues, psych, folk, jazz and improvisation. Line-up: George Galt - bass, harmonica, harp & vocals, Steve Detray - guitar, Gary Rosen - rhythm guitar & vocals, Mark Stein - guitar & flute and Jeff Williams - drums. Should appeal to fans of Ultimate Spinach, Peanut Butter Conspiracy, Afterglow, Neighb'r'hood Children and the Great Society.
One of the best! This band only made one record in the 60's, and only 300 copies of it! I can't belive thay made this CD! WOW

from amazon

The Ant Trip Ceremony - 24 Hours (1968) [Reissue 2008]


This CD is from my personal collection. My original rip & my scan work.
>> here is my blog with all my rips <<
Please, do not mirror these links at any web pages.
FLAC + HQ 600 dpi complete scans:

Uploaded

Depositfiles

MP3 + 300 dpi front/back cover scans:

Uploaded

Depositfiles


Password: Ant