Subcategories

Anthology of the Royal Concertgebouw Orchestra, Vol. 4: Live, The Radio Recordings, 1970-1980 (2006) (14 CDs)

Posted By: murena
Anthology of the Royal Concertgebouw Orchestra, Vol. 4: Live, The Radio Recordings, 1970-1980 (2006) (14 CDs)

Anthology of the Royal Concertgebouw Orchestra, Vol. 4: Live, The Radio Recordings, 1970-1980 (2006)
EAC Rip | FLAC (Tracks+.cue, log) | 14 CDs, 17:18:35 min | Cover included | 4,92 Gb
Genre: Classical / Label: Rco Live

Naturally, this 14-disc set of live recordings of the Concertgebouw Orchestra from 1970 through 1980 is only for the hardest of hardcore collectors. Who else would be interested in a collection that mixes Beethoven with Boulez, Baird and Berio, Tchaikovsky with Lutoslawski, Ginastera and Caplet, Rachmaninov with Reger, and Martin and Walton? But for the hardest of the hardcore, this set will be filled with delights. Where else could one find Karel Ancerl's suave account of Haydn's "Oxford" Symphony, Eugen Jochum's sweet account of Reger's Serenade in G major, Kiril Kondrashin's thrilling account of Sibelius' En Saga, Elly Ameling's seductive account of Berg's Der Wein, or Paul Badura-Skoda's evocative account of Martin's Second Piano Concerto? Although the sound is at best variable – sometimes as clean as the best Philips' recordings, sometimes as noisy as the worst pirated recording – the orchestra is never less than magnificent no matter what's on the music stand or who's on the podium. With its burnished tone, intuitive ensemble, and effortless virtuosity, the Concertgebouw is clearly one of the finest European orchestras, and this set shows them to their best advantage. So while not perhaps for everyone, anyone who loves the Concertgebouw will have to hear these recordings.

TRACKLIST:


Disc: 1
1. Symphony No. 7 in C major, Op. 105
2. Symphony No. 4 in C minor, Op. 43: Allegretto poco moderato
3. Symphony No. 4 in C minor, Op. 43: Moderato con moto
4. Symphony No. 4 in C minor, Op. 43: Largo. Allegro

xact Audio Copy V0.99 prebeta 4 from 23. January 2008
EAC extraction logfile from 22. July 2009, 19:04
- / RCO Live cd1
Used drive : LITE-ON CD-RW SOHR-5239V Adapter: 1 ID: 1
Read mode : Secure
Utilize accurate stream : Yes
Defeat audio cache : Yes
Make use of C2 pointers : Yes
Read offset correction : 6
Overread into Lead-In and Lead-Out : No
Fill up missing offset samples with silence : Yes
Delete leading and trailing silent blocks : No
Null samples used in CRC calculations : No
Used interface : Native Win32 interface for Win NT & 2000
Gap handling : Not detected, thus appended to previous track
Used output format : User Defined Encoder
Selected bitrate : 768 kBit/s
Quality : High
Add ID3 tag : No
Command line compressor : C:\Program Files\Exact Audio Copy\FLAC\FLAC.EXE
Additional command line options : -6 -V -T "ARTIST=%a" -T "TITLE=%t" -T "ALBUM=%g" -T "DATE=%y" -T "TRACKNUMBER=%n" -T "GENRE=%m" -T "COMMENT=%e" %s -o %d
TOC of the extracted CD
Track | Start | Length | Start sector | End sector
––––––––––––––––––––––––––––-
1 | 0:00.00 | 20:55.15 | 0 | 94139
2 | 20:55.15 | 24:45.04 | 94140 | 205518
3 | 45:40.19 | 8:18.42 | 205519 | 242910
4 | 53:58.61 | 25:08.55 | 242911 | 356065
Track 1
Filename F:\Classical\00. Various Artists\Royal Concertgebouw Orch Anthology 4 (14 cd's)\01. - Sibelius- Sym 7 (Ormandy).wav
Peak level 99.9 %
Track quality 100.0 %
Copy CRC B766041D
Accurately ripped (confidence 4) [E5D783A2]
Copy OK
Track 2
Filename F:\Classical\00. Various Artists\Royal Concertgebouw Orch Anthology 4 (14 cd's)\02. - Shostakovich- Sym 4 - 1st Mvt (Kondrashin).wav
Peak level 91.6 %
Track quality 100.0 %
Copy CRC 974CF22E
Accurately ripped (confidence 4) [2F7D8190]
Copy OK
Track 3
Filename F:\Classical\00. Various Artists\Royal Concertgebouw Orch Anthology 4 (14 cd's)\03. - Shostakovich- Sym 4 - 2nd Mvt.wav
Peak level 61.7 %
Track quality 100.0 %
Copy CRC AD0FC5F0
Accurately ripped (confidence 4) [08113CAA]
Copy OK
Track 4
Filename F:\Classical\00. Various Artists\Royal Concertgebouw Orch Anthology 4 (14 cd's)\04. - Shostakovich- Sym 4 - 3rd Mvt.wav
Peak level 99.9 %
Track quality 100.0 %
Copy CRC 60878981
Accurately ripped (confidence 4) [06FBC5CD]
Copy OK
All tracks accurately ripped
No errors occurred
End of status report


Disc: 2
1. Symphony No. 92 in G major ('Oxford'/'Letter Q'), H. 1/92: Adagio - Allegro spiritoso
2. Symphony No. 92 in G major ('Oxford'/'Letter Q'), H. 1/92: Adagio
3. Symphony No. 92 in G major ('Oxford'/'Letter Q'), H. 1/92: Menuet: Allegretto
4. Symphony No. 92 in G major ('Oxford'/'Letter Q'), H. 1/92: Presto
5. Falstaff, symphonic study for orchestra in C minor, Op. 68
6. Symphonies of Winds

Exact Audio Copy V0.99 prebeta 4 from 23. January 2008
EAC extraction logfile from 22. July 2009, 19:44
- / RCO Live cd 02
Used drive : LITE-ON CD-RW SOHR-5239V Adapter: 1 ID: 1
Read mode : Secure
Utilize accurate stream : Yes
Defeat audio cache : Yes
Make use of C2 pointers : Yes
Read offset correction : 6
Overread into Lead-In and Lead-Out : No
Fill up missing offset samples with silence : Yes
Delete leading and trailing silent blocks : No
Null samples used in CRC calculations : No
Used interface : Native Win32 interface for Win NT & 2000
Gap handling : Not detected, thus appended to previous track
Used output format : User Defined Encoder
Selected bitrate : 768 kBit/s
Quality : High
Add ID3 tag : No
Command line compressor : C:\Program Files\Exact Audio Copy\FLAC\FLAC.EXE
Additional command line options : -6 -V -T "ARTIST=%a" -T "TITLE=%t" -T "ALBUM=%g" -T "DATE=%y" -T "TRACKNUMBER=%n" -T "GENRE=%m" -T "COMMENT=%e" %s -o %d
TOC of the extracted CD
Track | Start | Length | Start sector | End sector
––––––––––––––––––––––––––––-
1 | 0:00.00 | 7:36.74 | 0 | 34273
2 | 7:36.74 | 7:02.27 | 34274 | 65950
3 | 14:39.26 | 6:22.64 | 65951 | 94664
4 | 21:02.15 | 5:47.74 | 94665 | 120763
5 | 26:50.14 | 35:39.06 | 120764 | 281194
6 | 62:29.20 | 9:09.30 | 281195 | 322399
Track 1
Filename F:\Classical\00. Various Artists\Royal Concertgebouw Orch Anthology 4 (14 cd's)\RCO Live cd 02\01. - Haydn- Symphony No.92 'Oxford' I. (Ancerl).wav
Peak level 75.2 %
Track quality 100.0 %
Copy CRC F4C350AD
Accurately ripped (confidence 3) [3FB568FE]
Copy OK
Track 2
Filename F:\Classical\00. Various Artists\Royal Concertgebouw Orch Anthology 4 (14 cd's)\RCO Live cd 02\02. - Haydn- Symphony No.92 'Oxford' II..wav
Peak level 75.9 %
Track quality 100.0 %
Copy CRC B61C6B88
Accurately ripped (confidence 3) [1390C965]
Copy OK
Track 3
Filename F:\Classical\00. Various Artists\Royal Concertgebouw Orch Anthology 4 (14 cd's)\RCO Live cd 02\03. - Haydn- Symphony No.92 'Oxford' III..wav
Peak level 83.9 %
Track quality 100.0 %
Copy CRC A2DD1744
Accurately ripped (confidence 3) [9AB42714]
Copy OK
Track 4
Filename F:\Classical\00. Various Artists\Royal Concertgebouw Orch Anthology 4 (14 cd's)\RCO Live cd 02\04. - Haydn- Symphony No.92 'Oxford' IV..wav
Peak level 99.9 %
Track quality 100.0 %
Copy CRC 22B251B9
Accurately ripped (confidence 3) [C2D581BE]
Copy OK
Track 5
Filename F:\Classical\00. Various Artists\Royal Concertgebouw Orch Anthology 4 (14 cd's)\RCO Live cd 02\05. - Elgar- Falstaff Op.68, Symphonic Study (Davis).wav
Peak level 99.9 %
Track quality 100.0 %
Copy CRC 029C5D1F
Accurately ripped (confidence 3) [740FA0D7]
Copy OK
Track 6
Filename F:\Classical\00. Various Artists\Royal Concertgebouw Orch Anthology 4 (14 cd's)\RCO Live cd 02\06. - De Leeuw- Symphony Of Winds (Haitink).wav
Peak level 79.2 %
Track quality 100.0 %
Copy CRC F34E2168
Accurately ripped (confidence 3) [1804CBAD]
Copy OK
All tracks accurately ripped
No errors occurred
End of status report


Disc: 3
1. En Saga, tone poem for orchestra, Op. 9
2. Rhapsody on a Theme of Paganini (Introduction and 24 Variations), for piano & orchestra in A minor, Op. 43
3. Symphony in D minor, Op. 48: Lento
4. Symphony in D minor, Op. 48: Allegretto
5. Symphony in D minor, Op. 48: Allegro non troppo

Exact Audio Copy V0.99 prebeta 4 from 23. January 2008
EAC extraction logfile from 22. July 2009, 20:08
- / RCO Live cd 03
Used drive : SAMSUNG CDRW/DVD SM-308B Adapter: 1 ID: 0
Read mode : Secure
Utilize accurate stream : Yes
Defeat audio cache : No
Make use of C2 pointers : No
Read offset correction : 120
Overread into Lead-In and Lead-Out : No
Fill up missing offset samples with silence : Yes
Delete leading and trailing silent blocks : No
Null samples used in CRC calculations : No
Used interface : Native Win32 interface for Win NT & 2000
Gap handling : Not detected, thus appended to previous track
Used output format : User Defined Encoder
Selected bitrate : 768 kBit/s
Quality : High
Add ID3 tag : No
Command line compressor : C:\Program Files\Exact Audio Copy\FLAC\FLAC.EXE
Additional command line options : -6 -V -T "ARTIST=%a" -T "TITLE=%t" -T "ALBUM=%g" -T "DATE=%y" -T "TRACKNUMBER=%n" -T "GENRE=%m" -T "COMMENT=%e" %s -o %d
TOC of the extracted CD
Track | Start | Length | Start sector | End sector
––––––––––––––––––––––––––––-
1 | 0:00.00 | 17:05.07 | 0 | 76881
2 | 17:05.07 | 23:09.28 | 76882 | 181084
3 | 40:14.35 | 17:22.16 | 181085 | 259250
4 | 57:36.51 | 9:52.63 | 259251 | 303713
5 | 67:29.39 | 9:34.00 | 303714 | 346763
Track 1
Filename F:\Classical\00. Various Artists\Royal Concertgebouw Orch Anthology 4 (14 cd's)\RCO Live cd 03\01. - Sibelius - En Saga Op. 9 (Kondrashin).wav
Peak level 100.0 %
Track quality 99.9 %
Copy CRC 9B7F4F5C
Accurately ripped (confidence 3) [B35CDC3F]
Copy OK
Track 2
Filename F:\Classical\00. Various Artists\Royal Concertgebouw Orch Anthology 4 (14 cd's)\RCO Live cd 03\02. - Rachmaninov - Rhapsody on a Theme of Paganini (Ancerl).wav
Peak level 99.9 %
Track quality 100.0 %
Copy CRC 2B33A39B
Accurately ripped (confidence 3) [61C75C91]
Copy OK
Track 3
Filename F:\Classical\00. Various Artists\Royal Concertgebouw Orch Anthology 4 (14 cd's)\RCO Live cd 03\03. - Franck - Symphony in d minor, I (Ancerl).wav
Peak level 98.4 %
Track quality 100.0 %
Copy CRC FFFB34FC
Accurately ripped (confidence 3) [B688DA88]
Copy OK
Track 4
Filename F:\Classical\00. Various Artists\Royal Concertgebouw Orch Anthology 4 (14 cd's)\RCO Live cd 03\04. - Franck - Symphony in d minor, II.wav
Peak level 38.6 %
Track quality 100.0 %
Copy CRC 4D2AC058
Accurately ripped (confidence 3) [75FF6D2C]
Copy OK
Track 5
Filename F:\Classical\00. Various Artists\Royal Concertgebouw Orch Anthology 4 (14 cd's)\RCO Live cd 03\05. - Franck - Symphony in d minor, III.wav
Peak level 100.0 %
Track quality 99.8 %
Copy CRC AF1AD7D2
Accurately ripped (confidence 3) [B968FF5B]
Copy OK
All tracks accurately ripped
No errors occurred
End of status report


Disc: 4
1. Improvisations on an Impromptu of Benjamin Britten, for orchestra: Lento
2. Improvisations on an Impromptu of Benjamin Britten, for orchestra: Moderato
3. Improvisations on an Impromptu of Benjamin Britten, for orchestra: Scherzando
4. Piano Concerto No.2: Con moto
5. Piano Concerto No.2: Lento
6. Piano Concerto No.2: Presto - Cadenza
7. Les Noces III (The Wedding), ballet in 4 tableaux for vocal soloists, chorus, 4 pianos & percussion: La tresse (The tresses)
8. Les Noces III (The Wedding), ballet in 4 tableaux for vocal soloists, chorus, 4 pianos & percussion: Chez le marié (The bridegroom's
9. Les Noces III (The Wedding), ballet in 4 tableaux for vocal soloists, chorus, 4 pianos & percussion: Le départ de la mariée (The depa
10. Les Noces III (The Wedding), ballet in 4 tableaux for vocal soloists, chorus, 4 pianos & percussion: Le repas de noces (The wedding f

Exact Audio Copy V0.99 prebeta 4 from 23. January 2008

EAC extraction logfile from 22. July 2009, 20:33

- / RCO Live cd 04

Used drive : SAMSUNG CDRW/DVD SM-308B Adapter: 1 ID: 0

Read mode : Secure
Utilize accurate stream : Yes
Defeat audio cache : No
Make use of C2 pointers : No

Read offset correction : 120
Overread into Lead-In and Lead-Out : No
Fill up missing offset samples with silence : Yes
Delete leading and trailing silent blocks : No
Null samples used in CRC calculations : No
Used interface : Native Win32 interface for Win NT & 2000
Gap handling : Not detected, thus appended to previous track

Used output format : User Defined Encoder
Selected bitrate : 768 kBit/s
Quality : High
Add ID3 tag : No
Command line compressor : C:\Program Files\Exact Audio Copy\FLAC\FLAC.EXE
Additional command line options : -6 -V -T "ARTIST=%a" -T "TITLE=%t" -T "ALBUM=%g" -T "DATE=%y" -T "TRACKNUMBER=%n" -T "GENRE=%m" -T "COMMENT=%e" %s -o %d


TOC of the extracted CD

Track | Start | Length | Start sector | End sector
––––––––––––––––––––––––––––-
1 | 0:00.00 | 7:20.19 | 0 | 33018
2 | 7:20.19 | 3:39.68 | 33019 | 49511
3 | 11:00.12 | 3:22.44 | 49512 | 64705
4 | 14:22.56 | 8:19.15 | 64706 | 102145
5 | 22:41.71 | 8:19.60 | 102146 | 139630
6 | 31:01.56 | 6:46.38 | 139631 | 170118
7 | 37:48.19 | 5:19.10 | 170119 | 194053
8 | 43:07.29 | 5:58.18 | 194054 | 220921
9 | 49:05.47 | 3:25.27 | 220922 | 236323
10 | 52:30.74 | 10:42.14 | 236324 | 284487


Track 1

Filename F:\Classical\00. Various Artists\Royal Concertgebouw Orch Anthology 4 (14 cd's)\RCO Live cd 04\01. - Walton - Improvisations on an Impromptu of Britten I (Krips).wav

Peak level 77.5 %
Track quality 99.9 %
Copy CRC 3E932FCE
Accurately ripped (confidence 2) [C77F72DE]
Copy OK

Track 2

Filename F:\Classical\00. Various Artists\Royal Concertgebouw Orch Anthology 4 (14 cd's)\RCO Live cd 04\02. - Walton - Improvisations on an Impromptu of Britten II.wav

Peak level 56.9 %
Track quality 99.9 %
Copy CRC 18779B7B
Accurately ripped (confidence 2) [E13A1050]
Copy OK

Track 3

Filename F:\Classical\00. Various Artists\Royal Concertgebouw Orch Anthology 4 (14 cd's)\RCO Live cd 04\03. - Walton - Improvisations on an Impromptu of Britten III.wav

Peak level 99.9 %
Track quality 99.9 %
Copy CRC 1DABA988
Accurately ripped (confidence 2) [44785EC8]
Copy OK

Track 4

Filename F:\Classical\00. Various Artists\Royal Concertgebouw Orch Anthology 4 (14 cd's)\RCO Live cd 04\04. - Martin - Piano Concerto #3 I (Badura-Skoda, Krips).wav

Peak level 99.9 %
Track quality 100.0 %
Copy CRC 31269ADE
Accurately ripped (confidence 2) [03D5C421]
Copy OK

Track 5

Filename F:\Classical\00. Various Artists\Royal Concertgebouw Orch Anthology 4 (14 cd's)\RCO Live cd 04\05. - Martin - Piano Concerto #3 II.wav

Peak level 82.7 %
Track quality 99.9 %
Copy CRC 472CFA63
Accurately ripped (confidence 2) [38784096]
Copy OK

Track 6

Filename F:\Classical\00. Various Artists\Royal Concertgebouw Orch Anthology 4 (14 cd's)\RCO Live cd 04\06. - Martin - Piano Concerto #3 III.wav

Peak level 97.1 %
Track quality 99.9 %
Copy CRC E889D67B
Accurately ripped (confidence 2) [4B71FE08]
Copy OK

Track 7

Filename F:\Classical\00. Various Artists\Royal Concertgebouw Orch Anthology 4 (14 cd's)\RCO Live cd 04\07. - Stravinsky - Les Noces I (de Leeuw).wav

Peak level 88.4 %
Track quality 99.9 %
Copy CRC A159B897
Accurately ripped (confidence 2) [2B2D4F45]
Copy OK

Track 8

Filename F:\Classical\00. Various Artists\Royal Concertgebouw Orch Anthology 4 (14 cd's)\RCO Live cd 04\08. - Stravinsky - Les Noces II.wav

Peak level 99.9 %
Track quality 100.0 %
Copy CRC E8E1885F
Accurately ripped (confidence 2) [8D03971E]
Copy OK

Track 9

Filename F:\Classical\00. Various Artists\Royal Concertgebouw Orch Anthology 4 (14 cd's)\RCO Live cd 04\09. - Stravinsky - Les Noces III.wav

Peak level 68.2 %
Track quality 100.0 %
Copy CRC 66D1D255
Accurately ripped (confidence 2) [05062FE8]
Copy OK


All tracks accurately ripped

No errors occurred

End of status report


Disc: 5
1. Roméo et Juliette, for alto, tenor, bass, chorus & orchestra ('symphonie dramatique'), H.79 (Op. 17): Introduction
2. Roméo et Juliette, for alto, tenor, bass, chorus & orchestra ('symphonie dramatique'), H.79 (Op. 17): Scène d'amour
3. Roméo et Juliette, for alto, tenor, bass, chorus & orchestra ('symphonie dramatique'), H.79 (Op. 17): La reine Mab, ou la fée des son
4. Roméo et Juliette, for alto, tenor, bass, chorus & orchestra ('symphonie dramatique'), H.79 (Op. 17): Romeo seul - Tristesse - Concer
5. Variazioni senza tema, for orchestra
6. Paroles tissées (Woven words), for tenor & 20 solo instruments: PremiÃ..re tapisserie: Un chat qui s'émerveille
7. Paroles tissées (Woven words), for tenor & 20 solo instruments: DeuxiÃ..me tapisserie: Quand le jour a rouvert les branches
8. Paroles tissées (Woven words), for tenor & 20 solo instruments: TroisiÃ..me tapisserie: Mille chevaux hors d'haleine
9. Paroles tissées (Woven words), for tenor & 20 solo instruments: QuatriÃ..me tapisserie: Dormez cette pâleur

Exact Audio Copy V0.99 prebeta 4 from 23. January 2008
EAC extraction logfile from 22. July 2009, 21:23
- / RCO Live cd 05
Used drive : SAMSUNG CDRW/DVD SM-308B Adapter: 1 ID: 0
Read mode : Secure
Utilize accurate stream : Yes
Defeat audio cache : No
Make use of C2 pointers : No
Read offset correction : 120
Overread into Lead-In and Lead-Out : No
Fill up missing offset samples with silence : Yes
Delete leading and trailing silent blocks : No
Null samples used in CRC calculations : No
Used interface : Native Win32 interface for Win NT & 2000
Gap handling : Not detected, thus appended to previous track
Used output format : User Defined Encoder
Selected bitrate : 768 kBit/s
Quality : High
Add ID3 tag : No
Command line compressor : C:\Program Files\Exact Audio Copy\FLAC\FLAC.EXE
Additional command line options : -6 -V -T "ARTIST=%a" -T "TITLE=%t" -T "ALBUM=%g" -T "DATE=%y" -T "TRACKNUMBER=%n" -T "GENRE=%m" -T "COMMENT=%e" %s -o %d
TOC of the extracted CD
Track | Start | Length | Start sector | End sector
––––––––––––––––––––––––––––-
1 | 0:00.00 | 4:52.17 | 0 | 21916
2 | 4:52.17 | 17:27.32 | 21917 | 100473
3 | 22:19.49 | 8:39.32 | 100474 | 139430
4 | 30:59.06 | 13:12.74 | 139431 | 198904
5 | 44:12.05 | 10:35.27 | 198905 | 246556
6 | 54:47.32 | 3:02.21 | 246557 | 260227
7 | 57:49.53 | 3:36.11 | 260228 | 276438
8 | 61:25.64 | 3:40.71 | 276439 | 293009
9 | 65:06.60 | 6:09.28 | 293010 | 320712
Track 1
Filename F:\Classical\00. Various Artists\Royal Concertgebouw Orch Anthology 4 (14 cd's)\RCO Live cd 05\01. - Berlioz - From Romeo and Juliet I (Giulini).wav
Peak level 78.4 %
Track quality 99.9 %
Copy CRC EB3B4467
Accurately ripped (confidence 3) [3C75A5C9]
Copy OK
Track 2
Filename F:\Classical\00. Various Artists\Royal Concertgebouw Orch Anthology 4 (14 cd's)\RCO Live cd 05\02. - Berlioz - From Romeo and Juliet II.wav
Peak level 60.5 %
Track quality 99.9 %
Copy CRC 6508731A
Accurately ripped (confidence 3) [248EA446]
Copy OK
Track 3
Filename F:\Classical\00. Various Artists\Royal Concertgebouw Orch Anthology 4 (14 cd's)\RCO Live cd 05\03. - Berlioz - From Romeo and Juliet III.wav
Peak level 63.4 %
Track quality 99.9 %
Copy CRC 5AEBACCD
Accurately ripped (confidence 3) [C343022C]
Copy OK
Track 4
Filename F:\Classical\00. Various Artists\Royal Concertgebouw Orch Anthology 4 (14 cd's)\RCO Live cd 05\04. - Berlioz - From Romeo and Juliet IV.wav
Peak level 100.0 %
Track quality 99.9 %
Copy CRC BB4D00F1
Accurately ripped (confidence 3) [3BE6B3D5]
Copy OK
Track 5
Filename F:\Classical\00. Various Artists\Royal Concertgebouw Orch Anthology 4 (14 cd's)\RCO Live cd 05\05. - Baird - Varriazioni senza tema (Hans Vonk).wav
Peak level 99.9 %
Track quality 100.0 %
Copy CRC E7FA66C6
Accurately ripped (confidence 2) [8B5E17B9]
Copy OK
Track 6
Filename F:\Classical\00. Various Artists\Royal Concertgebouw Orch Anthology 4 (14 cd's)\RCO Live cd 05\06. - Lutoslawski - Paroles tissees I (Pears, Lutoslawski).wav
Peak level 47.1 %
Track quality 99.9 %
Copy CRC 82C1D49E
Accurately ripped (confidence 2) [9950D50F]
Copy OK
Track 7
Filename F:\Classical\00. Various Artists\Royal Concertgebouw Orch Anthology 4 (14 cd's)\RCO Live cd 05\07. - Lutoslawski - Paroles tissees II.wav
Peak level 50.9 %
Track quality 100.0 %
Copy CRC C9B4F001
Accurately ripped (confidence 2) [70E00261]
Copy OK
Track 8
Filename F:\Classical\00. Various Artists\Royal Concertgebouw Orch Anthology 4 (14 cd's)\RCO Live cd 05\08. - Lutoslawski - Paroles tissees III.wav
Peak level 99.9 %
Track quality 100.0 %
Copy CRC E8C84BA5
Accurately ripped (confidence 2) [6EC24EE4]
Copy OK
All tracks accurately ripped
No errors occurred
End of status report


Disc: 6
1. Concerto for violin, cello & orchestra in A minor ('Double'), Op. 102: Allegro
2. Concerto for violin, cello & orchestra in A minor ('Double'), Op. 102: Andante
3. Concerto for violin, cello & orchestra in A minor ('Double'), Op. 102: Vivace non troppo
4. Das klagende Lied, cantata for soloists, chorus & orchestra: Der Spielmann
5. Das klagende Lied, cantata for soloists, chorus & orchestra: Hochzeitsstück

Exact Audio Copy V0.99 prebeta 4 from 23. January 2008
EAC extraction logfile from 22. July 2009, 21:47
- / RCO Live cd 06
Used drive : SAMSUNG CDRW/DVD SM-308B Adapter: 1 ID: 0
Read mode : Secure
Utilize accurate stream : Yes
Defeat audio cache : No
Make use of C2 pointers : No
Read offset correction : 120
Overread into Lead-In and Lead-Out : No
Fill up missing offset samples with silence : Yes
Delete leading and trailing silent blocks : No
Null samples used in CRC calculations : No
Used interface : Native Win32 interface for Win NT & 2000
Gap handling : Not detected, thus appended to previous track
Used output format : User Defined Encoder
Selected bitrate : 768 kBit/s
Quality : High
Add ID3 tag : No
Command line compressor : C:\Program Files\Exact Audio Copy\FLAC\FLAC.EXE
Additional command line options : -6 -V -T "ARTIST=%a" -T "TITLE=%t" -T "ALBUM=%g" -T "DATE=%y" -T "TRACKNUMBER=%n" -T "GENRE=%m" -T "COMMENT=%e" %s -o %d
TOC of the extracted CD
Track | Start | Length | Start sector | End sector
––––––––––––––––––––––––––––-
1 | 0:00.00 | 17:08.12 | 0 | 77111
2 | 17:08.12 | 7:37.66 | 77112 | 111452
3 | 24:46.03 | 9:08.22 | 111453 | 152574
4 | 33:54.25 | 18:12.71 | 152575 | 234545
5 | 52:07.21 | 19:27.05 | 234546 | 322075
Track 1
Filename F:\Classical\00. Various Artists\Royal Concertgebouw Orch Anthology 4 (14 cd's)\RCO Live cd 06\01. - Brahms - Double Concerto in a minor I (Krebbers, Machula, Vonk).wav
Peak level 99.9 %
Track quality 99.9 %
Copy CRC DA7C58FE
Accurately ripped (confidence 2) [256F7D69]
Copy OK
Track 2
Filename F:\Classical\00. Various Artists\Royal Concertgebouw Orch Anthology 4 (14 cd's)\RCO Live cd 06\02. - Brahms - Double Concerto in a minor II.wav
Peak level 45.1 %
Track quality 99.8 %
Copy CRC 15FC9989
Accurately ripped (confidence 2) [A58FBD0A]
Copy OK
Track 3
Filename F:\Classical\00. Various Artists\Royal Concertgebouw Orch Anthology 4 (14 cd's)\RCO Live cd 06\03. - Brahms - Double Concerto in a minor III.wav
Peak level 91.8 %
Track quality 99.9 %
Copy CRC A1E6DE87
Accurately ripped (confidence 2) [E2987E9D]
Copy OK
Track 4
Filename F:\Classical\00. Various Artists\Royal Concertgebouw Orch Anthology 4 (14 cd's)\RCO Live cd 06\04. - Mahler - Das klagende Lied I (Haitink).wav
Peak level 86.7 %
Track quality 99.9 %
Copy CRC F48CB388
Accurately ripped (confidence 3) [0536C255]
Copy OK
Track 5
Filename F:\Classical\00. Various Artists\Royal Concertgebouw Orch Anthology 4 (14 cd's)\RCO Live cd 06\05. - Mahler - Das klagende Lied II.wav
Peak level 100.0 %
Track quality 99.9 %
Copy CRC 664E0381
Accurately ripped (confidence 3) [03710097]
Copy OK
All tracks accurately ripped
No errors occurred
End of status report


Disc: 7
1. Symphony No. 4 in B flat major, Op. 60: Adagio - Allegro vivace
2. Symphony No. 4 in B flat major, Op. 60: Adagio
3. Symphony No. 4 in B flat major, Op. 60: Allegro vivace
4. Symphony No. 4 in B flat major, Op. 60: Allegro ma non troppo
5. Violin Concerto in D major, Op. 77: Allegro non troppo
6. Violin Concerto in D major, Op. 77: Adagio
7. Violin Concerto in D major, Op. 77: Allegro giocoso, ma non troppo vivace

Exact Audio Copy V0.99 prebeta 4 from 23. January 2008
EAC extraction logfile from 22. July 2009, 22:29
Royal Concertgrbouw Orchestra / RCO Live cd 07
Used drive : LITE-ON CD-RW SOHR-5239V Adapter: 1 ID: 1
Read mode : Secure
Utilize accurate stream : Yes
Defeat audio cache : Yes
Make use of C2 pointers : Yes
Read offset correction : 6
Overread into Lead-In and Lead-Out : No
Fill up missing offset samples with silence : Yes
Delete leading and trailing silent blocks : No
Null samples used in CRC calculations : No
Used interface : Native Win32 interface for Win NT & 2000
Gap handling : Not detected, thus appended to previous track
Used output format : User Defined Encoder
Selected bitrate : 768 kBit/s
Quality : High
Add ID3 tag : No
Command line compressor : C:\Program Files\Exact Audio Copy\FLAC\FLAC.EXE
Additional command line options : -6 -V -T "ARTIST=%a" -T "TITLE=%t" -T "ALBUM=%g" -T "DATE=%y" -T "TRACKNUMBER=%n" -T "GENRE=%m" -T "COMMENT=%e" %s -o %d
TOC of the extracted CD
Track | Start | Length | Start sector | End sector
––––––––––––––––––––––––––––-
1 | 0:00.00 | 9:37.65 | 0 | 43339
2 | 9:37.65 | 9:49.44 | 43340 | 87558
3 | 19:27.34 | 5:37.06 | 87559 | 112839
4 | 25:04.40 | 5:49.02 | 112840 | 139016
5 | 30:53.42 | 23:07.67 | 139017 | 243108
6 | 54:01.34 | 9:28.70 | 243109 | 285778
7 | 63:30.29 | 8:33.22 | 285779 | 324275
Track 1
Filename F:\Classical\00. Various Artists\Royal Concertgebouw Orch Anthology 4 (14 cd's)\RCO Live cd 07\01. Royal Concertgrbouw Orchestra - Beethoven - Symphony 4, I (van Otterloo).wav
Peak level 91.2 %
Track quality 99.9 %
Copy CRC D760B9C7
Accurately ripped (confidence 1) [F6194FAE]
Copy OK
Track 2
Filename F:\Classical\00. Various Artists\Royal Concertgebouw Orch Anthology 4 (14 cd's)\RCO Live cd 07\02. Royal Concertgrbouw Orchestra - Beethoven - Symphony 4, II.wav
Peak level 84.3 %
Track quality 100.0 %
Copy CRC 44182BAA
Accurately ripped (confidence 1) [48BE1B47]
Copy OK
Track 3
Filename F:\Classical\00. Various Artists\Royal Concertgebouw Orch Anthology 4 (14 cd's)\RCO Live cd 07\03. Royal Concertgrbouw Orchestra - Beethoven - Symphony 4, III.wav
Peak level 80.4 %
Track quality 100.0 %
Copy CRC 93B48ABB
Accurately ripped (confidence 1) [0C6B9E24]
Copy OK
Track 4
Filename F:\Classical\00. Various Artists\Royal Concertgebouw Orch Anthology 4 (14 cd's)\RCO Live cd 07\04. Royal Concertgrbouw Orchestra - Beethoven - Symphony 4, IV.wav
Peak level 100.0 %
Track quality 100.0 %
Copy CRC 23F208BF
Accurately ripped (confidence 1) [54D1EC25]
Copy OK
Track 5
Filename F:\Classical\00. Various Artists\Royal Concertgebouw Orch Anthology 4 (14 cd's)\RCO Live cd 07\05. Royal Concertgrbouw Orchestra - Brahms - Violin Concerto in D, I (Perlman, van Otterloo).wav
Peak level 86.7 %
Track quality 100.0 %
Copy CRC 16A4F7DB
Accurately ripped (confidence 2) [C70FF742]
Copy OK
Track 6
Filename F:\Classical\00. Various Artists\Royal Concertgebouw Orch Anthology 4 (14 cd's)\RCO Live cd 07\06. Royal Concertgrbouw Orchestra - Brahms - Violin Concerto in D, II.wav
Peak level 66.5 %
Track quality 99.9 %
Copy CRC 0D3D2C7D
Accurately ripped (confidence 2) [AA6CBC00]
Copy OK
All tracks accurately ripped
No errors occurred
End of status report


Disc: 8
1. Cantata No. 202, 'Weichet nur, betrÃ1/4bte Schatten' ('Wedding Cantata'), BWV 202 (BC G41): Aria: Weichet nur, betrÃ1/4bte Schatten
2. Cantata No. 202, 'Weichet nur, betrÃ1/4bte Schatten' ('Wedding Cantata'), BWV 202 (BC G41): Recitative: Die Welt wird wieder neu
3. Cantata No. 202, 'Weichet nur, betrÃ1/4bte Schatten' ('Wedding Cantata'), BWV 202 (BC G41): Aria: Phoebus eilt mit schnellen Pferden
4. Cantata No. 202, 'Weichet nur, betrÃ1/4bte Schatten' ('Wedding Cantata'), BWV 202 (BC G41): Recitative: Drum sucht auch Amor sein VergnÃ1/4
5. Cantata No. 202, 'Weichet nur, betrÃ1/4bte Schatten' ('Wedding Cantata'), BWV 202 (BC G41): Aria: Wenn die FrÃ1/4hlingslÃ1/4fte streichen
6. Cantata No. 202, 'Weichet nur, betrÃ1/4bte Schatten' ('Wedding Cantata'), BWV 202 (BC G41): Recitative: Und dieses ist das GlÃ1/4cke
7. Cantata No. 202, 'Weichet nur, betrÃ1/4bte Schatten' ('Wedding Cantata'), BWV 202 (BC G41): Aria: Sich Ã1/4ben im Lieben
8. Cantata No. 202, 'Weichet nur, betrÃ1/4bte Schatten' ('Wedding Cantata'), BWV 202 (BC G41): Recitative: So sei das Band der keuschen Lie
9. Cantata No. 202, 'Weichet nur, betrÃ1/4bte Schatten' ('Wedding Cantata'), BWV 202 (BC G41): Gavotte: Sehet in Zufriedenheit
10. Horn Concerto No. 4 in E flat major, K. 495: Allegro moderato
11. Horn Concerto No. 4 in E flat major, K. 495: Romanza: Andante
12. Horn Concerto No. 4 in E flat major, K. 495: Rondo: Allegro vivace
13. Symphony No. 3 in E flat major ('Rhenish'), Op. 97: Lebhaft
14. Symphony No. 3 in E flat major ('Rhenish'), Op. 97: Scherzo: Sehr mässig
15. Symphony No. 3 in E flat major ('Rhenish'), Op. 97: Nicht schnell
16. Symphony No. 3 in E flat major ('Rhenish'), Op. 97: Feierlich
17. Symphony No. 3 in E flat major ('Rhenish'), Op. 97: Lebhaft

Exact Audio Copy V0.99 prebeta 4 from 23. January 2008
EAC extraction logfile from 22. July 2009, 23:09
Royal Concertgebouw Orchestra / RCO Live cd08
Used drive : LITE-ON CD-RW SOHR-5239V Adapter: 1 ID: 1
Read mode : Secure
Utilize accurate stream : Yes
Defeat audio cache : Yes
Make use of C2 pointers : Yes
Read offset correction : 6
Overread into Lead-In and Lead-Out : No
Fill up missing offset samples with silence : Yes
Delete leading and trailing silent blocks : No
Null samples used in CRC calculations : No
Used interface : Native Win32 interface for Win NT & 2000
Gap handling : Not detected, thus appended to previous track
Used output format : User Defined Encoder
Selected bitrate : 768 kBit/s
Quality : High
Add ID3 tag : No
Command line compressor : C:\Program Files\Exact Audio Copy\FLAC\FLAC.EXE
Additional command line options : -6 -V -T "ARTIST=%a" -T "TITLE=%t" -T "ALBUM=%g" -T "DATE=%y" -T "TRACKNUMBER=%n" -T "GENRE=%m" -T "COMMENT=%e" %s -o %d
TOC of the extracted CD
Track | Start | Length | Start sector | End sector
––––––––––––––––––––––––––––-
1 | 0:00.00 | 7:20.06 | 0 | 33005
2 | 7:20.06 | 0:28.21 | 33006 | 35126
3 | 7:48.27 | 3:12.24 | 35127 | 49550
4 | 11:00.51 | 0:43.55 | 49551 | 52830
5 | 11:44.31 | 2:50.10 | 52831 | 65590
6 | 14:34.41 | 0:48.15 | 65591 | 69205
7 | 15:22.56 | 5:00.16 | 69206 | 91721
8 | 20:22.72 | 0:26.35 | 91722 | 93706
9 | 20:49.32 | 2:01.32 | 93707 | 102813
10 | 22:50.64 | 7:49.19 | 102814 | 138007
11 | 30:40.08 | 5:11.13 | 138008 | 161345
12 | 35:51.21 | 4:16.53 | 161346 | 180598
13 | 40:07.74 | 10:07.72 | 180599 | 226195
14 | 50:15.71 | 6:56.30 | 226196 | 257425
15 | 57:12.26 | 5:54.63 | 257426 | 284038
16 | 63:07.14 | 5:53.30 | 284039 | 310543
17 | 69:00.44 | 6:30.22 | 310544 | 339815
Track 1
Filename F:\Classical\00. Various Artists\Royal Concertgebouw Orch Anthology 4 (14 cd's)\RCO Live cd 08\01. Royal Concertgebouw Orchestra - JS Bach - Weichet nur, betrubte Schatten I (Jochum).wav
Peak level 79.7 %
Track quality 100.0 %
Copy CRC CCE21843
Accurately ripped (confidence 3) [FE9A990C]
Copy OK
Track 2
Filename F:\Classical\00. Various Artists\Royal Concertgebouw Orch Anthology 4 (14 cd's)\RCO Live cd 08\02. Royal Concertgebouw Orchestra - JS Bach - Weichet nur, betrubte Schatten II.wav
Peak level 71.7 %
Track quality 100.0 %
Copy CRC 3035FE7A
Accurately ripped (confidence 3) [ED5FB49E]
Copy OK
Track 3
Filename F:\Classical\00. Various Artists\Royal Concertgebouw Orch Anthology 4 (14 cd's)\RCO Live cd 08\03. Royal Concertgebouw Orchestra - JS Bach - Weichet nur, betrubte Schatten III.wav
Peak level 91.9 %
Track quality 100.0 %
Copy CRC 60764BF1
Accurately ripped (confidence 3) [AC221A79]
Copy OK
Track 4
Filename F:\Classical\00. Various Artists\Royal Concertgebouw Orch Anthology 4 (14 cd's)\RCO Live cd 08\04. Royal Concertgebouw Orchestra - JS Bach - Weichet nur, betrubte Schatten IV.wav
Peak level 84.3 %
Track quality 100.0 %
Copy CRC EB1A2A41
Accurately ripped (confidence 3) [3A9C72E5]
Copy OK
Track 5
Filename F:\Classical\00. Various Artists\Royal Concertgebouw Orch Anthology 4 (14 cd's)\RCO Live cd 08\05. Royal Concertgebouw Orchestra - JS Bach - Weichet nur, betrubte Schatten V.wav
Peak level 80.1 %
Track quality 100.0 %
Copy CRC B087A673
Accurately ripped (confidence 3) [A9166C50]
Copy OK
Track 6
Filename F:\Classical\00. Various Artists\Royal Concertgebouw Orch Anthology 4 (14 cd's)\RCO Live cd 08\06. Royal Concertgebouw Orchestra - JS Bach - Weichet nur, betrubte Schatten VI.wav
Peak level 81.7 %
Track quality 100.0 %
Copy CRC 0B1F3FA7
Accurately ripped (confidence 3) [3D0B98A5]
Copy OK
Track 7
Filename F:\Classical\00. Various Artists\Royal Concertgebouw Orch Anthology 4 (14 cd's)\RCO Live cd 08\07. Royal Concertgebouw Orchestra - JS Bach - Weichet nur, betrubte Schatten VII.wav
Peak level 85.0 %
Track quality 100.0 %
Copy CRC 36695454
Accurately ripped (confidence 3) [073DEF3D]
Copy OK
Track 8
Filename F:\Classical\00. Various Artists\Royal Concertgebouw Orch Anthology 4 (14 cd's)\RCO Live cd 08\08. Royal Concertgebouw Orchestra - JS Bach - Weichet nur, betrubte Schatten VIII.wav
Peak level 54.9 %
Track quality 99.2 %
Copy CRC 64BBBD00
Accurately ripped (confidence 3) [87A9A188]
Copy OK
Track 9
Filename F:\Classical\00. Various Artists\Royal Concertgebouw Orch Anthology 4 (14 cd's)\RCO Live cd 08\09. Royal Concertgebouw Orchestra - JS Bach - Weichet nur, betrubte Schatten IX.wav
Peak level 66.7 %
Track quality 99.8 %
Copy CRC CFE84692
Accurately ripped (confidence 3) [6BE49077]
Copy OK
Track 10
Filename F:\Classical\00. Various Artists\Royal Concertgebouw Orch Anthology 4 (14 cd's)\RCO Live cd 08\10. Royal Concertgebouw Orchestra - Mozart - Horn Concerto 4 in E flat I (tuckwell,Leitner).wav
Peak level 100.0 %
Track quality 100.0 %
Copy CRC 350E7DB8
Accurately ripped (confidence 3) [062B8EC3]
Copy OK
Track 11
Filename F:\Classical\00. Various Artists\Royal Concertgebouw Orch Anthology 4 (14 cd's)\RCO Live cd 08\11. Royal Concertgebouw Orchestra - Mozart - Horn Concerto 4 in E flat II.wav
Peak level 68.7 %
Track quality 100.0 %
Copy CRC C74DB707
Accurately ripped (confidence 3) [ACFE6CFF]
Copy OK
Track 12
Filename F:\Classical\00. Various Artists\Royal Concertgebouw Orch Anthology 4 (14 cd's)\RCO Live cd 08\12. Royal Concertgebouw Orchestra - Mozart - Horn Concerto 4 in E flat III.wav
Peak level 95.7 %
Track quality 100.0 %
Copy CRC 64B0D358
Accurately ripped (confidence 3) [78BD06CE]
Copy OK
Track 13
Filename F:\Classical\00. Various Artists\Royal Concertgebouw Orch Anthology 4 (14 cd's)\RCO Live cd 08\13. Royal Concertgebouw Orchestra - Schumann - Sym #3 'Rhenish' I (Leitner).wav
Peak level 96.0 %
Track quality 100.0 %
Copy CRC B13DAEBB
Accurately ripped (confidence 3) [33E43C6D]
Copy OK
Track 14
Filename F:\Classical\00. Various Artists\Royal Concertgebouw Orch Anthology 4 (14 cd's)\RCO Live cd 08\14. Royal Concertgebouw Orchestra - Schumann - Sym #3 'Rhenish' II.wav
Peak level 99.9 %
Track quality 100.0 %
Copy CRC CD0B3FF4
Accurately ripped (confidence 3) [E430EE72]
Copy OK
Track 15
Filename F:\Classical\00. Various Artists\Royal Concertgebouw Orch Anthology 4 (14 cd's)\RCO Live cd 08\15. Royal Concertgebouw Orchestra - Schumann - Sym #3 'Rhenish' III.wav
Peak level 40.7 %
Track quality 100.0 %
Copy CRC AAD4860D
Accurately ripped (confidence 3) [C31A0E0C]
Copy OK
Track 16
Filename F:\Classical\00. Various Artists\Royal Concertgebouw Orch Anthology 4 (14 cd's)\RCO Live cd 08\16. Royal Concertgebouw Orchestra - Schumann - Sym #3 'Rhenish' IV.wav
Peak level 77.2 %
Track quality 100.0 %
Copy CRC CF7E3ECF
Accurately ripped (confidence 3) [F5719861]
Copy OK
Track 17
Filename F:\Classical\00. Various Artists\Royal Concertgebouw Orch Anthology 4 (14 cd's)\RCO Live cd 08\17. Royal Concertgebouw Orchestra - Schumann - Sym #3 'Rhenish' V.wav
Peak level 98.7 %
Track quality 100.0 %
Copy CRC 251FA1AC
Accurately ripped (confidence 3) [0871480F]
Copy OK
All tracks accurately ripped
No errors occurred
End of status report


Disc: 9
1. Der Wein, concert aria for soprano & orchestra
2. Concerto for violin & orchestra
3. cummings ist der Dichter, for 16 solo voices, mixed chorus & chamber orchestra
4. Calmo, for soprano & chamber ensemble
5. Sonata for piano & 3 instrumental groups

Exact Audio Copy V0.99 prebeta 4 from 23. January 2008
EAC extraction logfile from 22. July 2009, 23:55
Unknown Artist / Unknown Title
Used drive : LITE-ON CD-RW SOHR-5239V Adapter: 1 ID: 1
Read mode : Secure
Utilize accurate stream : Yes
Defeat audio cache : Yes
Make use of C2 pointers : Yes
Read offset correction : 6
Overread into Lead-In and Lead-Out : No
Fill up missing offset samples with silence : Yes
Delete leading and trailing silent blocks : No
Null samples used in CRC calculations : No
Used interface : Native Win32 interface for Win NT & 2000
Gap handling : Not detected, thus appended to previous track
Used output format : User Defined Encoder
Selected bitrate : 768 kBit/s
Quality : High
Add ID3 tag : No
Command line compressor : C:\Program Files\Exact Audio Copy\FLAC\FLAC.EXE
Additional command line options : -6 -V -T "ARTIST=%a" -T "TITLE=%t" -T "ALBUM=%g" -T "DATE=%y" -T "TRACKNUMBER=%n" -T "GENRE=%m" -T "COMMENT=%e" %s -o %d
TOC of the extracted CD
Track | Start | Length | Start sector | End sector
––––––––––––––––––––––––––––-
1 | 0:00.00 | 13:04.72 | 0 | 58871
2 | 13:04.72 | 27:47.35 | 58872 | 183931
3 | 40:52.32 | 10:13.58 | 183932 | 229964
4 | 51:06.15 | 5:31.30 | 229965 | 254819
5 | 56:37.45 | 17:10.03 | 254820 | 332072
Track 1
Filename F:\Classical\00. Various Artists\Royal Concertgebouw Orch Anthology 4 (14 cd's)\RCO Live cd 09\01. Unknown Artist - Berg - Der Wein (Ameling, Leinsdorf).wav
Peak level 79.2 %
Track quality 100.0 %
Copy CRC 93BC6A1F
Accurately ripped (confidence 2) [206300B5]
Copy OK
Track 2
Filename F:\Classical\00. Various Artists\Royal Concertgebouw Orch Anthology 4 (14 cd's)\RCO Live cd 09\02. Unknown Artist - Maderna - Violin Concerto (Olof, Masson).wav
Peak level 99.9 %
Track quality 100.0 %
Copy CRC 988CD575
Accurately ripped (confidence 2) [E3E7F40A]
Copy OK
Track 3
Filename F:\Classical\00. Various Artists\Royal Concertgebouw Orch Anthology 4 (14 cd's)\RCO Live cd 09\03. Unknown Artist - Boulez - 'cummings ist der dichter…' (Gilbert Amy).wav
Peak level 99.9 %
Track quality 100.0 %
Copy CRC C2397881
Accurately ripped (confidence 2) [E03CB1C3]
Copy OK
Track 4
Filename F:\Classical\00. Various Artists\Royal Concertgebouw Orch Anthology 4 (14 cd's)\RCO Live cd 09\04. Unknown Artist - Berio - Calmo (Dorow, Masson).wav
Peak level 99.9 %
Track quality 100.0 %
Copy CRC 274B7354
Accurately ripped (confidence 2) [22039BDB]
Copy OK
Track 5
Filename F:\Classical\00. Various Artists\Royal Concertgebouw Orch Anthology 4 (14 cd's)\RCO Live cd 09\05. Unknown Artist - Vlijmen - Sonata per piano e tre gruppi instrumental (Bruins, Bour).wav
Peak level 99.9 %
Track quality 100.0 %
Copy CRC 157AC728
Accurately ripped (confidence 2) [27B459B5]
Copy OK
All tracks accurately ripped
No errors occurred
End of status report


Disc: 10
1. Variations on a Rococo Theme, for cello & orchestra (or cello & piano) in A major, Op. 33
2. Concerto in D, for string orchestra in D major ('Basel Concerto'): Vivace
3. Concerto in D, for string orchestra in D major ('Basel Concerto'): Arioso
4. Concerto in D, for string orchestra in D major ('Basel Concerto'): Rondo: Allegro
5. Symphony No. 3 in C minor ('Divine Poem'), Op. 43: Lento - Luttes: Allegro
6. Symphony No. 3 in C minor ('Divine Poem'), Op. 43: Voluptés: Lento
7. Symphony No. 3 in C minor ('Divine Poem'), Op. 43: Jeu divin: Allegro

Exact Audio Copy V0.99 prebeta 4 from 23. January 2008
EAC extraction logfile from 23. July 2009, 0:32
- / RCO Live cd 10
Used drive : LITE-ON CD-RW SOHR-5239V Adapter: 1 ID: 1
Read mode : Secure
Utilize accurate stream : Yes
Defeat audio cache : Yes
Make use of C2 pointers : Yes
Read offset correction : 6
Overread into Lead-In and Lead-Out : No
Fill up missing offset samples with silence : Yes
Delete leading and trailing silent blocks : No
Null samples used in CRC calculations : No
Used interface : Native Win32 interface for Win NT & 2000
Gap handling : Not detected, thus appended to previous track
Used output format : User Defined Encoder
Selected bitrate : 768 kBit/s
Quality : High
Add ID3 tag : No
Command line compressor : C:\Program Files\Exact Audio Copy\FLAC\FLAC.EXE
Additional command line options : -6 -V -T "ARTIST=%a" -T "TITLE=%t" -T "ALBUM=%g" -T "DATE=%y" -T "TRACKNUMBER=%n" -T "GENRE=%m" -T "COMMENT=%e" %s -o %d
TOC of the extracted CD
Track | Start | Length | Start sector | End sector
––––––––––––––––––––––––––––-
1 | 0:00.00 | 18:02.34 | 0 | 81183
2 | 18:02.34 | 6:03.14 | 81184 | 108422
3 | 24:05.48 | 2:34.24 | 108423 | 119996
4 | 26:39.72 | 3:50.13 | 119997 | 137259
5 | 30:30.10 | 24:47.03 | 137260 | 248787
6 | 55:17.13 | 11:42.15 | 248788 | 301452
7 | 66:59.28 | 9:35.52 | 301453 | 344629
Track 1
Filename F:\Classical\00. Various Artists\Royal Concertgebouw Orch Anthology 4 (14 cd's)\RCO Live cd 10\01. - Tchaikovsky - Variations on a Rococo Theme (Rostropovich, Kondrashin).wav
Peak level 99.9 %
Track quality 100.0 %
Copy CRC 17E4200D
Accurately ripped (confidence 3) [C97479CD]
Copy OK
Track 2
Filename F:\Classical\00. Various Artists\Royal Concertgebouw Orch Anthology 4 (14 cd's)\RCO Live cd 10\02. - Stravinsky - Concerto in D, I (Davis).wav
Peak level 75.8 %
Track quality 100.0 %
Copy CRC 5F49509A
Accurately ripped (confidence 3) [CD40DF4E]
Copy OK
Track 3
Filename F:\Classical\00. Various Artists\Royal Concertgebouw Orch Anthology 4 (14 cd's)\RCO Live cd 10\03. - Stravinsky - Concerto in D, II.wav
Peak level 50.8 %
Track quality 100.0 %
Copy CRC 394599B3
Accurately ripped (confidence 3) [AFE1D7A8]
Copy OK
Track 4
Filename F:\Classical\00. Various Artists\Royal Concertgebouw Orch Anthology 4 (14 cd's)\RCO Live cd 10\04. - Stravinsky - Concerto in D, III.wav
Peak level 100.0 %
Track quality 100.0 %
Copy CRC 6331744F
Accurately ripped (confidence 3) [CE40880C]
Copy OK
Track 5
Filename F:\Classical\00. Various Artists\Royal Concertgebouw Orch Anthology 4 (14 cd's)\RCO Live cd 10\05. - Skryabin - Sym #3, I (Kondrashin).wav
Peak level 99.9 %
Track quality 100.0 %
Copy CRC A301494B
Accurately ripped (confidence 3) [87EE7549]
Copy OK
Track 6
Filename F:\Classical\00. Various Artists\Royal Concertgebouw Orch Anthology 4 (14 cd's)\RCO Live cd 10\06. - Skryabin - Sym #3, II.wav
Peak level 78.5 %
Track quality 100.0 %
Copy CRC 8131A19C
Accurately ripped (confidence 3) [ACEA834C]
Copy OK
Track 7
Filename F:\Classical\00. Various Artists\Royal Concertgebouw Orch Anthology 4 (14 cd's)\RCO Live cd 10\07. - Skryabin - Sym #3, III.wav
Peak level 97.2 %
Track quality 100.0 %
Copy CRC FD807C2F
Accurately ripped (confidence 3) [A53B944E]
Copy OK
All tracks accurately ripped
No errors occurred
End of status report


Disc: 11
1. Piano Concerto in A minor, Op. 54: Allegro affettuoso
2. Piano Concerto in A minor, Op. 54: Intermezzo: Andantino grazioso
3. Piano Concerto in A minor, Op. 54: Allegro vivace
4. Chemins IV on Sequenza VII, for oboe & strings
5. Sinfonia for 10 instruments: Ritmo teso in tempo moderato
6. Sinfonia for 10 instruments: Passaggio: Lento
7. Sinfonia for 10 instruments: Lento
8. Sinfonia for 10 instruments: Vivo e leggiero

Exact Audio Copy V0.99 prebeta 4 from 23. January 2008
EAC extraction logfile from 23. July 2009, 1:11
Royal Concertgebouw Orchestra / RCO Live cd 11
Used drive : LITE-ON CD-RW SOHR-5239V Adapter: 1 ID: 1
Read mode : Secure
Utilize accurate stream : Yes
Defeat audio cache : Yes
Make use of C2 pointers : Yes
Read offset correction : 6
Overread into Lead-In and Lead-Out : No
Fill up missing offset samples with silence : Yes
Delete leading and trailing silent blocks : No
Null samples used in CRC calculations : No
Used interface : Native Win32 interface for Win NT & 2000
Gap handling : Not detected, thus appended to previous track
Used output format : User Defined Encoder
Selected bitrate : 768 kBit/s
Quality : High
Add ID3 tag : No
Command line compressor : C:\Program Files\Exact Audio Copy\FLAC\FLAC.EXE
Additional command line options : -6 -V -T "ARTIST=%a" -T "TITLE=%t" -T "ALBUM=%g" -T "DATE=%y" -T "TRACKNUMBER=%n" -T "GENRE=%m" -T "COMMENT=%e" %s -o %d
TOC of the extracted CD
Track | Start | Length | Start sector | End sector
––––––––––––––––––––––––––––-
1 | 0:00.00 | 16:30.42 | 0 | 74291
2 | 16:30.42 | 5:49.04 | 74292 | 100470
3 | 22:19.46 | 11:33.48 | 100471 | 152493
4 | 33:53.19 | 10:51.38 | 152494 | 201356
5 | 44:44.57 | 8:42.06 | 201357 | 240512
6 | 53:26.63 | 1:53.07 | 240513 | 248994
7 | 55:19.70 | 11:26.03 | 248995 | 300447
8 | 66:45.73 | 9:27.36 | 300448 | 343008
Track 1
Filename F:\Classical\00. Various Artists\Royal Concertgebouw Orch Anthology 4 (14 cd's)\RCO Live cd 11\01. Royal Concertgebouw Orchestra - Schumannn - Piano Concerto in a, I (Arrau, Jochum).wav
Peak level 100.0 %
Track quality 100.0 %
Copy CRC 0776E1A0
Accurately ripped (confidence 3) [04718AEB]
Copy OK
Track 2
Filename F:\Classical\00. Various Artists\Royal Concertgebouw Orch Anthology 4 (14 cd's)\RCO Live cd 11\02. Royal Concertgebouw Orchestra - Schumannn - Piano Concerto in a, II.wav
Peak level 52.5 %
Track quality 100.0 %
Copy CRC 290D6BD4
Accurately ripped (confidence 3) [781D4A0C]
Copy OK
Track 3
Filename F:\Classical\00. Various Artists\Royal Concertgebouw Orch Anthology 4 (14 cd's)\RCO Live cd 11\03. Royal Concertgebouw Orchestra - Schumannn - Piano Concerto in a, III.wav
Peak level 97.1 %
Track quality 100.0 %
Copy CRC 45CCA5DD
Accurately ripped (confidence 3) [30953873]
Copy OK
Track 4
Filename F:\Classical\00. Various Artists\Royal Concertgebouw Orch Anthology 4 (14 cd's)\RCO Live cd 11\04. Royal Concertgebouw Orchestra - Berio - Chemins IV (Berio).wav
Peak level 87.5 %
Track quality 100.0 %
Copy CRC 8F96530E
Accurately ripped (confidence 2) [C98590DB]
Copy OK
Track 5
Filename F:\Classical\00. Various Artists\Royal Concertgebouw Orch Anthology 4 (14 cd's)\RCO Live cd 11\05. Royal Concertgebouw Orchestra - Escher - Sinfonia per dieci strumenti I (de Leeuw).wav
Peak level 71.2 %
Track quality 99.9 %
Copy CRC 22FBE6D3
Accurately ripped (confidence 2) [967F1215]
Copy OK
Track 6
Filename F:\Classical\00. Various Artists\Royal Concertgebouw Orch Anthology 4 (14 cd's)\RCO Live cd 11\06. Royal Concertgebouw Orchestra - Escher - Sinfonia per dieci strumenti II.wav
Peak level 17.7 %
Track quality 100.0 %
Copy CRC AAAC9587
Accurately ripped (confidence 2) [26350899]
Copy OK
Track 7
Filename F:\Classical\00. Various Artists\Royal Concertgebouw Orch Anthology 4 (14 cd's)\RCO Live cd 11\07. Royal Concertgebouw Orchestra - Escher - Sinfonia per dieci strumenti III.wav
Peak level 76.5 %
Track quality 100.0 %
Copy CRC 3077D529
Accurately ripped (confidence 2) [3F00E322]
Copy OK
All tracks accurately ripped
No errors occurred
End of status report


Disc: 12
1. Serenade for orchestra in G major, Op. 95: Allegro moderato
2. Serenade for orchestra in G major, Op. 95: Vivace a Burlesca
3. Serenade for orchestra in G major, Op. 95: Andante semplice
4. Serenade for orchestra in G major, Op. 95: Allegro con spirito
5. Harp Concerto, Op. 25: Allegro giusto
6. Harp Concerto, Op. 25: Molto moderato
7. Harp Concerto, Op. 25: Liberamente capriccioso - Vivace
8. Trumpet Concerto No. 2: Mesto
9. Trumpet Concerto No. 2: Grave
10. Trumpet Concerto No. 2: Giocoso
11. Work(s): Danse

Exact Audio Copy V0.99 prebeta 4 from 23. January 2008
EAC extraction logfile from 23. July 2009, 1:49
Royal Concertgebouw Orchestra / RCO Live cd 12
Used drive : LITE-ON CD-RW SOHR-5239V Adapter: 1 ID: 1
Read mode : Secure
Utilize accurate stream : Yes
Defeat audio cache : Yes
Make use of C2 pointers : Yes
Read offset correction : 6
Overread into Lead-In and Lead-Out : No
Fill up missing offset samples with silence : Yes
Delete leading and trailing silent blocks : No
Null samples used in CRC calculations : No
Used interface : Native Win32 interface for Win NT & 2000
Gap handling : Not detected, thus appended to previous track
Used output format : User Defined Encoder
Selected bitrate : 768 kBit/s
Quality : High
Add ID3 tag : No
Command line compressor : C:\Program Files\Exact Audio Copy\FLAC\FLAC.EXE
Additional command line options : -6 -V -T "ARTIST=%a" -T "TITLE=%t" -T "ALBUM=%g" -T "DATE=%y" -T "TRACKNUMBER=%n" -T "GENRE=%m" -T "COMMENT=%e" %s -o %d
TOC of the extracted CD
Track | Start | Length | Start sector | End sector
––––––––––––––––––––––––––––-
1 | 0:00.00 | 13:03.07 | 0 | 58731
2 | 13:03.07 | 3:30.20 | 58732 | 74501
3 | 16:33.27 | 9:45.72 | 74502 | 118448
4 | 26:19.24 | 11:52.53 | 118449 | 171901
5 | 38:12.02 | 8:10.66 | 171902 | 208717
6 | 46:22.68 | 6:48.44 | 208718 | 239361
7 | 53:11.37 | 8:39.35 | 239362 | 278321
8 | 61:50.72 | 4:42.34 | 278322 | 299505
9 | 66:33.31 | 3:56.06 | 299506 | 317211
10 | 70:29.37 | 3:57.28 | 317212 | 335014
11 | 74:26.65 | 1:16.08 | 335015 | 340722
Track 1
Filename F:\Classical\00. Various Artists\Royal Concertgebouw Orch Anthology 4 (14 cd's)\RCO Live cd 12\01. Royal Concertgebouw Orchestra - Reger - Serenade in G, I (Jochum).wav
Peak level 77.8 %
Track quality 100.0 %
Copy CRC 12472CF8
Accurately ripped (confidence 2) [FA7DCAB3]
Copy OK
Track 2
Filename F:\Classical\00. Various Artists\Royal Concertgebouw Orch Anthology 4 (14 cd's)\RCO Live cd 12\02. Royal Concertgebouw Orchestra - Reger - Serenade in G, II.wav
Peak level 61.6 %
Track quality 100.0 %
Copy CRC 5902DA19
Accurately ripped (confidence 2) [0A7A1278]
Copy OK
Track 3
Filename F:\Classical\00. Various Artists\Royal Concertgebouw Orch Anthology 4 (14 cd's)\RCO Live cd 12\03. Royal Concertgebouw Orchestra - Reger - Serenade in G, III.wav
Peak level 70.9 %
Track quality 100.0 %
Copy CRC 2AD499C9
Accurately ripped (confidence 2) [10A0B147]
Copy OK
Track 4
Filename F:\Classical\00. Various Artists\Royal Concertgebouw Orch Anthology 4 (14 cd's)\RCO Live cd 12\04. Royal Concertgebouw Orchestra - Reger - Serenade in G, IV.wav
Peak level 99.9 %
Track quality 100.0 %
Copy CRC 9825C4A8
Accurately ripped (confidence 2) [0A2CE3A9]
Copy OK
Track 5
Filename F:\Classical\00. Various Artists\Royal Concertgebouw Orch Anthology 4 (14 cd's)\RCO Live cd 12\05. Royal Concertgebouw Orchestra - Ginastera - Harp Concerto, I (Vera Badings, Lopez-Cobos).wav
Peak level 97.0 %
Track quality 100.0 %
Copy CRC A70EDD74
Accurately ripped (confidence 2) [F83F4589]
Copy OK
Track 6
Filename F:\Classical\00. Various Artists\Royal Concertgebouw Orch Anthology 4 (14 cd's)\RCO Live cd 12\06. Royal Concertgebouw Orchestra - Ginastera - Harp Concerto, II.wav
Peak level 33.2 %
Track quality 100.0 %
Copy CRC 73243071
Accurately ripped (confidence 2) [A5125E99]
Copy OK
Track 7
Filename F:\Classical\00. Various Artists\Royal Concertgebouw Orch Anthology 4 (14 cd's)\RCO Live cd 12\07. Royal Concertgebouw Orchestra - Ginastera - Harp Concerto, III.wav
Peak level 99.9 %
Track quality 100.0 %
Copy CRC 7C412AA0
Accurately ripped (confidence 2) [2CA945F8]
Copy OK
Track 8
Filename F:\Classical\00. Various Artists\Royal Concertgebouw Orch Anthology 4 (14 cd's)\RCO Live cd 12\08. Royal Concertgebouw Orchestra - Jolivet - Trumpet Concerto, I (Andre, Fournet).wav
Peak level 99.8 %
Track quality 100.0 %
Copy CRC 6506BD00
Accurately ripped (confidence 2) [B95D4FB0]
Copy OK
Track 9
Filename F:\Classical\00. Various Artists\Royal Concertgebouw Orch Anthology 4 (14 cd's)\RCO Live cd 12\09. Royal Concertgebouw Orchestra - Jolivet - Trumpet Concerto, II.wav
Peak level 43.0 %
Track quality 100.0 %
Copy CRC 73B2B4C1
Accurately ripped (confidence 2) [21C1B993]
Copy OK
Track 10
Filename F:\Classical\00. Various Artists\Royal Concertgebouw Orch Anthology 4 (14 cd's)\RCO Live cd 12\10. Royal Concertgebouw Orchestra - Jolivet - Trumpet Concerto, III.wav
Peak level 99.9 %
Track quality 100.0 %
Copy CRC A8AE6FD1
Accurately ripped (confidence 2) [2F7BBCD9]
Copy OK
Track 11
Filename F:\Classical\00. Various Artists\Royal Concertgebouw Orch Anthology 4 (14 cd's)\RCO Live cd 12\11. Royal Concertgebouw Orchestra - Jolivet - Trumpet Concerto, IV.wav
Peak level 89.1 %
Track quality 100.0 %
Copy CRC 29F24BDC
Accurately ripped (confidence 2) [36FB2F68]
Copy OK
All tracks accurately ripped
No errors occurred
End of status report


Disc: 13
1. Concertino, for 12 instruments
2. Les Saisons de Verlaine, for voice & orchestra: 1. Le Printemps
3. Symphony No. 9 in D minor, WAB 109: Feierlich. Misterioso
4. Symphony No. 9 in D minor, WAB 109: Scherzo. Bewegt, lebhaft
5. Symphony No. 9 in D minor, WAB 109: Adagio. Langsam, feierlich

Exact Audio Copy V0.99 prebeta 4 from 23. January 2008
EAC extraction logfile from 23. July 2009, 2:19
Royal Concertgebouw Orchestra / Anthology Of The Royal Concertgebouw Orchestra, Vol. IV
Used drive : LITE-ON CD-RW SOHR-5239V Adapter: 1 ID: 1
Read mode : Secure
Utilize accurate stream : Yes
Defeat audio cache : Yes
Make use of C2 pointers : Yes
Read offset correction : 6
Overread into Lead-In and Lead-Out : No
Fill up missing offset samples with silence : Yes
Delete leading and trailing silent blocks : No
Null samples used in CRC calculations : No
Used interface : Native Win32 interface for Win NT & 2000
Gap handling : Not detected, thus appended to previous track
Used output format : User Defined Encoder
Selected bitrate : 768 kBit/s
Quality : High
Add ID3 tag : No
Command line compressor : C:\Program Files\Exact Audio Copy\FLAC\FLAC.EXE
Additional command line options : -6 -V -T "ARTIST=%a" -T "TITLE=%t" -T "ALBUM=%g" -T "DATE=%y" -T "TRACKNUMBER=%n" -T "GENRE=%m" -T "COMMENT=%e" %s -o %d
TOC of the extracted CD
Track | Start | Length | Start sector | End sector
––––––––––––––––––––––––––––-
1 | 0:00.00 | 6:43.39 | 0 | 30263
2 | 6:43.39 | 7:47.74 | 30264 | 65362
3 | 14:31.38 | 26:25.39 | 65363 | 184276
4 | 40:57.02 | 11:11.05 | 184277 | 234606
5 | 52:08.07 | 27:41.30 | 234607 | 359211
Track 1
Filename F:\Classical\00. Various Artists\Royal Concertgebouw Orch Anthology 4 (14 cd's)\RCO Live cd 13\01. Royal Concertgebouw Orchestra - Stravinsky- Concertino For 12 Instruments (Spanjaard).wav
Peak level 99.9 %
Track quality 99.9 %
Copy CRC 6319CBF7
Accurately ripped (confidence 2) [F8F6F3F8]
Copy OK
Track 2
Filename F:\Classical\00. Various Artists\Royal Concertgebouw Orch Anthology 4 (14 cd's)\RCO Live cd 13\02. Royal Concertgebouw Orchestra - Frederik Bon- Le Printemps (First Mouvement From 'Les Saisons De Verlaine') (Haitink).wav
Peak level 100.0 %
Track quality 100.0 %
Copy CRC C06DBD96
Accurately ripped (confidence 2) [E73E8394]
Copy OK
Track 3
Filename F:\Classical\00. Various Artists\Royal Concertgebouw Orch Anthology 4 (14 cd's)\RCO Live cd 13\03. Royal Concertgebouw Orchestra - Bruckner- Symphony No.9 In D Minor I. Feierlich. Misterioso (Giulini).wav
Peak level 98.5 %
Track quality 100.0 %
Copy CRC 0BB77EC5
Accurately ripped (confidence 2) [EA19E8C7]
Copy OK
Track 4
Filename F:\Classical\00. Various Artists\Royal Concertgebouw Orch Anthology 4 (14 cd's)\RCO Live cd 13\04. Royal Concertgebouw Orchestra - Bruckner- Symphony No.9 In D Minor II. Scherzo. Bewegt, Lebhaft.wav
Peak level 99.9 %
Track quality 100.0 %
Copy CRC 9AAB23CE
Accurately ripped (confidence 2) [A004CCC1]
Copy OK
Track 5
Filename F:\Classical\00. Various Artists\Royal Concertgebouw Orch Anthology 4 (14 cd's)\RCO Live cd 13\05. Royal Concertgebouw Orchestra - Bruckner- Symphony No.9 In D Minor III. Adagio. Langsam, Feierlich.wav
Peak level 99.9 %
Track quality 100.0 %
Copy CRC 1D5B6013
Track not present in AccurateRip database
Copy OK
4 track(s) accurately ripped
1 track(s) not present in the AccurateRip database
Some tracks could not be verified as accurate
No errors occurred
End of status report


Disc: 14
1. Symphony No. 35 in D major ('Haffner'), K. 385: Allegro con spirito
2. Symphony No. 35 in D major ('Haffner'), K. 385: Andante
3. Symphony No. 35 in D major ('Haffner'), K. 385: Menuetto
4. Symphony No. 35 in D major ('Haffner'), K. 385: Finale: Presto
5. épiphanie, for cello & orchestra: CortÃ..ge
6. épiphanie, for cello & orchestra: Cadence
7. épiphanie, for cello & orchestra: Danse des petits nÃ..gres
8. Symphony No. 4 in A major ('Italian'), Op. 90: Allegro vivace
9. Symphony No. 4 in A major ('Italian'), Op. 90: Andante con moto
10. Symphony No. 4 in A major ('Italian'), Op. 90: Con moto moderato
11. Symphony No. 4 in A major ('Italian'), Op. 90: Saltarello: Presto

Exact Audio Copy V0.99 prebeta 4 from 23. January 2008
EAC extraction logfile from 23. July 2009, 10:12
- / RCO Live cd 14
Used drive : LITE-ON CD-RW SOHR-5239V Adapter: 1 ID: 1
Read mode : Secure
Utilize accurate stream : Yes
Defeat audio cache : Yes
Make use of C2 pointers : Yes
Read offset correction : 6
Overread into Lead-In and Lead-Out : No
Fill up missing offset samples with silence : Yes
Delete leading and trailing silent blocks : No
Null samples used in CRC calculations : No
Used interface : Native Win32 interface for Win NT & 2000
Gap handling : Not detected, thus appended to previous track
Used output format : User Defined Encoder
Selected bitrate : 768 kBit/s
Quality : High
Add ID3 tag : No
Command line compressor : C:\Program Files\Exact Audio Copy\FLAC\FLAC.EXE
Additional command line options : -6 -V -T "ARTIST=%a" -T "TITLE=%t" -T "ALBUM=%g" -T "DATE=%y" -T "TRACKNUMBER=%n" -T "GENRE=%m" -T "COMMENT=%e" %s -o %d
TOC of the extracted CD
Track | Start | Length | Start sector | End sector
––––––––––––––––––––––––––––-
1 | 0:00.00 | 5:54.64 | 0 | 26613
2 | 5:54.64 | 9:24.67 | 26614 | 68980
3 | 15:19.56 | 3:08.39 | 68981 | 83119
4 | 18:28.20 | 4:30.63 | 83120 | 103432
5 | 22:59.08 | 9:50.26 | 103433 | 147708
6 | 32:49.34 | 5:24.11 | 147709 | 172019
7 | 38:13.45 | 6:40.10 | 172020 | 202029
8 | 44:53.55 | 11:28.19 | 202030 | 253648
9 | 56:21.74 | 5:47.67 | 253649 | 279740
10 | 62:09.66 | 6:36.48 | 279741 | 309488
11 | 68:46.39 | 6:11.63 | 309489 | 337376
Track 1
Filename F:\Classical\00. Various Artists\Royal Concertgebouw Orch Anthology 4 (14 cd's)\RCO Live cd 14\01. - Mozart- Symphony No.35 In D Major Kv385 'Haffner' I. Allegro Con Spirito (Harnoncourt).wav
Peak level 86.1 %
Track quality 100.0 %
Copy CRC C739BA2E
Accurately ripped (confidence 3) [4BA2E558]
Copy OK
Track 2
Filename F:\Classical\00. Various Artists\Royal Concertgebouw Orch Anthology 4 (14 cd's)\RCO Live cd 14\02. - Mozart- Symphony No.35 In D Major Kv385 'Haffner' II. Andante.wav
Peak level 65.2 %
Track quality 100.0 %
Copy CRC 72DD701B
Accurately ripped (confidence 3) [DD13FABA]
Copy OK
Track 3
Filename F:\Classical\00. Various Artists\Royal Concertgebouw Orch Anthology 4 (14 cd's)\RCO Live cd 14\03. - Mozart- Symphony No.35 In D Major Kv385 'Haffner' III. Menuetto.wav
Peak level 79.4 %
Track quality 100.0 %
Copy CRC 987EF6A2
Accurately ripped (confidence 3) [8EF11E0B]
Copy OK
Track 4
Filename F:\Classical\00. Various Artists\Royal Concertgebouw Orch Anthology 4 (14 cd's)\RCO Live cd 14\04. - Mozart- Symphony No.35 In D Major Kv385 'Haffner' IV. Finale - Presto.wav
Peak level 99.9 %
Track quality 100.0 %
Copy CRC 8E0FD26E
Accurately ripped (confidence 3) [1E758160]
Copy OK
Track 5
Filename F:\Classical\00. Various Artists\Royal Concertgebouw Orch Anthology 4 (14 cd's)\RCO Live cd 14\05. - Caplet- Epiphanie, Fresque Pour Violoncelle Et Orchestre. I. Cortege (Fournet).wav
Peak level 73.5 %
Track quality 100.0 %
Copy CRC 04A28690
Accurately ripped (confidence 3) [3633FC38]
Copy OK
Track 6
Filename F:\Classical\00. Various Artists\Royal Concertgebouw Orch Anthology 4 (14 cd's)\RCO Live cd 14\06. - Caplet- Epiphanie, Fresque Pour Violoncelle Et Orchestre. II. Cadence.wav
Peak level 38.7 %
Track quality 99.9 %
Copy CRC FD652896
Accurately ripped (confidence 2) [898D735D]
Copy OK
Track 7
Filename F:\Classical\00. Various Artists\Royal Concertgebouw Orch Anthology 4 (14 cd's)\RCO Live cd 14\07. - Caplet- Epiphanie, Fresque Pour Violoncelle Et Orchestre. III. Danse Des Petits Negres.wav
Peak level 99.9 %
Track quality 100.0 %
Copy CRC DAEB2855
Accurately ripped (confidence 2) [7D47BDD4]
Copy OK
Track 8
Filename F:\Classical\00. Various Artists\Royal Concertgebouw Orch Anthology 4 (14 cd's)\RCO Live cd 14\08. - Mendelssohn- Symphony No.4 In A Major 'Italian' I. Allegro Vivace (Kondrashin).wav
Peak level 99.9 %
Track quality 100.0 %
Copy CRC AA33CF2F
Accurately ripped (confidence 3) [D5128212]
Copy OK
Track 9
Filename F:\Classical\00. Various Artists\Royal Concertgebouw Orch Anthology 4 (14 cd's)\RCO Live cd 14\09. - Mendelssohn- Symphony No.4 In A Major 'Italian' II. Andante Con Moto.wav
Peak level 39.2 %
Track quality 100.0 %
Copy CRC 3503569D
Accurately ripped (confidence 3) [ADCAF24E]
Copy OK
Track 10
Filename F:\Classical\00. Various Artists\Royal Concertgebouw Orch Anthology 4 (14 cd's)\RCO Live cd 14\10. - Mendelssohn- Symphony No.4 In A Major 'Italian' III. Con Moto Moderato.wav
Peak level 70.8 %
Track quality 100.0 %
Copy CRC A8BAB4C6
Accurately ripped (confidence 3) [B8D73D13]
Copy OK
Track 11
Filename F:\Classical\00. Various Artists\Royal Concertgebouw Orch Anthology 4 (14 cd's)\RCO Live cd 14\11. - Mendelssohn- Symphony No.4 In A Major 'Italian' IV. Saltarello - Presto.wav
Peak level 99.9 %
Track quality 100.0 %
Copy CRC 6FFBE071
Accurately ripped (confidence 2) [23FFF59A]
Copy OK
All tracks accurately ripped
No errors occurred
End of status report


Thanks to original ripper.