Subcategories

Anthony Gomes - Electric Field Holler (2015) {Bonus Edition}

Posted By: popsakov
Anthony Gomes - Electric Field Holler (2015) {Bonus Edition}

Anthony Gomes - Electric Field Holler (2015) {Bonus Edition}
EAC Rip | FLAC (Img) + Cue + Log ~ 368 Mb | MP3 CBR320 ~ 147 Mb
Full Scans (JPG, 600 dpi) | RAR 5% Recovery
Blues Rock | up 2 zero #658049112125

Anthony has returned this time with a hard rocking blues masterpiece! Fans of the power trio sound will love the heavy guitar and amazing solo's that seem to make there way into every song! Starting off with Turn It Up the mood is set with what will be one of the bluesman's best CD's in years! Gomes blues fans will not be disappointed as he gets his blues on with such songs as Whiskey Train and The Blues Ain't The Blues No More! Clearly Anthony is "BETTER THAN BACK" with this high energy CD!
~ Amazon

Canadian-born guitarist, singer, and songwriter Anthony Gomes is a critically acclaimed chart-topping artist who plays a style of modern electric blues that incorporates elements of rock, soul, R&B, and country. Born in 1975 in Toronto, Canada, to a Portuguese father and a Canadian mother, he began playing guitar in his early teens and moved to Chicago, IL, in the late '90s with hopes of establishing himself as a musician. After honing his craft on the Windy City club circuit, he moved to Nashville, TN, where he found a home for himself amid the city's renowned music scene.

Gomes made his recording debut in 1998 on the Urban Electric label with Blues in Technicolor, followed by Sweet Stringin' Soul in 2000. In 2002 he switched to 33rd Street Records for Unity and proceeded to win the 2003 BluesWax Artist of the Year award. This accolade elevated Gomes to the top of the blues field, and consequently he was able to draw increasingly larger crowds to his live performances, which increased in frequency and scope. Though he didn't release another album until 2006, Gomes' endless touring kept him atop the blues field, as he continued to be nominated for BluesWax Artist of the Year awards several years in a row.

Gomes' fourth album, Music Is the Medicine (2006), released on the Adrenaline Music label, was his first to chart, peaking at number four on the Billboard Top Blues Albums chart. During his supporting tour of the album, the February 27, 2007, show at the Triple Door in Seattle, WA, was recorded and subsequently released in 2008 as the album Live. It features his band, the New Soul Cowboys, comprised of David Karns (bass, vocals), Peter Lang (drums), and Dylan St. John (keyboards, vocals). The first of his albums to document his on-stage performance ability, Live was his greatest commercial success to date, reaching number one on the Billboard Top Blues Albums chart.
~ Jason Birchmeier, All Music

***************

Anthony Gomes - Electric Field Holler (2015) {Bonus Edition}

Anthony Gomes - Electric Field Holler (2015) {Bonus Edition}

Track List:

01. Turn It Up! [3:19]
02. Back Door Scratchin' [3:25]
03. Whiskey Train [3:59]
04. Blueschild [3:58]
05. Nowhere Is Home [4:09]
06. Losing Game [3:33]
07. The Blues Ain't The Blues No More [2:28]
08. Junk In The Trunk [2:51]
09. Love Crazy [3:23]
10. Red Handed Blues [4:04]
11. Delta Raga [0:29]
12. Listen To The Universe [4:28]
13. It's The Way (You Make Me Feel) (bonus) [3:40]

Exact Audio Copy V1.0 beta 3 from 29. August 2011

Отчёт EAC об извлечении, выполненном 7. декабря 2017, 11:32

Anthony Gomes / Electric Field Holler (bonus edition)

Дисковод: ATAPI iHAS424 A Adapter: 0 ID: 0

Режим чтения : Достоверность
Использование точного потока : Да
Отключение кэша аудио : Да
Использование указателей C2 : Нет

Коррекция смещения при чтении : 6
Способность читать области Lead-in и Lead-out : Нет
Заполнение пропущенных сэмплов тишиной : Да
Удаление блоков с тишиной в начале и конце : Нет
При вычислениях CRC использовались нулевые сэмплы : Да
Интерфейс : Установленный внешний ASPI-интерфейс

Выходной формат : Пользовательский кодировщик
Выбранный битрейт : 1024 kBit/s
Качество : Высокий
Добавление ID3-тега : Нет
Утилита сжатия : C:\Program Files\Exact Audio Copy\FLAC\FLAC.EXE
Дополнительные параметры : -8 -V -T "ARTIST=%artist%" -T "ALBUM=%albumtitle%" -T "DATE=%year%" -T "GENRE=%genre%" -T "COMMENT=ripped by izia1956" %source%


TOC извлечённого CD

Трек | Старт | Длительность | Начальный сектор | Конечный сектор
––––––––––––––––––––––––––––––––––-
1 | 0:00.00 | 3:18.54 | 0 | 14903
2 | 3:18.54 | 3:24.55 | 14904 | 30258
3 | 6:43.34 | 3:59.33 | 30259 | 48216
4 | 10:42.67 | 3:58.01 | 48217 | 66067
5 | 14:40.68 | 4:08.71 | 66068 | 84738
6 | 18:49.64 | 3:32.54 | 84739 | 100692
7 | 22:22.43 | 2:27.72 | 100693 | 111789
8 | 24:50.40 | 2:50.63 | 111790 | 124602
9 | 27:41.28 | 3:22.39 | 124603 | 139791
10 | 31:03.67 | 4:04.27 | 139792 | 158118
11 | 35:08.19 | 0:29.10 | 158119 | 160303
12 | 35:37.29 | 4:27.57 | 160304 | 180385
13 | 40:05.11 | 3:40.09 | 180386 | 196894


Характеристики диапазона извлечения и сообщения об ошибках

Выбранный диапазон

Имя файла D:\BitComet\Anthony Gomes\2015 - Electric Field Holler (bonus edition)\Anthony Gomes - Electric Field Holler (bonus edition).wav

Пиковый уровень 100.0 %
Скорость извлечения 5.4 X
Качество диапазона 100.0 %
CRC теста 533AA081
CRC копии 533AA081
Копирование… OK

Ошибок не произошло


AccurateRip: сводка

Трек 1 отсутствует в базе данных
Трек 2 отсутствует в базе данных
Трек 3 отсутствует в базе данных
Трек 4 отсутствует в базе данных
Трек 5 отсутствует в базе данных
Трек 6 отсутствует в базе данных
Трек 7 отсутствует в базе данных
Трек 8 отсутствует в базе данных
Трек 9 отсутствует в базе данных
Трек 10 отсутствует в базе данных
Трек 11 отсутствует в базе данных
Трек 12 отсутствует в базе данных
Трек 13 отсутствует в базе данных

Ни одного трека нет в базе AccurateRip

Конец отчёта

==== Контрольная сумма отчёта CCD4A9989D65AA638A651CB855B83279A6B6FD6AC79D338603FB229C1E94C3C5 ====

foobar2000 1.3.16 / Dynamic Range Meter 1.1.1
log date: 2017-12-08 01:32:15

––––––––––––––––––––––––––––––––––––––––
Analyzed: Anthony Gomes / Electric Field Holler (bonus edition)
––––––––––––––––––––––––––––––––––––––––

DR Peak RMS Duration Track
––––––––––––––––––––––––––––––––––––––––
DR7 -0.30 dB -8.48 dB 3:19 01-Turn It Up!
DR7 -0.30 dB -8.75 dB 3:25 02-Back Door Scratchin'
DR8 -0.30 dB -8.95 dB 3:59 03-Whiskey Train
DR8 -0.30 dB -9.44 dB 3:58 04-Blueschild
DR7 -0.30 dB -7.47 dB 4:09 05-Nowhere Is Home
DR7 -0.30 dB -7.86 dB 3:33 06-Losing Game
DR10 -0.30 dB -10.90 dB 2:28 07-The Blues Ain't The Blues No More
DR8 -0.30 dB -8.86 dB 2:51 08-Junk In The Trunk
DR7 -0.30 dB -8.66 dB 3:23 09-Love Crazy
DR7 -0.30 dB -8.66 dB 4:04 10-Red Handed Blues
DR12 -1.68 dB -16.80 dB 0:29 11-Delta Raga
DR7 -0.30 dB -8.46 dB 4:28 12-Listen To The Universe
DR10 0.00 dB -10.87 dB 3:40 13-It's The Way (You Make Me Feel) (bonus)
––––––––––––––––––––––––––––––––––––––––

Number of tracks: 13
Official DR value: DR8

Samplerate: 44100 Hz
Channels: 2
Bits per sample: 16
Bitrate: 992 kbps
Codec: FLAC
================================================================================

[CUETools log; Date: 08.12.2017 1:32:22; Version: 2.1.5]
[CTDB TOCID: o449mxvLbqJlekNjqzcx0SPjlIg-] found.
Track | CTDB Status
1 | (1/1) Accurately ripped
2 | (1/1) Accurately ripped
3 | (1/1) Accurately ripped
4 | (1/1) Accurately ripped
5 | (1/1) Accurately ripped
6 | (1/1) Accurately ripped
7 | (1/1) Accurately ripped
8 | (1/1) Accurately ripped
9 | (1/1) Accurately ripped
10 | (1/1) Accurately ripped
11 | (1/1) Accurately ripped
12 | (1/1) Accurately ripped
13 | (1/1) Accurately ripped
[AccurateRip ID: 00159e41-00d62933-930a410d] disk not present in database.

Track Peak [ CRC32 ] [W/O NULL] [ LOG ]
– 100,0 [533AA081] [946650FE] CRC32
01 96,6 [F15FE5EE] [0FEB8FA9]
02 96,6 [48A3BA3B] [F4D2FC60]
03 96,6 [C606DAFE] [56F7C01E]
04 96,6 [AE7359BA] [03E3BC70]
05 96,6 [2DCFDA06] [E87CF58E]
06 96,6 [179107A7] [B8BDCC48]
07 96,6 [89258323] [4C37E1E2]
08 96,6 [0A94667A] [ECD3D01E]
09 96,6 [9DF2727A] [19AC2191]
10 96,6 [A61DD851] [5B9D3D57]
11 82,4 [53173C9D] [247FB778]
12 96,6 [36D350AA] [E769E70C]
13 100,0 [F90F4F39] [C724C906]

Anthony Gomes - Electric Field Holler (2015) {Bonus Edition}

All thanks go to izia1956

>>> Anthony Gomes in my Blog <<<

Download from icerbox.com: