Tags
Language
Tags

Anthony - Pools Of Sorrow ~ Waves Of Joy (1993) {Japan 1st Press}

Posted By: popsakov
Anthony - Pools Of Sorrow ~ Waves Of Joy (1993) {Japan 1st Press}

Anthony - Pools Of Sorrow ~ Waves Of Joy (1993) {Japan 1st Press}
EAC Rip | FLAC (Img) + Cue + Log ~ 325 Mb | MP3 CBR320 ~ 114 Mb
Full Scans ~ 68 Mb | RAR 5% Recovery
Progressive Rock, Psychedelic Rock, Hard Rock | Zero Corporation #XRCN-1143

Pools of Sorrow, Waves of Joy is the debut solo album of Dutch composer, singer, and multi-instrumentalist Arjen Anthony Lucassen, released under the name Anthony. He sang leading vocals and played most of the instruments himself. However unlike most of his future works Lucassen doesn't play bass, with Peter Vink (future member of Lucassen's band Star One and future contributor of Lucassen's project Ayreon) playing all bass. The name of the album comes from the song "Across the Universe" (by The Beatles), one of Lucassen's favorite songs.

Dutch multi-instrumentalist Arjen Anthony Lucassen has been involved in a number of different projects in his two-decade-plus career. Most notable among these was heavy metal band Vengeance in the 1980s, and in the '90s, the progressively experimental Ayreon, whose every album featured guest vocalists like Kingdom Come's Lenny Wolfe, Marillion's Fish, and the Gathering's Anneke van Giersbergen – usually enacting different characters in virtual art rock operas. Somewhere in between lay his new millennium project Arjen Anthony Lucassen's Star One, whose grandiose ambitions were pretty much described by 2002's Space Metal and its live companion piece of a year later, Live on Earth. Both also featured a revolving cast of guest performers, including Rising Force and Stratovarious alum Jens Johansson, Edge of Sanity singer/guitarist Dan Swano, and Shadow Gallery guitarist Gary Wehrkamp. Another project, Stream of Passion, featured Lucassen with Mexican singer Marcela Bovio; that band released several albums during the 2000s and 2010s.

***************

Anthony - Pools Of Sorrow ~ Waves Of Joy (1993) {Japan 1st Press}

Anthony - Pools Of Sorrow ~ Waves Of Joy (1993) {Japan 1st Press}

Track List:

01. Wrong Side Of The Street [5:19]
02. Best Of Friends [3:10]
03. Crescendo [3:40]
04. Cry Yourself To Sleep [2:30]
05. Little Miss Understood [4:44]
06. Escape [4:21]
07. Country Girl, City Boy [2:43]
08. Summer's In The Air [2:33]
09. Days Of The Knights [3:17]
10. Not Over You [3:38]
11. Night On The Town [2:46]
12. A-Losin' You [3:48]
13. Midnight Train [2:51]
14. Pools Of Sorrow [1:57]

Personnel:
Arjen Anthony Lucassen - Electric Guitar, Acoustic Guitar, Banjo, Mandolin, Lute, Keyboards, Drum Programming, Vocals, Backing Vocals
Peter Vink - bass
Cleem Determeijer - Keyboards
Debbie Schreuder - Backing Vocals
Mirjam van Doorn - Backing Vocals

Exact Audio Copy V1.0 beta 6 from 9. April 2015

Отчёт EAC об извлечении, выполненном 27. марта 2019, 20:53

Anthony / Pools Of Sorrow ~ Waves Of Joy

Дисковод: PIONEER DVD-RW DVR-115D Adapter: 1 ID: 0

Режим чтения : Достоверность
Использование точного потока : Да
Отключение кэша аудио : Да
Использование указателей C2 : Нет

Коррекция смещения при чтении : 48
Способность читать области Lead-in и Lead-out : Нет
Заполнение пропущенных сэмплов тишиной : Да
Удаление блоков с тишиной в начале и конце : Нет
При вычислениях CRC использовались нулевые сэмплы : Да
Интерфейс : Встроенный Win32-интерфейс для Win NT/2000

Выходной формат : Пользовательский кодировщик
Выбранный битрейт : 768 kBit/s
Качество : Высокий
Добавление ID3-тега : Нет
Утилита сжатия : C:\Program Files (x86)\Exact Audio Copy\FLAC\FLAC.EXE
Дополнительные параметры : -6 -V -T "ARTIST=%artist%" -T "TITLE=%title%" -T "ALBUM=%albumtitle%" -T "DATE=%year%" -T "TRACKNUMBER=%tracknr%" -T "GENRE=%genre%" -T "COMMENT=%comment%" -T "BAND=%albuminterpret%" -T "ALBUMARTIST=%albuminterpret%" -T "COMPOSER=%composer%" %haslyrics%–tag-from-file=LYRICS="%lyricsfile%"%haslyrics% -T "DISCNUMBER=%cdnumber%" -T "TOTALDISCS=%totalcds%" -T "TOTALTRACKS=%numtracks%" %hascover%–picture="%coverfile%"%hascover% %source% -o %dest%


TOC извлечённого CD

Трек | Старт | Длительность | Начальный сектор | Конечный сектор
––––––––––––––––––––––––––––––––––-
1 | 0:00.00 | 5:19.05 | 0 | 23929
2 | 5:19.05 | 3:09.52 | 23930 | 38156
3 | 8:28.57 | 3:40.30 | 38157 | 54686
4 | 12:09.12 | 2:30.30 | 54687 | 65966
5 | 14:39.42 | 4:44.18 | 65967 | 87284
6 | 19:23.60 | 4:21.00 | 87285 | 106859
7 | 23:44.60 | 2:43.30 | 106860 | 119114
8 | 26:28.15 | 2:33.35 | 119115 | 130624
9 | 29:01.50 | 3:16.72 | 130625 | 145396
10 | 32:18.47 | 3:37.38 | 145397 | 161709
11 | 35:56.10 | 2:45.40 | 161710 | 174124
12 | 38:41.50 | 3:47.42 | 174125 | 191191
13 | 42:29.17 | 2:50.50 | 191192 | 203991
14 | 45:19.67 | 1:56.60 | 203992 | 212751


Характеристики диапазона извлечения и сообщения об ошибках

Выбранный диапазон

Имя файла C:\Users\Дмитрий\Downloads\002\Anthony - Pools Of Sorrow - Waves Of Joy\Anthony - Pools Of Sorrow ~ Waves Of Joy.wav

Пиковый уровень 100.0 %
Скорость извлечения 6.9 X
Качество диапазона 100.0 %
CRC теста 5F2F2685
CRC копии 5F2F2685
Копирование… OK

Ошибок не произошло

Конец отчёта

–– CUETools DB Plugin V2.1.6

[CTDB TOCID: kyZiZX9DZoRxLJy0fww2yqAyVLw-] found
Submit result: kyZiZX9DZoRxLJy0fww2yqAyVLw- has been confirmed
Track | CTDB Status
1 | (3/3) Accurately ripped
2 | (3/3) Accurately ripped
3 | (3/3) Accurately ripped
4 | (3/3) Accurately ripped
5 | (3/3) Accurately ripped
6 | (3/3) Accurately ripped
7 | (3/3) Accurately ripped
8 | (3/3) Accurately ripped
9 | (3/3) Accurately ripped
10 | (3/3) Accurately ripped
11 | (3/3) Accurately ripped
12 | (3/3) Accurately ripped
13 | (3/3) Accurately ripped
14 | (3/3) Accurately ripped


==== Контрольная сумма отчёта C799CE7153012C79A94E57A5EB063AB1843A77325310DE5F54351C5AE4E65F85 ====

Anthony - Pools Of Sorrow ~ Waves Of Joy (1993) {Japan 1st Press}

All thanks go to Димон Фурнье

>>> My Blog <<<

Download from icerbox.com: