Subcategories

Anthrax - Fistful Of Anthrax (1987) (Japanese P33R-20007)

Posted By: apocalipsys2014
Anthrax - Fistful Of Anthrax (1987) (Japanese P33R-20007)

Anthrax - Fistful Of Anthrax (1987)
Year & Label: 1987 Megaforce Worldwide/Polystar Co., Ltd Japan | CD#: P33R-20007
Flac (image) | MP3 CBR 320 Kbps | Artwork (JPG, 300 dpi) | File-hosts: FileSonic & FileServe
Thrash Metal | FLAC: 320 MB | MP3: 100 MB | Artwork: 30 MB | 5% WinRAR Recovery

EAC Secure-rip with LOG+CUE+COVERS | Source: torrent
Japanese Edition 'Fistful of Metal' album, 1st Press CD + 2 bonus

Anthrax's lineup had not yet solidified when they recorded their debut album, and neither had their style. Fans of the group's peak-period material are likely to find Fistful of Metal off-putting, as the band sounds more like a Judas Priest knockoff with rather silly, stereotypical heavy metal lyrics than the thrash innovators they would become. Bassist Dan Lilker, who subsequently left to form Nuclear Assault, is present for this album, while vocalist Joey Belladonna is not.
Anthrax Official Homepage
Anthrax Wikipedia
Anthrax at MySpace.com

Musicians:

Vocals : Neil Turbin
Vocals : Joey Belladonna (track 6 & 12)
Rhytm Guitar : Scott Ian
Guitar : Dan Spitz
Bass : Dan Lilker
Bass : Frank Bello (track 6 & 12)
Drums : Charlie Benante

Produced by Carl Canedy and Anthrax
Recorded at: Pyramid Sound, N.Y.
Mastering Engineer: Jack Skinner at Sterling Sound, N.Y.
Mechanical Art by: SHAROLD Studios

Track List:

01. Deathrider [3:11]
02. Metal Thrashing Mad [2:41]
03. I'm Eighteen [4:06]
04. Panic [4:01]
05. Subjugator [4:42]
06. Raising Hell (featuring Joey Belladonna) [4:01]
07. Soldiers Of Metal [2:57]
08. Death From Above [5:10]
09. Anthrax [3:29]
10. Across The River [1:27]
11. Howling Furies [3:55]
12. Panic (Live featuring Joey Belladonna) [3:43]

Exact Audio Copy V0.99 prebeta 4 from 23. January 2008

EAC extraction logfile from 7. December 2010, 20:33

Anthrax / Fistful Of Anthrax (P33R-20007)

Used drive : PLEXTOR DVDR PX-760A Adapter: 0 ID: 0

Read mode : Secure
Utilize accurate stream : Yes
Defeat audio cache : Yes
Make use of C2 pointers : No

Read offset correction : 30
Overread into Lead-In and Lead-Out : No
Fill up missing offset samples with silence : Yes
Delete leading and trailing silent blocks : No
Null samples used in CRC calculations : Yes
Used interface : Installed external ASPI interface

Used output format : Internal WAV Routines
Sample format : 44.100 Hz; 16 Bit; Stereo


TOC of the extracted CD

Track | Start | Length | Start sector | End sector
––––––––––––––––––––––––––––-
1 | 0:00.00 | 3:10.62 | 0 | 14311
2 | 3:10.62 | 2:40.45 | 14312 | 26356
3 | 5:51.32 | 4:05.65 | 26357 | 44796
4 | 9:57.22 | 4:01.03 | 44797 | 62874
5 | 13:58.25 | 4:42.05 | 62875 | 84029
6 | 18:40.30 | 4:01.10 | 84030 | 102114
7 | 22:41.40 | 2:56.72 | 102115 | 115386
8 | 25:38.37 | 5:09.53 | 115387 | 138614
9 | 30:48.15 | 3:28.70 | 138615 | 154284
10 | 34:17.10 | 1:26.52 | 154285 | 160786
11 | 35:43.62 | 3:55.03 | 160787 | 178414
12 | 39:38.65 | 3:42.52 | 178415 | 195116


Range status and errors

Selected range

Filename D:\bki71\Anthrax\Anthrax - Fistful Of Anthrax (P33R-20007).wav

Peak level 71.8 %
Range quality 100.0 %
Test CRC 9EB1DD76
Copy CRC 9EB1DD76
Copy OK

No errors occurred


AccurateRip summary

Track 1 accurately ripped (confidence 2) [37F6C64D]
Track 2 accurately ripped (confidence 2) [483D32D4]
Track 3 accurately ripped (confidence 2) [43C46A98]
Track 4 accurately ripped (confidence 2) [338192BB]
Track 5 accurately ripped (confidence 2) [B108BD37]
Track 6 accurately ripped (confidence 2) [61FFC36E]
Track 7 accurately ripped (confidence 2) [D873477C]
Track 8 accurately ripped (confidence 2) [468BD226]
Track 9 accurately ripped (confidence 2) [2C8151D6]
Track 10 accurately ripped (confidence 2) [AA70B0BE]
Track 11 accurately ripped (confidence 2) [F80B11F3]
Track 12 accurately ripped (confidence 2) [37BF0CA2]

All tracks accurately ripped

End of status report

Not my rip, not my scan-job. Thx very much to the original uploader Long Metalhead (MMT) !
5% WinRar Recovery Record for all files.
Try before you might buy. Support the artists you like and buy their stuff whenever you can afford it.
FLAC, image + artwork at FileSonic.com
FLAC Part 1 + FLAC Part 2 + FLAC Part 3 + FLAC Part 4
Mp3 320 kbps

FLAC, image + artwork at FileServe.com
FLAC Part 1 + FLAC Part 2 + FLAC Part 3 + FLAC Part 4
Mp3 320 kbps