Subcategories

Anthrax: Singles & EP's Collection part 2 (1990-1993)

Posted By: v3122
Anthrax: Singles & EP's Collection part 2 (1990-1993)

Anthrax: Singles & EP's Collection part 2 (1990-1993)
EAC | Flac(Image) + Cue + Log & MP3 CBR 320Kbps
6CD | Label: Various | ~ 765 or 334 Mb | Scans(jpg) -> 31 Mb
Thrash Metal

Anthrax is an American heavy metal band from New York City, formed in 1981 by rhythm guitarist Scott Ian and bassist Dan Lilker. The group was considered one of the leaders of the thrash metal scene during the 1980s and is one of the "Big Four" thrash metal bands with Metallica, Megadeth, and Slayer; Anthrax is the only one of the four from the East Coast. As of April 2017, the band has released 11 studio albums, several other albums, and 26 singles, including collaborating on a single with American hip hop group Public Enemy. According to Nielsen SoundScan, Anthrax sold 2.5 million records in the United States from 1991 to 2004, with worldwide sales of 10 million.

Noted for its live performances, Anthrax signed with the independent label Megaforce Records, which released the band's debut studio album in 1984. Lilker soon left the band to form Nuclear Assault, and was replaced by roadie Frank Bello. Lead vocalist Neil Turbin was replaced after two years by Matt Fallon, who was then subsequently replaced in 1984 by Joey Belladonna. With a new lineup, the band recorded Spreading the Disease (distributed by Island Records) in 1985. Anthrax's third album, Among the Living, was released in 1987 to critical praise. The band experienced another lineup change in 1992, when John Bush from Armored Saint replaced Belladonna as lead vocalist. Sound of White Noise was released the following year, peaking at number seven on the Billboard 200. Studio recordings during the 1990s saw the band, influenced by other genres, experimenting with its sound.

Anthrax's lineup has changed several times over their career. The band has had a number of vocalists including Neil Turbin, Joey Belladonna, Dan Nelson and John Bush. Founding member Scott Ian and early arrival Charlie Benante, who joined Anthrax in 1983, are the only band members to appear on every album. Bassist Frank Bello has played on every album, except for the band's debut Fistful of Metal, which featured Dan Lilker. After briefly rejoining the band from 2005 to 2007, Belladonna returned to Anthrax once again in 2010, and the band has since recorded two more studio albums with him: Worship Music (2011) and For All Kings (2016)…

~ wiki
Anthrax: Singles & EP's Collection part 2 (1990-1993)


Anthrax: Singles & EP's Collection part 2 (1990-1993):

Anthrax: Singles & EP's Collection part 2 (1990-1993)

Tracklist CD1 - 1990 - In My World (UK Island Records CID 470/878 041-2):

01. In My World (6:26)
02. Keep It In The Family (7:08)

Exact Audio Copy V0.99 prebeta 5 from 4. May 2009

EAC extraction logfile from 4. June 2012, 16:25

Anthrax / In My World (UK Island CID 470)

Used drive : PIONEER DVD-RW DVR-215 Adapter: 5 ID: 0

Read mode : Secure
Utilize accurate stream : Yes
Defeat audio cache : Yes
Make use of C2 pointers : No

Read offset correction : 48
Overread into Lead-In and Lead-Out : No
Fill up missing offset samples with silence : Yes
Delete leading and trailing silent blocks : No
Null samples used in CRC calculations : Yes
Used interface : Native Win32 interface for Win NT & 2000

Used output format : User Defined Encoder
Selected bitrate : 1024 kBit/s
Quality : High
Add ID3 tag : No
Command line compressor : C:\Program Files (x86)\Exact Audio Copy\Flac\flac.exe
Additional command line options : -8 -V %s


TOC of the extracted CD

Track | Start | Length | Start sector | End sector
––––––––––––––––––––––––––––-
1 | 0:00.00 | 6:26.10 | 0 | 28959
2 | 6:26.10 | 7:08.05 | 28960 | 61064


Range status and errors

Selected range

Filename D:\bki71\Anthrax\Anthrax - In My World (UK Island CID 470).wav

Peak level 97.7 %
Range quality 100.0 %
Test CRC 7D4B6A1C
Copy CRC 7D4B6A1C
Copy OK

No errors occurred


AccurateRip summary

Track 1 accurately ripped (confidence 4) [C9532BFC]
Track 2 accurately ripped (confidence 4) [7E29B378]

All tracks accurately ripped

End of status report


[CUETools log; Date: 18.02.2018 10:10:04; Version: 2.1.5]
[CTDB TOCID: gurPI34lhHeCMyT0R9KmjUhtaOI-] found.
Track | CTDB Status
1 | (3/3) Accurately ripped
2 | (3/3) Accurately ripped
[AccurateRip ID: 00015fa9-0003addc-15032e02] found.
Track [ CRC | V2 ] Status
01 [c9532bfc|2027837f] (06+07/13) Accurately ripped
02 [7e29b378|775cefa7] (06+07/13) Accurately ripped

Track Peak [ CRC32 ] [W/O NULL] [ LOG ]
– 97,7 [7D4B6A1C] [1B7B33B9] CRC32
01 97,7 [EC3E8E26] [63472F72]
02 97,7 [F5910099] [B6DB294F]


Anthrax: Singles & EP's Collection part 2 (1990-1993)

Tracklist CD2 - 1990 - Persistence Of Time (Germany 6-Track-Pre-Release-CD):

01. Time (6:57)
02. Belly Of The Beast (4:49)
03. Got The Time (2:47)
04. In My World (6:26)
05. Intro To Reality (3:26)
06. H8 Red (5:03)

Exact Audio Copy V0.99 prebeta 5 from 4. May 2009

EAC extraction logfile from 4. June 2012, 15:54

Anthrax / Persistence Of Time (6-Track-Pre-Release-CD)

Used drive : PIONEER DVD-RW DVR-215 Adapter: 5 ID: 0

Read mode : Secure
Utilize accurate stream : Yes
Defeat audio cache : Yes
Make use of C2 pointers : No

Read offset correction : 48
Overread into Lead-In and Lead-Out : No
Fill up missing offset samples with silence : Yes
Delete leading and trailing silent blocks : No
Null samples used in CRC calculations : Yes
Used interface : Native Win32 interface for Win NT & 2000

Used output format : User Defined Encoder
Selected bitrate : 1024 kBit/s
Quality : High
Add ID3 tag : No
Command line compressor : C:\Program Files (x86)\Exact Audio Copy\Flac\flac.exe
Additional command line options : -8 -V %s


TOC of the extracted CD

Track | Start | Length | Start sector | End sector
––––––––––––––––––––––––––––-
1 | 0:00.33 | 6:57.05 | 33 | 31312
2 | 6:57.38 | 4:48.67 | 31313 | 52979
3 | 11:46.30 | 2:46.43 | 52980 | 65472
4 | 14:32.73 | 6:26.35 | 65473 | 94457
5 | 20:59.33 | 3:25.72 | 94458 | 109904
6 | 24:25.30 | 5:03.35 | 109905 | 132664


Range status and errors

Selected range

Filename D:\bki71\Anthrax\Anthrax - Persistence Of Time (6-Track-Pre-Release-CD).wav

Peak level 97.7 %
Range quality 100.0 %
Test CRC 9F9721A7
Copy CRC 9F9721A7
Copy OK

No errors occurred


AccurateRip summary

Track 1 not present in database
Track 2 not present in database
Track 3 not present in database
Track 4 not present in database
Track 5 not present in database
Track 6 not present in database

None of the tracks are present in the AccurateRip database

End of status report


[CUETools log; Date: 18.02.2018 10:10:33; Version: 2.1.5]
Pregap length 00:00:33.
[CTDB TOCID: S7KybfkMbMSvr5A.2w2X07iyxdQ-] disk not present in database.
[AccurateRip ID: 00076dab-0026d0fa-4e06e806] found.
Track [ CRC | V2 ] Status
01 [b72fa317|c1835a52] (1+0/1) Accurately ripped
02 [3c445498|6ff1029c] (1+0/1) Accurately ripped
03 [dbed536a|2e661f3c] (1+0/1) Accurately ripped
04 [f5e28745|cb497185] (1+0/1) Accurately ripped
05 [6a11df9e|54a4bf68] (1+0/1) Accurately ripped
06 [0f33161d|c1d641d3] (1+0/1) Accurately ripped

Track Peak [ CRC32 ] [W/O NULL] [ LOG ]
– 97,7 [9F9721A7] [F70E7844] CRC32
01 96,8 [48592CAD] [5DD13DA3]
02 95,4 [CD8E44AD] [0C8CAFDB]
03 86,4 [B9F70230] [38122237]
04 97,7 [007BF8D9] [CCDABCB2]
05 92,6 [3298E0CA] [D68E020E]
06 95,5 [06A655A6] [7C23E09B]


Anthrax: Singles & EP's Collection part 2 (1990-1993)

Tracklist CD3 - 1991 - Bring The Noise:
UK Island/Megaforce Worldwide CID 490/868 611-2

01. Bring The Noise (3:35)
02. Keep It In The Family (Live) (7:18)
03. I Am The Law '91 (5:56)

Exact Audio Copy V0.99 prebeta 5 from 4. May 2009

EAC extraction logfile from 7. June 2012, 15:29

Anthrax feat. Chuck D / Bring The Noise (UK Island 868 611-2/CID 490)

Used drive : PIONEER DVD-RW DVR-215 Adapter: 5 ID: 0

Read mode : Secure
Utilize accurate stream : Yes
Defeat audio cache : Yes
Make use of C2 pointers : No

Read offset correction : 48
Overread into Lead-In and Lead-Out : No
Fill up missing offset samples with silence : Yes
Delete leading and trailing silent blocks : No
Null samples used in CRC calculations : Yes
Used interface : Native Win32 interface for Win NT & 2000

Used output format : User Defined Encoder
Selected bitrate : 1024 kBit/s
Quality : High
Add ID3 tag : No
Command line compressor : C:\Program Files (x86)\Exact Audio Copy\Flac\flac.exe
Additional command line options : -8 -V %s


TOC of the extracted CD

Track | Start | Length | Start sector | End sector
––––––––––––––––––––––––––––-
1 | 0:00.00 | 3:34.40 | 0 | 16089
2 | 3:34.40 | 7:18.35 | 16090 | 48974
3 | 10:53.00 | 5:56.12 | 48975 | 75686


Range status and errors

Selected range

Filename D:\bki71\Anthrax\Anthrax feat. Chuck D - Bring The Noise (UK Island 868 611-2 CID 490).wav

Peak level 99.9 %
Range quality 99.9 %
Test CRC 9B68B2F4
Copy CRC 9B68B2F4
Copy OK

No errors occurred


AccurateRip summary

Track 1 accurately ripped (confidence 9) [89DE8412]
Track 2 accurately ripped (confidence 9) [63F73B7F]
Track 3 accurately ripped (confidence 9) [2D6520E4]

All tracks accurately ripped

End of status report


[CUETools log; Date: 18.02.2018 10:10:55; Version: 2.1.5]
[CTDB TOCID: cD_nKr9fjQstRj_JgU3ECQRFAzg-] found.
Track | CTDB Status
1 | (14/14) Accurately ripped
2 | (14/14) Accurately ripped
3 | (14/14) Accurately ripped
[AccurateRip ID: 000225d0-00075a3e-1b03f103] found.
Track [ CRC | V2 ] Status
01 [89de8412|e2c53f83] (10+10/20) Accurately ripped
02 [63f73b7f|292d04bd] (10+09/19) Accurately ripped
03 [2d6520e4|010954bd] (10+09/19) Accurately ripped

Track Peak [ CRC32 ] [W/O NULL] [ LOG ]
– 99,9 [9B68B2F4] [5F5A8BB8] CRC32
01 97,7 [340270E6] [13066237]
02 99,9 [B9BC9348] [1E87944A]
03 91,1 [6C2E8F90] [A6B3394A]


Anthrax: Singles & EP's Collection part 2 (1990-1993)

Tracklist CD4 - 1991 - Bring The Noise:
USA Promo CD, Island/Megaforce Worldwide PRCD 6670-2

01. Bring The Noise (3:33)
02. Milk (Ode To Billy) (3:42)

Exact Audio Copy V0.99 prebeta 5 from 4. May 2009

EAC extraction logfile from 8. June 2012, 1:57

Anthrax / Bring The Noise (USA Promo CD, Island PRCD 6670-2)

Used drive : PIONEER DVD-RW DVR-215 Adapter: 5 ID: 0

Read mode : Secure
Utilize accurate stream : Yes
Defeat audio cache : Yes
Make use of C2 pointers : No

Read offset correction : 48
Overread into Lead-In and Lead-Out : No
Fill up missing offset samples with silence : Yes
Delete leading and trailing silent blocks : No
Null samples used in CRC calculations : Yes
Used interface : Native Win32 interface for Win NT & 2000

Used output format : User Defined Encoder
Selected bitrate : 1024 kBit/s
Quality : High
Add ID3 tag : No
Command line compressor : C:\Program Files (x86)\Exact Audio Copy\Flac\flac.exe
Additional command line options : -8 -V %s


TOC of the extracted CD

Track | Start | Length | Start sector | End sector
––––––––––––––––––––––––––––-
1 | 0:00.33 | 3:32.47 | 33 | 15979
2 | 3:33.05 | 3:41.58 | 15980 | 32612


Range status and errors

Selected range

Filename D:\bki71\Anthrax\Anthrax - Bring The Noise (USA Promo CD, Island PRCD 6670-2).wav

Peak level 100.0 %
Range quality 100.0 %
Test CRC 1B7EA78D
Copy CRC 1B7EA78D
Copy OK

No errors occurred


AccurateRip summary

Track 1 accurately ripped (confidence 2) [160ECD23]
Track 2 accurately ripped (confidence 2) [B12163B8]

All tracks accurately ripped

End of status report


[CUETools log; Date: 18.02.2018 10:11:19; Version: 2.1.5]
Pregap length 00:00:33.
[CTDB TOCID: ByML3lS6q2AU359s8Fzo67L7NTM-] found.
Track | CTDB Status
1 | (4/4) Accurately ripped
2 | (4/4) Accurately ripped
[AccurateRip ID: 0000bdf2-0001fb28-0a01b202] found.
Track [ CRC | V2 ] Status
01 [160ecd23|9b7f96d9] (3+2/5) Accurately ripped
02 [b12163b8|d5c89aff] (3+2/5) Accurately ripped

Track Peak [ CRC32 ] [W/O NULL] [ LOG ]
– 99,9 [1B7EA78D] [2EC09F72] CRC32
01 99,9 [4BE196ED] [97127C89]
02 99,9 [BC81FB1E] [6022A16B]


Anthrax: Singles & EP's Collection part 2 (1990-1993)

Tracklist CD5 - 1991 - Free B'S (USA Promo CD, Island/Megaforce Worldwide PRCD-6654-2):

01. Madhouse (Live) (6:04)
02. Belly Of The Beast (Live) (4:09)
03. H8 Red (Studio) (5:07)

Exact Audio Copy V0.99 prebeta 5 from 4. May 2009

EAC extraction logfile from 1. June 2012, 12:45

Anthrax / Free B'S (USA Promo CD, PRCD-6654-2)

Used drive : PIONEER DVD-RW DVR-215 Adapter: 5 ID: 0

Read mode : Secure
Utilize accurate stream : Yes
Defeat audio cache : Yes
Make use of C2 pointers : No

Read offset correction : 48
Overread into Lead-In and Lead-Out : No
Fill up missing offset samples with silence : Yes
Delete leading and trailing silent blocks : No
Null samples used in CRC calculations : Yes
Used interface : Native Win32 interface for Win NT & 2000

Used output format : User Defined Encoder
Selected bitrate : 1024 kBit/s
Quality : High
Add ID3 tag : No
Command line compressor : C:\Program Files (x86)\Exact Audio Copy\Flac\flac.exe
Additional command line options : -8 -V %s


TOC of the extracted CD

Track | Start | Length | Start sector | End sector
––––––––––––––––––––––––––––-
1 | 0:00.32 | 6:03.65 | 32 | 27321
2 | 6:04.22 | 4:08.55 | 27322 | 45976
3 | 10:13.02 | 5:06.43 | 45977 | 68969


Range status and errors

Selected range

Filename D:\bki71\Anthrax\Anthrax - Free B'S (USA Promo CD, PRCD-6654-2).wav

Peak level 97.7 %
Range quality 100.0 %
Test CRC E123F4F9
Copy CRC E123F4F9
Copy OK

No errors occurred


AccurateRip summary

Track 1 accurately ripped (confidence 1) [FE1DA539]
Track 2 accurately ripped (confidence 1) [37F911CE]
Track 3 accurately ripped (confidence 1) [F2CF8C36]

All tracks accurately ripped

End of status report


[CUETools log; Date: 18.02.2018 10:11:46; Version: 2.1.5]
Pregap length 00:00:32.
[CTDB TOCID: susmxduck8dSUaGjFf2myLlXeF0-] found.
Track | CTDB Status
1 | (3/3) Accurately ripped
2 | (3/3) Accurately ripped
3 | (3/3) Accurately ripped
[AccurateRip ID: 00022bdd-00072607-1d039703] found.
Track [ CRC | V2 ] Status
01 [fe1da539|c9b38a58] (2+0/2) Accurately ripped
02 [37f911ce|3c87e5b2] (3+0/3) Accurately ripped
03 [f2cf8c36|5c66d4a8] (2+0/2) Accurately ripped

Track Peak [ CRC32 ] [W/O NULL] [ LOG ]
– 97,7 [E123F4F9] [A4603520] CRC32
01 97,7 [1BECBE61] [1D3D1456]
02 97,7 [B6321C5E] [E1A6A16B]
03 93,9 [8195E278] [912317BA]


Anthrax: Singles & EP's Collection part 2 (1990-1993)

Tracklist CD6 - 1993 - Black Lodge:
Germany Elektra/WEA International 7559-66280-2

01. Black Lodge (Tremolo Mix) (5:25)
02. Black Lodge (Mellow To Mad Mix) (5:22)
03. Black Lodge (5:30)
04. Potters Field (Extended Mutated Version) (4:47)

Exact Audio Copy V0.99 prebeta 5 from 4. May 2009

EAC extraction logfile from 3. June 2012, 17:02

Anthrax / Black Lodge (Germany Elektra 7559-66280-2)

Used drive : PIONEER DVD-RW DVR-215 Adapter: 5 ID: 0

Read mode : Secure
Utilize accurate stream : Yes
Defeat audio cache : Yes
Make use of C2 pointers : No

Read offset correction : 48
Overread into Lead-In and Lead-Out : No
Fill up missing offset samples with silence : Yes
Delete leading and trailing silent blocks : No
Null samples used in CRC calculations : Yes
Used interface : Native Win32 interface for Win NT & 2000

Used output format : User Defined Encoder
Selected bitrate : 1024 kBit/s
Quality : High
Add ID3 tag : No
Command line compressor : C:\Program Files (x86)\Exact Audio Copy\Flac\flac.exe
Additional command line options : -8 -V %s


TOC of the extracted CD

Track | Start | Length | Start sector | End sector
––––––––––––––––––––––––––––-
1 | 0:00.00 | 5:25.08 | 0 | 24382
2 | 5:25.08 | 5:21.45 | 24383 | 48502
3 | 10:46.53 | 5:29.52 | 48503 | 73229
4 | 16:16.30 | 4:47.20 | 73230 | 94774


Range status and errors

Selected range

Filename D:\bki71\Anthrax\Anthrax - Black Lodge (Germany Elektra 7559-66280-2).wav

Peak level 95.5 %
Range quality 100.0 %
Test CRC 53917680
Copy CRC 53917680
Copy OK

No errors occurred


AccurateRip summary

Track 1 cannot be verified as accurate (confidence 1) [0D912E5F], AccurateRip returned [0337363F]
Track 2 cannot be verified as accurate (confidence 1) [51F433CC], AccurateRip returned [AD4C22E8]
Track 3 cannot be verified as accurate (confidence 1) [F957F5A8], AccurateRip returned [0A4D63C9]
Track 4 cannot be verified as accurate (confidence 1) [75D1A06E], AccurateRip returned [ECB34D54]

No tracks could be verified as accurate
You may have a different pressing from the one(s) in the database

End of status report


[CUETools log; Date: 18.02.2018 10:12:09; Version: 2.1.5]
[CTDB TOCID: zIMwfl.D5_Ghr1DJJ5un_QU1xs8-] found.
Track | CTDB Status
1 | (3/3) Accurately ripped
2 | (2/3) Accurately ripped
3 | (2/3) Accurately ripped
4 | (3/3) Accurately ripped
[AccurateRip ID: 0003acfb-000eaa2f-3804ef04] found.
Track [ CRC | V2 ] Status
01 [0d912e5f|943825e4] (1+1/3) Accurately ripped
02 [51f433cc|d9ad4348] (1+1/3) Accurately ripped
03 [f957f5a8|29e16a22] (1+1/3) Accurately ripped
04 [75d1a06e|14e27e12] (1+1/3) Accurately ripped

Track Peak [ CRC32 ] [W/O NULL] [ LOG ]
– 95,5 [53917680] [43C4DF02] CRC32
01 95,5 [4BEE9CCF] [84D649E7]
02 92,4 [4FE41711] [303C51EC]
03 90,8 [06B817BC] [A1E14370]
04 94,4 [BAA1343A] [AB2E6FDB]


All thanks go to the original releasers

Anthrax or Anthrax in my Blog

Download Anthrax: Singles & EP's Collection part 2 (1990-1993):