Subcategories

Anthrax - Fistful Of Metal (1984)

Posted By: v3122
Anthrax - Fistful Of Metal (1984)

Anthrax - Fistful Of Metal (1984)
EAC | Flac(Image) + Cue + Log & MP3 CBR 320Kbps
Megaforce Records, MRI CD 469 | ~ 257 or 93 Mb | Scans Included
Thrash Metal

Fistful of Metal is the debut studio album by American thrash metal band Anthrax, released in January 1984 by Megaforce Records in the US and Music for Nations internationally. It includes a cover of Alice Cooper's "I'm Eighteen" which to this day is the only Anthrax recording which does not feature guitarist Scott Ian, as he refused to play the song in protest to the management decision to have the song on the album. This is the band's only album that features original vocalist Neil Turbin and original bassist Dan Lilker…

~ wiki
Anthrax - Fistful Of Metal (1984)


Anthrax - Fistful Of Metal (1984):

Anthrax - Fistful Of Metal (1984)

Tracklist:

01. Deathrider (3:13)
02. Metal Trhashing Mad (2:43)
03. I'm Eighteen (4:07)
04. Panic (4:03)
05. Subjugator (4:43)
06. Soldiers Of Metal (3:00)
07. Death From Above (5:10)
08. Anthrax (3:29)
09. Across The River (1:27)
10. Howling Furies (3:55)

Exact Audio Copy V0.99 prebeta 5 from 4. May 2009

EAC extraction logfile from 2. July 2012, 15:56

Anthrax / Fistful Of Metal (USA Megaforce MRI CD 469)

Used drive : PLEXTOR DVDR PX-760A Adapter: 0 ID: 0

Read mode : Secure
Utilize accurate stream : Yes
Defeat audio cache : Yes
Make use of C2 pointers : No

Read offset correction : 30
Overread into Lead-In and Lead-Out : No
Fill up missing offset samples with silence : Yes
Delete leading and trailing silent blocks : No
Null samples used in CRC calculations : Yes
Used interface : Native Win32 interface for Win NT & 2000

Used output format : User Defined Encoder
Selected bitrate : 1024 kBit/s
Quality : High
Add ID3 tag : No
Command line compressor : C:\Program Files (x86)\Exact Audio Copy\Flac\flac.exe
Additional command line options : -8 -V %s


TOC of the extracted CD

Track | Start | Length | Start sector | End sector
––––––––––––––––––––––––––––-
1 | 0:00.00 | 3:12.48 | 0 | 14447
2 | 3:12.48 | 2:42.40 | 14448 | 26637
3 | 5:55.13 | 4:06.65 | 26638 | 45152
4 | 10:02.03 | 4:02.42 | 45153 | 63344
5 | 14:04.45 | 4:42.73 | 63345 | 84567
6 | 18:47.43 | 3:00.22 | 84568 | 98089
7 | 21:47.65 | 5:10.10 | 98090 | 121349
8 | 26:58.00 | 3:29.25 | 121350 | 137049
9 | 30:27.25 | 1:26.55 | 137050 | 143554
10 | 31:54.05 | 3:54.68 | 143555 | 161172


Range status and errors

Selected range

Filename D:\bki71\Anthrax\Anthrax - Fistful Of Metal (USA Megaforce MRI CD 469).wav

Peak level 80.4 %
Range quality 100.0 %
Test CRC 88BBFD6F
Copy CRC 88BBFD6F
Copy OK

No errors occurred


AccurateRip summary

Track 1 accurately ripped (confidence 5) [B01A516C]
Track 2 accurately ripped (confidence 5) [738C9EE0]
Track 3 accurately ripped (confidence 5) [7C04EAAE]
Track 4 accurately ripped (confidence 5) [83888387]
Track 5 accurately ripped (confidence 5) [15402267]
Track 6 accurately ripped (confidence 6) [76EA1AE3]
Track 7 accurately ripped (confidence 5) [783558A9]
Track 8 accurately ripped (confidence 5) [C431FD70]
Track 9 accurately ripped (confidence 5) [E53FD7F6]
Track 10 accurately ripped (confidence 5) [458755D8]

All tracks accurately ripped

End of status report

foobar2000 1.2.9 / Dynamic Range Meter 1.1.1
log date: 2016-10-24 02:20:56

––––––––––––––––––––––––––––––––––––––––
Analyzed: Anthrax / Fistful Of Metal (USA Megaforce MRI CD 469)
––––––––––––––––––––––––––––––––––––––––

DR Peak RMS Duration Track
––––––––––––––––––––––––––––––––––––––––
DR11 -2.32 dB -15.52 dB 3:13 01-Deathrider
DR11 -1.88 dB -14.80 dB 2:43 02-Metal Trhashing Mad
DR12 -2.80 dB -17.27 dB 4:07 03-I'm Eighteen
DR11 -2.33 dB -15.29 dB 4:03 04-Panic
DR11 -2.53 dB -15.71 dB 4:43 05-Subjugator
DR12 -2.40 dB -16.71 dB 3:00 06-Soldiers Of Metal
DR11 -2.46 dB -15.56 dB 5:10 07-Death From Above
DR11 -2.42 dB -16.36 dB 3:29 08-Anthrax
DR11 -3.34 dB -16.21 dB 1:27 09-Across The River
DR11 -2.45 dB -16.93 dB 3:55 10-Howling Furies
––––––––––––––––––––––––––––––––––––––––

Number of tracks: 10
Official DR value: DR11

Samplerate: 44100 Hz
Channels: 2
Bits per sample: 16
Bitrate: 911 kbps
Codec: FLAC

[CUETools log; Date: 24.10.2016 2:11:27; Version: 2.1.4]
[CTDB TOCID: o8vNU6sw9qWvbksb6lSU1Kjf.OI-] found.
Track | CTDB Status
1 | (7/8) Accurately ripped
2 | (7/8) Accurately ripped
3 | (7/8) Accurately ripped
4 | (7/8) Accurately ripped
5 | (7/8) Accurately ripped
6 | (7/8) Accurately ripped
7 | (6/8) Accurately ripped
8 | (7/8) Accurately ripped
9 | (7/8) Accurately ripped
10 | (7/8) Accurately ripped
[AccurateRip ID: 000da98a-006e0f59-8308640a] found.
Track [ CRC | V2 ] Status
01 [b01a516c|3f924234] (06+04/10) Accurately ripped
02 [738c9ee0|6f9dec99] (06+04/10) Accurately ripped
03 [7c04eaae|de27294b] (06+04/10) Accurately ripped
04 [83888387|4855ab52] (06+04/10) Accurately ripped
05 [15402267|2977a161] (06+04/10) Accurately ripped
06 [76ea1ae3|ddcdaf3a] (07+03/10) Accurately ripped
07 [783558a9|de50db10] (06+04/10) Accurately ripped
08 [c431fd70|7e4d2bbe] (06+04/10) Accurately ripped
09 [e53fd7f6|cad9fbef] (06+04/10) Accurately ripped
10 [458755d8|8ad10daa] (06+04/10) Accurately ripped

Track Peak [ CRC32 ] [W/O NULL] [ LOG ]
– 80,4 [88BBFD6F] [054ECF2D] CRC32
01 76,5 [74B8F996] [5862D448]
02 80,4 [D03526CA] [C324FF55]
03 72,4 [579C2F7E] [5F81E5EE]
04 76,4 [C442943C] [9010A8A1]
05 74,7 [B83E55DD] [0793F5FB]
06 75,8 [7E1204E0] [94C2354B]
07 75,3 [5808AC61] [75039A32]
08 75,6 [F5D1834C] [A8DA19A2]
09 68,0 [BE2517F8] [BE32435F]
10 75,3 [F038CDAE] [97224202]

Anthrax - Fistful Of Metal (1984)

All thanks go to bki71

Anthrax in my Blog

Download Anthrax - Fistful Of Metal (1984):