Subcategories

Antonella Ruggiero, Roberto Colombo - Pomodoro Genetico (2008) {CD+DVD}

Posted By: popsakov
Antonella Ruggiero, Roberto Colombo - Pomodoro Genetico (2008) {CD+DVD}

Antonella Ruggiero, Roberto Colombo - Pomodoro Genetico (2008)
EAC Rip | FLAC (Img) + Cue + Log ~ 283 Mb | MP3 CBR320 ~ 114 Mb | Scans (JPG, 400 dpi) ~ 28 Mb
DVD5 | MPEG-2, PAL 720x576 (16:9), 25.0 fps, VBR ~ 5998 Kbps | Audio #1: DD 5.1, 448 Kbps
Audio #2: LPCM 2.0, 1536 Kbps | ~ 520 Mb | RAR 5% Recovery
Electronic, Abstract, Experimental, Downtempo, Vocal | Libera Music #0193552LIB

Antonella Ruggiero and Roberto Colombo have made an album of experimental music. A trip into music and combinations of Electronic and Classical Music. The DVD contains the video "Attesa" with images of urban settings and the music of Ruggiero and Colombo.

Antonella Ruggiero is a Italian singer and songwriter born 15 November 1952 in Genova. She is one of the founders of Matia Bazar, that left in 1989 for start solo career.

Roberto Colombo started his career with two phenomenal experimental prog albums, both of them hybrids of Italian prog and fusion styles, with a liberal dose of Mothers/Zappa influence, riddled with invention. After that his career was all-change, first as a sought after electronics specialist (including work with PFM), and then as a prolific producer and session musician.
~ Discogs

***************

Antonella Ruggiero, Roberto Colombo - Pomodoro Genetico (2008) {CD+DVD}

Antonella Ruggiero, Roberto Colombo - Pomodoro Genetico (2008) {CD+DVD}

Track List CD:

01. Lontano [04:45]
02. Attesa [07:42]
03. Memoria [06:42]
04. Leggero [04:34]
05. Europeo [05:09]
06. Attesa II [03:40]
07. Assurdo [04:32]
08. Memoria II [05:48]
09. Misteriosa [04:38]

Exact Audio Copy V1.0 beta 3 from 29. August 2011

EAC extraction logfile from 21. March 2015, 16:27

Antonella Ruggiero, Roberto Colombo / Pomodoro Genetico

Used drive : TSSTcorpCDDVDW SH-224DB Adapter: 3 ID: 0

Read mode : Secure
Utilize accurate stream : Yes
Defeat audio cache : Yes
Make use of C2 pointers : No

Read offset correction : 6
Overread into Lead-In and Lead-Out : No
Fill up missing offset samples with silence : Yes
Delete leading and trailing silent blocks : No
Null samples used in CRC calculations : Yes
Used interface : Native Win32 interface for Win NT & 2000

Used output format : Internal WAV Routines
Sample format : 44.100 Hz; 16 Bit; Stereo


TOC of the extracted CD

Track | Start | Length | Start sector | End sector
––––––––––––––––––––––––––––-
1 | 0:00.00 | 4:44.10 | 0 | 21309
2 | 4:44.10 | 7:41.66 | 21310 | 55950
3 | 12:26.01 | 6:41.66 | 55951 | 86091
4 | 19:07.67 | 4:33.58 | 86092 | 106624
5 | 23:41.50 | 5:08.12 | 106625 | 129736
6 | 28:49.62 | 3:39.59 | 129737 | 146220
7 | 32:29.46 | 4:31.13 | 146221 | 166558
8 | 37:00.59 | 5:47.33 | 166559 | 192616
9 | 42:48.17 | 4:37.38 | 192617 | 213429


Range status and errors

Selected range

Filename G:\Temp\Antonella Ruggiero, Roberto Colombo - Pomodoro Genetico\Antonella Ruggiero, Roberto Colombo - Pomodoro Genetico.wav

Peak level 98.9 %
Extraction speed 2.8 X
Range quality 100.0 %
Test CRC D34A5885
Copy CRC D34A5885
Copy OK

No errors occurred


AccurateRip summary

Track 1 accurately ripped (confidence 1) [7543C4E4] (AR v2)
Track 2 accurately ripped (confidence 1) [E3B26EAE] (AR v2)
Track 3 accurately ripped (confidence 1) [CE6CB377] (AR v2)
Track 4 accurately ripped (confidence 1) [7DCDF458] (AR v2)
Track 5 accurately ripped (confidence 1) [CB970EDA] (AR v2)
Track 6 accurately ripped (confidence 1) [2782CE54] (AR v2)
Track 7 accurately ripped (confidence 1) [ADEF5AA8] (AR v2)
Track 8 accurately ripped (confidence 1) [DBFCDB20] (AR v2)
Track 9 accurately ripped (confidence 1) [6ECECEAA] (AR v2)

All tracks accurately ripped

End of status report

==== Log checksum B60FF31290815DCD5904BF9451A13F130166B9343C087D942C347AC95DE73CD9 ====

foobar2000 1.2.6 / Dynamic Range Meter 1.1.1
log date: 2016-06-29 00:03:58

––––––––––––––––––––––––––––––––––––––––
Analyzed: Antonella Ruggiero, Roberto Colombo / Pomodoro Genetico
––––––––––––––––––––––––––––––––––––––––

DR Peak RMS Duration Track
––––––––––––––––––––––––––––––––––––––––
DR9 -0.14 dB -13.15 dB 4:44 01-Lontano
DR10 -0.32 dB -14.49 dB 7:42 02-Attesa
DR9 -0.14 dB -13.52 dB 6:42 03-Memoria
DR9 -0.55 dB -12.29 dB 4:34 04-Leggero
DR8 -0.60 dB -12.46 dB 5:08 05-Europeo
DR8 -0.60 dB -12.56 dB 3:40 06-Attesa II
DR9 -0.14 dB -12.92 dB 4:31 07-Assurdo
DR9 -0.14 dB -12.35 dB 5:47 08-Memoria II
DR9 -0.09 dB -13.68 dB 4:38 09-Misteriosa
––––––––––––––––––––––––––––––––––––––––

Number of tracks: 9
Official DR value: DR9

Samplerate: 44100 Hz
Channels: 2
Bits per sample: 16
Bitrate: 791 kbps
Codec: FLAC
================================================================================

[CUETools log; Date: 29.06.2016 0:03:54; Version: 2.1.5]
[CTDB TOCID: ZRjgMRlFo4k1Hz_1MxxlrWqMQRs-] found.
Track | CTDB Status
1 | (1/1) Accurately ripped
2 | (1/1) Accurately ripped
3 | (1/1) Accurately ripped
4 | (1/1) Accurately ripped
5 | (1/1) Accurately ripped
6 | (1/1) Accurately ripped
7 | (1/1) Accurately ripped
8 | (1/1) Accurately ripped
9 | (1/1) Accurately ripped
[AccurateRip ID: 0011114e-007b7295-700b1d09] found.
Track [ CRC | V2 ] Status
01 [5cc55606|7543c4e4] (0+1/2) Accurately ripped
02 [f8d99208|e3b26eae] (0+1/2) Accurately ripped
03 [948417c3|ce6cb377] (0+1/2) Accurately ripped
04 [8ca728ac|7dcdf458] (0+1/2) Accurately ripped
05 [48d3e301|cb970eda] (0+1/2) Accurately ripped
06 [64842435|2782ce54] (0+1/2) Accurately ripped
07 [dbb3a900|adef5aa8] (0+1/2) Accurately ripped
08 [10f809a5|dbfcdb20] (0+1/2) Accurately ripped
09 [e23ed8fe|6ececeaa] (0+1/2) Accurately ripped
Offsetted by -66:
01 [cd32c67f] (1/2) Accurately ripped
02 [2c1a201c] (1/2) Accurately ripped
03 [d5c5ad19] (1/2) Accurately ripped
04 [803af027] (1/2) Accurately ripped
05 [bdfacb7d] (1/2) Accurately ripped
06 [b441e53b] (1/2) Accurately ripped
07 [c7231b3f] (1/2) Accurately ripped
08 [a8bd5bb8] (1/2) Accurately ripped
09 [275f3b68] (1/2) Accurately ripped

Track Peak [ CRC32 ] [W/O NULL] [ LOG ]
– 98,9 [D34A5885] [CAF6E141] CRC32
01 98,4 [C808B1E2] [41ED1BFA]
02 96,3 [0A063C81] [23A0E18F]
03 98,4 [D93B9260] [EE055B99]
04 93,8 [83305A7A] [EFDC1CD8]
05 93,3 [5F69744D] [E0618AF4]
06 93,3 [F2B1C113] [AD5B816A]
07 98,4 [4E706DF3] [41D8E632]
08 98,4 [7302204F] [81708ED6]
09 98,9 [CF6CD653] [3884D0CF]

Antonella Ruggiero, Roberto Colombo - Pomodoro Genetico (2008) {CD+DVD}

Track List DVD:

01. Attesa [08:29]

General
Complete name : I:\VIDEO_TS\VTS_01_1.VOB
Format : MPEG-PS
File size : 495 MiB
Duration : 8mn 29s
Overall bit rate mode : Variable
Overall bit rate : 8 144 Kbps

Video
ID : 224 (0xE0)
Format : MPEG Video
Format version : Version 2
Format profile : Main@Main
Format settings, BVOP : Yes
Format settings, Matrix : Custom
Format settings, GOP : M=3, N=12
Format settings, picture structure : Frame
Duration : 8mn 29s
Bit rate mode : Variable
Bit rate : 5 998 Kbps
Maximum bit rate : 7 700 Kbps
Width : 720 pixels
Height : 576 pixels
Display aspect ratio : 16:9
Frame rate : 25.000 fps
Standard : PAL
Color space : YUV
Chroma subsampling : 4:2:0
Bit depth : 8 bits
Scan type : Interlaced
Scan order : Top Field First
Compression mode : Lossy
Bits/(Pixel*Frame) : 0.578
Time code of first frame : 00:00:00:00
Time code source : Group of pictures header
GOP, Open/Closed : Closed
Stream size : 364 MiB (74%)
Color primaries : BT.601 PAL
Transfer characteristics : BT.470 System B, BT.470 System G
Matrix coefficients : BT.601

Audio #1
ID : 189 (0xBD)-129 (0x81)
Format : AC-3
Format/Info : Audio Coding 3
Mode extension : CM (complete main)
Format settings, Endianness : Big
Muxing mode : DVD-Video
Duration : 8mn 6s
Bit rate mode : Constant
Bit rate : 448 Kbps
Channel(s) : 6 channels
Channel positions : Front: L C R, Side: L R, LFE
Sampling rate : 48.0 KHz
Bit depth : 16 bits
Compression mode : Lossy
Stream size : 26.0 MiB (5%)

Audio #2
ID : 189 (0xBD)-160 (0xA0)
Format : PCM
Format settings, Endianness : Big
Format settings, Sign : Signed
Muxing mode : DVD-Video
Duration : 8mn 1s
Bit rate mode : Constant
Bit rate : 1 536 Kbps
Channel(s) : 2 channels
Sampling rate : 48.0 KHz
Bit depth : 16 bits
Stream size : 88.1 MiB (18%)

Menu

Antonella Ruggiero, Roberto Colombo - Pomodoro Genetico (2008) {CD+DVD}

Antonella Ruggiero, Roberto Colombo - Pomodoro Genetico (2008) {CD+DVD}

Antonella Ruggiero, Roberto Colombo - Pomodoro Genetico (2008) {CD+DVD}

Antonella Ruggiero, Roberto Colombo - Pomodoro Genetico (2008) {CD+DVD}

Antonella Ruggiero, Roberto Colombo - Pomodoro Genetico (2008) {CD+DVD}

Antonella Ruggiero, Roberto Colombo - Pomodoro Genetico (2008) {CD+DVD}

All thanks go to shatterhand

Visit my blog!

Download: