Antonio Carlos Jobim - Wave (1967) {A&M} [Repost]

Posted By: tiburon
Antonio Carlos Jobim - Wave (1967) {A&M} [Repost]

Antonio Carlos Jobim - Wave (1967) {A&M}
EAC 0.95b4 | FLAC tracks level 8 | Cue+Log+M3U | Full Scans 300dpi | 180MB + 5% Recovery
Genre: Brazilian Jazz, Bossa Nova

The second Jobim - Ogerman instrumental by all means recreates the atmosphere of the first one.The Composer of Desafinado Plays, and if you liked that one, you'll like Wave too. Recorded in 1967 by Jobim on piano and guitar and Claus Ogerman's orchestra, this album features some of Jobim's standards like Wave, Triste and Lamento No Morro.This album is a must for any serious Jobim's fans and all lovers of cool and soft bossa nova sound.
Track List

01. Wave 2:51
02. The Red Blouse 5:03
03. Look To The Sky 2:17
04. Batidinha 3:13
05. Triste 2:04
06. Mojave 2:21
07. Dialogo 2:50
08. Lamento 2:42
09. Antigua 3:07
10. Captain Bacardi 4:29

musicians

Antonio Carlos Jobim - piano, guitar & harpsichord
Ron Carter - bass
Domum Romao, Bobby Rosengarden, Claudio Slon - drums
Joseph Singer - French horn
Ray Beckenstein, Romeo Penque, Jerome Richardson - flutes & piccolo
Urbie Green, Jimmy Cleveland - trombones
Violins - Bernard Eichen, Lewis Eley, Paul Gershman, Emanuel Green, Louis Haber, Julius Held, Leo Kruczek, Harry Lookofsk, Joseph Malignaggi, Gene Orloff, Raoul Poliakin, Irving Spice, Louis Stone
Celli - Abe Kessler, Charles McCracken, George Ricci, Harvey Shapiro

Produced by Creed Taylor


EAC extraction logfile from 19. July 2007, 21:45 for CD
Antonio Carlos Jobim / Wave

Used drive : PIONEER DVD-RW DVR-112D Adapter: 0 ID: 0
Read mode : Secure with NO C2, accurate stream, disable cache
Read offset correction : 48
Overread into Lead-In and Lead-Out : No

Used output format : C:\Program Files\FLAC\flac.exe (User Defined Encoder)
128 kBit/s
Additional command line options : -V -8 -T "artist=%a" -T "title=%t" -T "album=%g" -T "date=%y" -T "tracknumber=%n" -T "genre=%m" %s

Other options :
Fill up missing offset samples with silence : Yes
Delete leading and trailing silent blocks : No
Native Win32 interface for Win NT & 2000


Track 1
Filename D:\music\rip\Antonio Carlos Jobim - Wave (1967) [FLAC]\01 - Wave.wav

Pre-gap length 0:00:02.42

Peak level 68.4 %
Track quality 100.0 %
Test CRC A02B6C05
Copy CRC A02B6C05
Copy OK

Track 2
Filename D:\music\rip\Antonio Carlos Jobim - Wave (1967) [FLAC]\02 - The Red Blouse.wav

Pre-gap length 0:00:05.20

Peak level 88.8 %
Track quality 100.0 %
Test CRC 764DF5C8
Copy CRC 764DF5C8
Copy OK

Track 3
Filename D:\music\rip\Antonio Carlos Jobim - Wave (1967) [FLAC]\03 - Look to the Sky.wav

Pre-gap length 0:00:05.66

Peak level 73.0 %
Track quality 100.0 %
Test CRC CA1727C0
Copy CRC CA1727C0
Copy OK

Track 4
Filename D:\music\rip\Antonio Carlos Jobim - Wave (1967) [FLAC]\04 - Batidinha.wav

Pre-gap length 0:00:02.86

Peak level 65.5 %
Track quality 100.0 %
Test CRC B9FA66C3
Copy CRC B9FA66C3
Copy OK

Track 5
Filename D:\music\rip\Antonio Carlos Jobim - Wave (1967) [FLAC]\05 - Triste.wav

Pre-gap length 0:00:04.29

Peak level 67.9 %
Track quality 100.0 %
Test CRC B7963B16
Copy CRC B7963B16
Copy OK

Track 6
Filename D:\music\rip\Antonio Carlos Jobim - Wave (1967) [FLAC]\06 - Mojave.wav

Pre-gap length 0:00:05.16

Peak level 61.3 %
Track quality 100.0 %
Test CRC 839DB9B9
Copy CRC 839DB9B9
Copy OK

Track 7
Filename D:\music\rip\Antonio Carlos Jobim - Wave (1967) [FLAC]\07 - Dialogo.wav

Pre-gap length 0:00:05.53

Peak level 60.2 %
Track quality 100.0 %
Test CRC E97C4397
Copy CRC E97C4397
Copy OK

Track 8
Filename D:\music\rip\Antonio Carlos Jobim - Wave (1967) [FLAC]\08 - Lamento.wav

Pre-gap length 0:00:05.53

Peak level 73.7 %
Track quality 100.0 %
Test CRC D165DC90
Copy CRC D165DC90
Copy OK

Track 9
Filename D:\music\rip\Antonio Carlos Jobim - Wave (1967) [FLAC]\09 - Antigua.wav

Pre-gap length 0:00:04.60

Peak level 57.9 %
Track quality 100.0 %
Test CRC 6C249795
Copy CRC 6C249795
Copy OK

Track 10
Filename D:\music\rip\Antonio Carlos Jobim - Wave (1967) [FLAC]\10 - Captain Bacardi.wav

Pre-gap length 0:00:03.20

Peak level 77.6 %
Track quality 100.0 %
Test CRC B8A59449
Copy CRC B8A59449
Copy OK

No errors occured


End of status report
Antonio Carlos Jobim - Wave (1967) {A&M} [Repost]
Antonio Carlos Jobim - Wave (1967) {A&M} [Repost]
Antonio Carlos Jobim - Wave (1967) {A&M} [Repost]




The Files Are Interchangeable

Thanks to Musicgate for the rip!

Visit My Blog