Subcategories

Antonio Tarrago Ros - Pajaros isleros (1999)

Posted By: juanchito
Antonio Tarrago Ros - Pajaros isleros (1999)

Antonio Tarrago Ros - Pajaros isleros (1999)
EAC Rip | FLAC, IMG+CUE, LOG | HQ Scan 300 dpi | 54:21 | 362 MB
Genre: Folklore argentino | Label: Altaya


Antonio Tarragó Ros (n. 1947) es un músico argentino, intérprete de música folclórica, en especial folclore litoraleño y chamamé. Entre sus temas más conocidos se encuentra "María va", "Canción para Carito", "Jineteando la vida". Es reconocido por su preocupación por el medio ambiente, habiendo llegado incluso a escribir canciones sobre este tema, como "El río herido", en contra de la instalación de las papeleras en las costas del Río Uruguay, entre otros. También ha compuesto música para algunas películas.

Tracklist
1- Pájaros isleros (chamamé)
2- Luna payesera (galopa)
3- El cielo del albañil (chamamé)
4- El protozoario (chamamé)
5- Eleuterio, un correntino de ley (chamamé)
6- Taragüí cambá ité (rasguido doble)
7- La chamarrita entrerriana (chamarrita)
8- Riograndense (schotis)
9- Cinco esquinas (chamamé)
10- Canción para Carito (chamamé canción)
11- María va (chamamé)
12- La vida y la libertad (chamamé)
13- Como el agua clara (chamarrita)
14- Suite chamamecera (chamamé - rasguido doble - valseado)

Antonio Tarrago Ros - Pajaros isleros (1999)


Exact Audio Copy V1.0 beta 2 from 29. April 2011

EAC extraction logfile from 19. January 2013, 1:20

Unknown Artist / Unknown Title

Used drive : HL-DT-STDVDRAM GSA-H60N Adapter: 2 ID: 0

Read mode : Secure
Utilize accurate stream : Yes
Defeat audio cache : Yes
Make use of C2 pointers : No

Read offset correction : 667
Overread into Lead-In and Lead-Out : No
Fill up missing offset samples with silence : Yes
Delete leading and trailing silent blocks : No
Null samples used in CRC calculations : No
Used interface : Native Win32 interface for Win NT & 2000

Used output format : Internal WAV Routines
Sample format : 44.100 Hz; 16 Bit; Stereo


TOC of the extracted CD

Track | Start | Length | Start sector | End sector
––––––––––––––––––––––––––––-
1 | 0:00.00 | 2:44.13 | 0 | 12312
2 | 2:44.13 | 2:32.64 | 12313 | 23776
3 | 5:17.02 | 3:29.27 | 23777 | 39478
4 | 8:46.29 | 2:57.16 | 39479 | 52769
5 | 11:43.45 | 4:11.52 | 52770 | 71646
6 | 15:55.22 | 3:31.45 | 71647 | 87516
7 | 19:26.67 | 3:20.45 | 87517 | 102561
8 | 22:47.37 | 3:42.55 | 102562 | 119266
9 | 26:30.17 | 2:45.11 | 119267 | 131652
10 | 29:15.28 | 3:44.30 | 131653 | 148482
11 | 32:59.58 | 3:11.43 | 148483 | 162850
12 | 36:11.26 | 3:16.69 | 162851 | 177619
13 | 39:28.20 | 4:27.17 | 177620 | 197661
14 | 43:55.37 | 10:28.43 | 197662 | 244804


Range status and errors

Selected range

Filename C:\Users\adrian\Music\Antonio Tarrago Ros - Pajaros isleros.wav

Peak level 100.0 %
Extraction speed 5.1 X
Range quality 99.9 %
Copy CRC 29623961
Copy OK

No errors occurred


AccurateRip summary

Track 1 not present in database
Track 2 not present in database
Track 3 not present in database
Track 4 not present in database
Track 5 not present in database
Track 6 not present in database
Track 7 not present in database
Track 8 not present in database
Track 9 not present in database
Track 10 not present in database
Track 11 not present in database
Track 12 not present in database
Track 13 not present in database
Track 14 not present in database

None of the tracks are present in the AccurateRip database

End of status report

==== Log checksum B8A66ED03E011F1E865A4A1B2478C66C746050288AC56A67DE57C24401AD7680 ====
Uploaded
Part01
Part02

Bitshare
Part01
Part02