Subcategories

Aphrodite's Child - The Singles + (2003) (Repost)

Posted By: gribovar
Aphrodite's Child - The Singles + (2003) (Repost)

Aphrodite's Child - The Singles + (2003)
EAC Rip | FLAC (image+.cue+log) - 834 MB | MP3 CBR 320 kbps (LAME 3.93) - 329 MB | Covers - 43 MB
Genre: Progressive/Psychedelic Rock | RAR 3% Rec. | Label: BR Music (BS 8140-2)

Formed in 1967 by keyboard player Vangelis, the band also featured Demis Roussos on bass and vocals and Lucas Sideras on drums. This set from the BR imprint is essentially the same as Polygram International's Collection from 1995. The sequence of Singles is slightly altered, and it includes live versions of "End of the World" and "Lontano Dagli Occhi", as well as the studio track "Pathenon", but other than that the two releases are identical. Both offer the hit singles "Rain and Tears" and "Break", as well as a run through the group's Mediterranean take on psychedelia and highlights of 1972's high-concept 666 - widely considered to be Aphrodite's Child's finest hour.

CD 1 Tracklist:
01. Rain And Tears
02. Don't Try To Catch A River
03. Plastics Nevermore
04. The Other People
05. End Of The World
06. You Always Stand In My Way
07. Valley Of Sadness
08. Mister Thomas
09. The Grass Is No Green
10. The Shepard And The Moon
11. Day Of The Fool
12. Quando L'amore Diventa Poesia
13. Lontano Dagli Occhi
14. I Want To Live
15. Magic Mirror
16. Let Me Love, Let Me Live
17. Marie Jolie
18. It's Five O'Clock
19. Funky Mary

Total time: 01:11:16

CD 2 Tracklist:
01. Wake Up
02. Take Your Time
03. Annabella
04. Good Time So Fine
05. Such a Funny Night
06. Spring Summer Winter and Fall
07. Air
08. Break
09. Babylon
10. The Four Horsemen
11. The Lamb
12. The Seventh Seal
13. Aegian Sea
14. Lament
15. The Marching Beast
16. Hic Et Nunc (Here and Now)
17. End Of The World (Live, Bonus track)
18. Lontano Dagli Occhi (Live, Bonus track)
19. Pathenon (Bonus track)

Total time: 01:08:22

Exact Audio Copy V0.99 prebeta 5 from 4. May 2009

Отчёт EAC об извлечении, выполненном 16. августа 2009, 17:32

Aphrodite's Child / The Singles+

Дисковод: HL-DT-STDVDRAM GSA-T20N Adapter: 1 ID: 0

Режим чтения : Достоверность
Использование точного потока : Да
Отключение кэша аудио : Да
Использование указателей C2 : Нет

Коррекция смещения при чтении : 667
Способность читать области Lead-in и Lead-out : Нет
Заполнение пропущенных сэмплов тишиной : Да
Удаление блоков с тишиной в начале и конце : Нет
При вычислениях CRC использовались нулевые сэмплы : Да
Интерфейс : Встроенный Win32-интерфейс для Win NT/2000

Выходной формат : Пользовательский кодировщик
Выбранный битрейт : 768 kBit/s
Качество : Высокий
Добавление ID3-тэга : Нет
Утилита сжатия : C:\Program Files\Exact Audio Copy\FLAC\FLAC.EXE
Дополнительные параметры : -8 -V %s


TOC извлечённого CD

Трек | Старт | Длительность | Начальный сектор | Конечный сектор
––––––––––––––––––––––––––––––––––-
1 | 0:00.00 | 3:14.32 | 0 | 14581
2 | 3:14.32 | 3:42.40 | 14582 | 31271
3 | 6:56.72 | 2:32.13 | 31272 | 42684
4 | 9:29.10 | 3:08.67 | 42685 | 56851
5 | 12:38.02 | 3:15.45 | 56852 | 71521
6 | 15:53.47 | 3:58.25 | 71522 | 89396
7 | 19:51.72 | 3:14.13 | 89397 | 103959
8 | 23:06.10 | 2:50.07 | 103960 | 116716
9 | 25:56.17 | 6:07.63 | 116717 | 144304
10 | 32:04.05 | 3:04.25 | 144305 | 158129
11 | 35:08.30 | 5:58.22 | 158130 | 185001
12 | 41:06.52 | 2:40.73 | 185002 | 197074
13 | 43:47.50 | 3:42.67 | 197075 | 213791
14 | 47:30.42 | 3:51.70 | 213792 | 231186
15 | 51:22.37 | 2:53.10 | 231187 | 244171
16 | 54:15.47 | 4:42.35 | 244172 | 265356
17 | 58:58.07 | 4:37.70 | 265357 | 286201
18 | 63:36.02 | 3:29.65 | 286202 | 301941
19 | 67:05.67 | 4:10.43 | 301942 | 320734


Характеристики диапазона извлечения и сообщения об ошибках

Выбранный диапазон

Имя файла D:\Azureus Downloads\Aphrodite's Child - The Singles+\Aphrodite's Child - The Singles+.wav

Пиковый уровень 94.7 %
Качество диапазона 100.0 %
CRC теста 1F49C120
CRC копии 1F49C120
Копирование… OK

Ошибок не произошло


AccurateRip: сводка

Трек 1 точное извлечение (доверие 2) [B3AC1205]
Трек 2 точное извлечение (доверие 2) [2CBAC479]
Трек 3 точное извлечение (доверие 2) [F1237764]
Трек 4 точное извлечение (доверие 2) [002C8DB9]
Трек 5 точное извлечение (доверие 2) [42B8AB4F]
Трек 6 точное извлечение (доверие 2) [66BF4120]
Трек 7 точное извлечение (доверие 2) [92FE00EA]
Трек 8 точное извлечение (доверие 2) [ECAC33E9]
Трек 9 точное извлечение (доверие 2) [A26B760B]
Трек 10 точное извлечение (доверие 2) [5F14E063]
Трек 11 точное извлечение (доверие 2) [633E3BBA]
Трек 12 точное извлечение (доверие 2) [39E59735]
Трек 13 точное извлечение (доверие 2) [DCE0372B]
Трек 14 точное извлечение (доверие 2) [0A2800D8]
Трек 15 точное извлечение (доверие 2) [F1CEC277]
Трек 16 точное извлечение (доверие 2) [DD91FCDD]
Трек 17 точное извлечение (доверие 2) [5B49D3FA]
Трек 18 точное извлечение (доверие 2) [78A0878B]
Трек 19 точное извлечение (доверие 2) [293E365B]

Все треки извлечены точно

Конец отчёта

[CUETools log; Date: 16.04.2019 11:56:14; Version: 2.1.4]
[CTDB TOCID: rNt37tJWrtNehdIP.ZQRVgrwlzw-] found.
Track | CTDB Status
1 | (36/37) Accurately ripped
2 | (36/37) Accurately ripped
3 | (36/37) Accurately ripped
4 | (36/37) Accurately ripped
5 | (36/37) Accurately ripped
6 | (36/37) Accurately ripped
7 | (36/37) Accurately ripped
8 | (36/37) Accurately ripped
9 | (36/37) Accurately ripped
10 | (36/37) Accurately ripped
11 | (36/37) Accurately ripped
12 | (36/37) Accurately ripped
13 | (36/37) Accurately ripped
14 | (35/37) Accurately ripped
15 | (36/37) Accurately ripped
16 | (36/37) Accurately ripped
17 | (36/37) Accurately ripped
18 | (36/37) Accurately ripped
19 | (36/37) Accurately ripped
[AccurateRip ID: 002eeb46-029a388c-1d10b413] found.
Track [ CRC | V2 ] Status
01 [b3ac1205|3cdfc5d4] (02+06/20) Accurately ripped
02 [2cbac479|596b8261] (02+06/20) Accurately ripped
03 [f1237764|5f1760bc] (02+06/20) Accurately ripped
04 [002c8db9|ab196d18] (02+06/20) Accurately ripped
05 [42b8ab4f|b41b35dd] (02+06/20) Accurately ripped
06 [66bf4120|11e01ded] (02+06/20) Accurately ripped
07 [92fe00ea|cd043e30] (02+06/20) Accurately ripped
08 [ecac33e9|a82922f5] (02+06/20) Accurately ripped
09 [a26b760b|62c08850] (02+06/20) Accurately ripped
10 [5f14e063|c610aaae] (02+06/20) Accurately ripped
11 [633e3bba|ebdeb84f] (02+06/20) Accurately ripped
12 [39e59735|7dc9c886] (02+06/20) Accurately ripped
13 [dce0372b|a93b758d] (02+06/20) Accurately ripped
14 [0a2800d8|adce7b74] (02+06/20) Accurately ripped
15 [f1cec277|6e6d9bd2] (02+06/20) Accurately ripped
16 [dd91fcdd|415df884] (02+06/20) Accurately ripped
17 [5b49d3fa|2e2ec13b] (02+06/20) Accurately ripped
18 [78a0878b|8098e00b] (02+06/20) Accurately ripped
19 [293e365b|c022449d] (02+06/20) Accurately ripped
Offsetted by -1257:
01 [bf64ac2a] (02/20) Accurately ripped
02 [6cfc26b1] (02/20) Accurately ripped
03 [03e90702] (02/20) Accurately ripped
04 [d56a3a45] (02/20) Accurately ripped
05 [61f1c9cd] (02/20) Accurately ripped
06 [d7c7931d] (02/20) Accurately ripped
07 [92d83076] (02/20) Accurately ripped
08 [862f7806] (02/20) Accurately ripped
09 [76fbbd96] (02/20) Accurately ripped
10 [0cd721c0] (02/20) Accurately ripped
11 [3ea7de2a] (02/20) Accurately ripped
12 [05ec43cf] (02/20) Accurately ripped
13 [4ab1675f] (02/20) Accurately ripped
14 [e92d9411] (02/20) Accurately ripped
15 [17dcd602] (02/20) Accurately ripped
16 [e4759842] (02/20) Accurately ripped
17 [af2aa2ce] (02/20) Accurately ripped
18 [1746e4a9] (02/20) Accurately ripped
19 [55bbef19] (02/20) Accurately ripped

Track Peak [ CRC32 ] [W/O NULL] [ LOG ]
– 94,7 [1F49C120] [B0FFAE14] CRC32
01 86,5 [540A82AB] [B368B72B]
02 80,4 [82BF8AEF] [C66DE08F]
03 94,7 [6F1ABE93] [B8FED86F]
04 89,4 [17695895] [4FAC9608]
05 79,4 [6076BE37] [E19C6FB8]
06 81,2 [D923B049] [AA00A2E3]
07 78,9 [15AF2535] [153B011C]
08 75,2 [5874784B] [21049120]
09 86,8 [8C4EF463] [1CEC4FCD]
10 86,9 [05D638DA] [8B83D65B]
11 92,8 [8B4A87B9] [9309A557]
12 91,1 [C96DFED9] [3866B208]
13 80,9 [D3028EAD] [5F8CA5E7]
14 72,6 [CAD1EDEE] [AA681665]
15 81,4 [65F6C01A] [F6A6CA31]
16 80,1 [ADD8DAB1] [F917E83B]
17 79,7 [E843DEA0] [E8E4D039]
18 81,2 [FDD8C725] [EBB556A5]
19 82,5 [2C9386B3] [61B39BE4]

Exact Audio Copy V0.99 prebeta 5 from 4. May 2009

Отчёт EAC об извлечении, выполненном 16. августа 2009, 18:22

Aphrodite's Child / The Singles+ (cd2)

Дисковод: HL-DT-STDVDRAM GSA-T20N Adapter: 1 ID: 0

Режим чтения : Достоверность
Использование точного потока : Да
Отключение кэша аудио : Да
Использование указателей C2 : Нет

Коррекция смещения при чтении : 667
Способность читать области Lead-in и Lead-out : Нет
Заполнение пропущенных сэмплов тишиной : Да
Удаление блоков с тишиной в начале и конце : Нет
При вычислениях CRC использовались нулевые сэмплы : Да
Интерфейс : Встроенный Win32-интерфейс для Win NT/2000

Выходной формат : Пользовательский кодировщик
Выбранный битрейт : 768 kBit/s
Качество : Высокий
Добавление ID3-тэга : Нет
Утилита сжатия : C:\Program Files\Exact Audio Copy\FLAC\FLAC.EXE
Дополнительные параметры : -8 -V %s


TOC извлечённого CD

Трек | Старт | Длительность | Начальный сектор | Конечный сектор
––––––––––––––––––––––––––––––––––-
1 | 0:00.00 | 4:03.67 | 0 | 18291
2 | 4:03.67 | 2:39.33 | 18292 | 30249
3 | 6:43.25 | 3:52.02 | 30250 | 47651
4 | 10:35.27 | 2:44.45 | 47652 | 59996
5 | 13:19.72 | 3:39.40 | 59997 | 76461
6 | 16:59.37 | 4:54.13 | 76462 | 98524
7 | 21:53.50 | 4:17.45 | 98525 | 117844
8 | 26:11.20 | 2:54.05 | 117845 | 130899
9 | 29:05.25 | 2:51.67 | 130900 | 143791
10 | 31:57.17 | 5:53.05 | 143792 | 170271
11 | 37:50.22 | 4:35.38 | 170272 | 190934
12 | 42:25.60 | 1:30.67 | 190935 | 197751
13 | 43:56.52 | 5:20.03 | 197752 | 221754
14 | 49:16.55 | 2:53.25 | 221755 | 234754
15 | 52:10.05 | 2:00.42 | 234755 | 243796
16 | 54:10.47 | 2:55.08 | 243797 | 256929
17 | 57:05.55 | 3:39.72 | 256930 | 273426
18 | 60:45.52 | 2:57.50 | 273427 | 286751
19 | 63:43.27 | 4:38.30 | 286752 | 307631


Характеристики диапазона извлечения и сообщения об ошибках

Выбранный диапазон

Имя файла D:\Azureus Downloads\Aphrodite's Child - The Singles+\Aphrodite's Child - The Singles+ (cd2).wav

Пиковый уровень 92.7 %
Качество диапазона 100.0 %
CRC теста 4B98E329
CRC копии 4B98E329
Копирование… OK

Ошибок не произошло


AccurateRip: сводка

Трек 1 точное извлечение (доверие 2) [DCA1BBCC]
Трек 2 точное извлечение (доверие 2) [BAE05989]
Трек 3 точное извлечение (доверие 2) [ACAAF8B7]
Трек 4 точное извлечение (доверие 2) [F31129C8]
Трек 5 точное извлечение (доверие 2) [45D96018]
Трек 6 точное извлечение (доверие 2) [75B04C7E]
Трек 7 точное извлечение (доверие 2) [7DBCF5C6]
Трек 8 точное извлечение (доверие 2) [EBD2E9A4]
Трек 9 точное извлечение (доверие 2) [D7A8D542]
Трек 10 точное извлечение (доверие 2) [B3CA410B]
Трек 11 точное извлечение (доверие 2) [C3E53E23]
Трек 12 точное извлечение (доверие 2) [C7FC8AC7]
Трек 13 точное извлечение (доверие 2) [CAA5DA2D]
Трек 14 точное извлечение (доверие 2) [8463FC43]
Трек 15 точное извлечение (доверие 2) [AA31DDF6]
Трек 16 точное извлечение (доверие 2) [FC4FB4FA]
Трек 17 точное извлечение (доверие 2) [897EC42B]
Трек 18 точное извлечение (доверие 2) [2D6BE58D]
Трек 19 точное извлечение (доверие 2) [C5C3A976]

Все треки извлечены точно

Конец отчёта

[CUETools log; Date: 16.04.2019 11:56:55; Version: 2.1.4]
[CTDB TOCID: G8nXl9D55kUC6_fjkt2_soUE.0k-] found.
Track | CTDB Status
1 | (39/39) Accurately ripped
2 | (39/39) Accurately ripped
3 | (39/39) Accurately ripped
4 | (39/39) Accurately ripped
5 | (39/39) Accurately ripped
6 | (39/39) Accurately ripped
7 | (39/39) Accurately ripped
8 | (39/39) Accurately ripped
9 | (39/39) Accurately ripped
10 | (39/39) Accurately ripped
11 | (39/39) Accurately ripped
12 | (39/39) Accurately ripped
13 | (39/39) Accurately ripped
14 | (39/39) Accurately ripped
15 | (39/39) Accurately ripped
16 | (38/39) Accurately ripped
17 | (37/39) Accurately ripped
18 | (38/39) Accurately ripped
19 | (38/39) Accurately ripped
[AccurateRip ID: 002f6b8a-029768de-0a100513] found.
Track [ CRC | V2 ] Status
01 [dca1bbcc|68c2d2f9] (02+07/21) Accurately ripped
02 [bae05989|a3401c8d] (02+07/21) Accurately ripped
03 [acaaf8b7|7101d1da] (02+07/21) Accurately ripped
04 [f31129c8|80b54fb9] (02+07/21) Accurately ripped
05 [45d96018|64153653] (02+07/21) Accurately ripped
06 [75b04c7e|d77c0edb] (02+07/21) Accurately ripped
07 [7dbcf5c6|eb54ab4f] (02+07/21) Accurately ripped
08 [ebd2e9a4|f753e065] (02+07/21) Accurately ripped
09 [d7a8d542|4f8fefbb] (02+07/21) Accurately ripped
10 [b3ca410b|76c44740] (02+07/21) Accurately ripped
11 [c3e53e23|b5c4ced4] (02+07/21) Accurately ripped
12 [c7fc8ac7|aa2d3168] (02+07/21) Accurately ripped
13 [caa5da2d|51fb9ee9] (02+07/21) Accurately ripped
14 [8463fc43|d71d8ba9] (02+07/21) Accurately ripped
15 [aa31ddf6|f6c520c9] (02+07/21) Accurately ripped
16 [fc4fb4fa|053821cd] (02+07/21) Accurately ripped
17 [897ec42b|ae5be15f] (02+07/21) Accurately ripped
18 [2d6be58d|3f44747c] (02+07/21) Accurately ripped
19 [c5c3a976|3a635bda] (02+07/21) Accurately ripped
Offsetted by -593:
01 [2fc70d2b] (02/21) Accurately ripped
02 [4a2c22fa] (02/21) Accurately ripped
03 [07d59c5a] (02/21) Accurately ripped
04 [aaa30c60] (02/21) Accurately ripped
05 [70b9756a] (02/21) Accurately ripped
06 [4f5a1816] (02/21) Accurately ripped
07 [321ea479] (02/21) Accurately ripped
08 [91e32884] (02/21) Accurately ripped
09 [aeb5c693] (02/21) Accurately ripped
10 [43fd7570] (02/21) Accurately ripped
11 [da9fdd37] (02/21) Accurately ripped
12 [5e855992] (02/21) Accurately ripped
13 [29e0eefe] (02/21) Accurately ripped
14 [b6db88a6] (02/21) Accurately ripped
15 [90ae77b8] (02/21) Accurately ripped
16 [17358683] (02/21) Accurately ripped
17 [637d8bfe] (02/21) Accurately ripped
18 [48d4616a] (02/21) Accurately ripped
19 [4a91a88b] (02/21) Accurately ripped

Track Peak [ CRC32 ] [W/O NULL] [ LOG ]
– 92,7 [4B98E329] [44CF941A] CRC32
01 78,7 [1ED8170D] [7CDD5468]
02 71,9 [D2480842] [8A3B7F78]
03 67,2 [D613E3EF] [BF8D186F]
04 84,0 [7B5C3EA9] [CA54A738]
05 86,6 [462E33AF] [123DC817]
06 70,8 [1BC30A05] [C52BA68F]
07 81,0 [60041ED2] [23C0D12F]
08 91,8 [30895D60] [6EE8BF65]
09 76,6 [6EAAFB6D] [D258D913]
10 88,2 [ED0C84DD] [BD5DB188]
11 90,6 [A9602BBC] [606A1CB5]
12 58,3 [0E1D2A91] [7EA75320]
13 92,7 [D78A39A6] [D1791EC2]
14 24,7 [36B4547E] [2092C836]
15 88,4 [931490E1] [C652CDC2]
16 68,1 [D30094BE] [07B58AE8]
17 62,9 [5B70C2B8] [EF2C7D30]
18 71,7 [CA549674] [E9D0AA4E]
19 86,0 [A6EF9E6D] [4359A27A]

Thanks to kurok79

See also:
Aphrodite's Child - 2 Studio Albums (1968-1969) [Reissue 2010]
Demis Roussos - Greatest Hits (1971-1980) (1983)