Subcategories

April Wine - Classic Album Set (2016) [6CD Box Set]

Posted By: v3122
April Wine - Classic Album Set (2016) [6CD Box Set]

April Wine - Classic Album Set (2016)
EAC | Flac(Image) + Cue + Log & MP3 CBR 320Kbps
Aquarius / Caroline Records, CAROLR035CD | ~ 1729 or 583 Mb | Scans(png) -> 329 Mb
Classic Rock / Blues Rock / Hard Rock

Think of Canadian rock bands and Rush probably spring to mind, as would Steppenwolf and Triumph. All fantastic bands. That's not to take anything away from April Wine, who in terms of output (if not success), must rank alongside the aforementioned. Classic hard rock that is really worth checking out.

Formed in 1969 in Halifax, Nova Scotia, Canada, the band originally featured brothers guitarist David Henman and drummer Ritchie Henman, with cousin bassist Jim Henman. Guitarist and vocalist Myles Goodwyn completed the line-up.

April wine have had many ups and downs, commercially and personally, with a number of personnel passing through the ranks. This 6 CD set features five of the band's late 70s and early 80s studio albums, the band's peak period on several levels ('First Glance', 'Harder Faster', 'The Nature Of The Beast', 'Power Play', 'Animal Grace') and a Live @ Reading 1980 BBC recording.

Relocating to Montreal, April Wine's eponymous debut was released in 1971, originally locally on the Aquarius label, and quickly established Goodwyn as a dominant creative force within the band. 'On Record' followed, with Jim Clench coming in on bass. 'Electric Jewells' followed in 1973, now with Goodwyn as the sole remaining original member.

'Stand Back' and 'The Whole World's Goin' Crazy' followed, attaining Platinum status in their native Canada.

By 1978s 'First Glance', the band's seventh studio album (a couple of live albums along the way too), the band were starting to get serious international recognition. Alongside guitarist/vocalist/keyboard player Goodwyn were bassist Steve Lang, guitarists/vocalists Brian Greenway and Gary Moffet, and drummer Jerry Mercer.

'First Glance' was the band's first gold record outside of Canada, and rightfully so. The album here (track lists and artwork often varied inside and outside of Canada) kicks off with 'Get Ready For Love'. The triple guitar adds a serious punch, Goodwyn's production is clear and solid. That opening track features some serious riffage with a decent guitar solo or two mixed in. 'Hot On The Wheels Of Love' could influence of many, and Roller was a hit in the US. 'Rock'n'Roll Is A Vicious Game' is more mellow track. Throughout the album the odd touch of keyboards and slide guitar add a decent touch.

As international success built, 1979s 'Harder Faster' saw the same track list/art on all versions. Opener 'I Like To Rock' was a hit in the US, and saw similar three pronged guitar interplay. There's also a serious nod to The Rolling Stones (a few plagiaristic bars).

Unlike many Southern Rock bands who took the triple guitar in an Americana direction, here it all builds. Even on the mellower tracks like 'Say Hello' there's some decent work. Although the album's a little short at 32 minutes, there's a very strong six minute cover of King Crimson's '21st Century Schizoid Man'. Fantastic.

1981s 'Nature Of The Beast' is perhaps the band's best known album, and is essential listening. Recorded in the UK after a European tour, there is an AOR nod, with opener 'All Over Town' hinting to fellow Canadian's Rush, in a more ballsy manner. Another top rocker is 'Tellin' Me Lies', a hint of Triumph and it's all good stuff. There's some searing guitar on 'Sign Of The Gypsy Queen', melodic and rocking too. There's a couple of bonus live tracks on this disc too!

1982s 'Power Play' was more blistering, kicking off with the uptempo rocking 'Anything You Want You Got It'. It's a serious arse kicking track. The album didn't meet the critical acclaim of the previous album, but it's still wonderful set. There is a polish that takes the edge of some tracks, compared to the previous album in particular. No slide, just largely good rocking. The odd track like 'If You See Kay' drift (in a commercially pleasant way) by comparison. There is a good if gentle cover of the Lennon/McCartney track 'Tell Me Why' though.

1984s 'Animal Grace' was the band's eleventh studio set and the last one of this set, finishes the period nicely. The band had had a stable period and although it's a little more polished, rather more typically 80s, there's still some great album. Opener 'This Could Be The Right One' is both a rocked to get you nodding and melodic enough for the rock charts.

'Sons Of Pioneers' follows suit nicely, the whole album is a damn fine listen if not in the 'Nature Of The Beast' league. The bite may have lessened but there's still some great tracks here, Myles Goodwyn's song writing as good as ever.

The final disc is a live set from 1980, recorded the same year as they appeared at the inaugural Monsters Of Rock. This one, recorded in Reading (a club, not the festival) is a BBC recorded although it does have an official bootleg feel. The opener 'Oowatanite' (an earlier song) gets a rapturous response and rightly so, despite the distortion. Totally blistering. 'Get Ready For Love' and 'I Like To Rock' all blow the place down, and there's that cracking King Crimson cover too. Brave? Yes. But worth it. If you want to do demented hard rock, this is it.

'Post 84' the band lasted another album and line-up change before going their separate ways, and reforming. Like the early material, it's good and worth checking out, but doesn't come close to the studio albums featured here.

Six CDs in card sleeves with a well annotated booklet, all in a box; bar a few extras and singles that could (SHOULD) have been included with each studio set, and maybe a better recorded live set, this is a near perfect collection of April Wine's creatively and commercially most productive period.

by Joe Geesin, metaltalk.net
April Wine - Classic Album Set (2016) [6CD Box Set]

April Wine - Classic Album Set (2016):

April Wine - Classic Album Set (2016) [6CD Box Set]

CD01: April Wine - First Glance (1978)
EAC | Flac(Image) + Cue + Log & MP3 CBR 320Kbps
Aquarius / Caroline Records | ~ 234 or 79 Mb | Scans(png) -> 34 Mb
Classic Rock / Blues Rock / Hard Rock

April Wine is a perfect example of a band that critics loved to loathe in the 1970s and 1980s – you could fill an encyclopedia with all the negative reviews that First Glance received in 1978. Critics detested commercial hard rock/arena rock items like "Hot on the Wheels of Love," "Roller" and "Get Ready for Love" with a passion, but fans of the Canadian band paid no attention and bought the album anyway. First Glance wasn't meant to be challenging or cutting-edge; April Wine's mission was to pull the listener in with infectious grooves and hooks and enable him/her to escape – and this album definitely accomplishes those things. One of April Wine's finest releases, First Glance is easily recommended to hard rock enthusiasts.

by Alex Henderson, AMG
Tracklist:

01. Get Ready for Love 04:25
02. Hot On The Wheels Of Love 03:14
03. Rock N' Roll Is A Vicious Game 03:10
04. Right Down To It 04:19
05. Roller 6. Comin' Right Down On Top Of Me 04:11
06. I'm Alive 02:55
07. Let Yourself Go 02:56
08. Silver Dollar 05:16

Exact Audio Copy V1.1 from 23. June 2015

EAC extraction logfile from 13. April 2016, 17:58

April Wine / First Glance

Used drive : PLEXTOR BD-R PX-B950SA Adapter: 1 ID: 1

Read mode : Secure
Utilize accurate stream : Yes
Defeat audio cache : Yes
Make use of C2 pointers : No

Read offset correction : 6
Overread into Lead-In and Lead-Out : No
Fill up missing offset samples with silence : Yes
Delete leading and trailing silent blocks : No
Null samples used in CRC calculations : Yes
Used interface : Native Win32 interface for Win NT & 2000

Used output format : Internal WAV Routines
Sample format : 44.100 Hz; 16 Bit; Stereo


TOC of the extracted CD

Track | Start | Length | Start sector | End sector
––––––––––––––––––––––––––––-
1 | 0:00.00 | 4:25.47 | 0 | 19921
2 | 4:25.47 | 3:14.32 | 19922 | 34503
3 | 7:40.04 | 3:10.51 | 34504 | 48804
4 | 10:50.55 | 3:02.62 | 48805 | 62516
5 | 13:53.42 | 4:19.35 | 62517 | 81976
6 | 18:13.02 | 4:11.00 | 81977 | 100801
7 | 22:24.02 | 2:55.26 | 100802 | 113952
8 | 25:19.28 | 2:56.13 | 113953 | 127165
9 | 28:15.41 | 5:16.60 | 127166 | 150925


Range status and errors

Selected range

Filename C:\Users\Meijin\Desktop\ALLexxess\April Wine\2016 April Wine (6CD Box Set Caroline Records)\1978 First Glance\April Wine - First Glance.wav

Peak level 97.0 %
Extraction speed 6.4 X
Range quality 100.0 %
Test CRC C59CEF92
Copy CRC C59CEF92
Copy OK

No errors occurred


AccurateRip summary

Track 1 not present in database
Track 2 not present in database
Track 3 not present in database
Track 4 not present in database
Track 5 not present in database
Track 6 not present in database
Track 7 not present in database
Track 8 not present in database
Track 9 not present in database

None of the tracks are present in the AccurateRip database

End of status report

–– CUETools DB Plugin V2.1.6

[CTDB TOCID: Vy.iBCLOYEokNWU6z8XLxRVhl4g-] found
Submit result: Vy.iBCLOYEokNWU6z8XLxRVhl4g- has been confirmed
Track | CTDB Status
1 | (2/2) Accurately ripped
2 | (2/2) Accurately ripped
3 | (2/2) Accurately ripped
4 | (2/2) Accurately ripped
5 | (2/2) Accurately ripped
6 | (2/2) Accurately ripped
7 | (2/2) Accurately ripped
8 | (2/2) Accurately ripped
9 | (2/2) Accurately ripped


==== Log checksum 92AFB05F75B097EAEFDA6AAF04AF149797D730939A3DF6F49C1C0B64B3D4FDAF ====

* * * * *

April Wine - Classic Album Set (2016) [6CD Box Set]

CD02: April Wine - Harder…..Faster (1979)
EAC | Flac(Image) + Cue + Log & MP3 CBR 320Kbps
Aquarius / Caroline Records | ~ 229 or 78 Mb | Scans(png) -> 35 Mb
Classic Rock / Blues Rock / Hard Rock

As suggested by its title, Harder…Faster sees veteran Canadian rockers April Wine taking things up a notch with relentless slabs of hard rock in "I Like to Rock" and "Ladies Man." Also on hand is a memorable cool groover called "Say Hello," a curious cover of King Crimson's "21st Century Schizoid Man," and the dual personality of "Tonite," which alternates between quiet balladry and all-out riffing. Band leader Myles Goodwyn even relinquishes the spotlight in a rare show of democracy to second guitarist Brian Greenway on the impressive "Before the Dawn." Ultimately, this is a consistently strong album which sets the stage for what would be April Wine's best effort, the following year's The Nature of the Beast.

by Eduardo Rivadavia, AMG
Tracklist:

01. I Like to Rock 04:23
02. Say Hello 02:59
03. Tonite 04:12
04. Ladies Man 03:36
05. Before The Dawn 04:21
06. Babes In Arms 03:21
07. Better Do It Well 03:34
08. 21st Century Schizoid Man 06:26

Exact Audio Copy V1.1 from 23. June 2015

EAC extraction logfile from 13. April 2016, 17:36

April Wine / Harder…..Faster

Used drive : PLEXTOR BD-R PX-B950SA Adapter: 1 ID: 1

Read mode : Secure
Utilize accurate stream : Yes
Defeat audio cache : Yes
Make use of C2 pointers : No

Read offset correction : 6
Overread into Lead-In and Lead-Out : No
Fill up missing offset samples with silence : Yes
Delete leading and trailing silent blocks : No
Null samples used in CRC calculations : Yes
Used interface : Native Win32 interface for Win NT & 2000

Used output format : Internal WAV Routines
Sample format : 44.100 Hz; 16 Bit; Stereo


TOC of the extracted CD

Track | Start | Length | Start sector | End sector
––––––––––––––––––––––––––––-
1 | 0:00.00 | 4:23.30 | 0 | 19754
2 | 4:23.30 | 2:59.08 | 19755 | 33187
3 | 7:22.38 | 4:12.71 | 33188 | 52158
4 | 11:35.34 | 3:36.23 | 52159 | 68381
5 | 15:11.57 | 4:21.13 | 68382 | 87969
6 | 19:32.70 | 3:21.02 | 87970 | 103046
7 | 22:53.72 | 3:34.70 | 103047 | 119166
8 | 26:28.67 | 6:26.18 | 119167 | 148134


Range status and errors

Selected range

Filename C:\Users\Meijin\Desktop\ALLexxess\April Wine\2016 April Wine (6CD Box Set Caroline Records)\1979 Harder…..Faster\April Wine - Harder…..Faster.wav

Peak level 97.0 %
Extraction speed 6.4 X
Range quality 100.0 %
Test CRC 29755BA1
Copy CRC 29755BA1
Copy OK

No errors occurred


AccurateRip summary

Track 1 not present in database
Track 2 not present in database
Track 3 not present in database
Track 4 not present in database
Track 5 not present in database
Track 6 not present in database
Track 7 not present in database
Track 8 not present in database

None of the tracks are present in the AccurateRip database

End of status report

–– CUETools DB Plugin V2.1.6

[CTDB TOCID: rocB1lRZQK1qdTAb_8ddGwrexkY-] found
Submit result: rocB1lRZQK1qdTAb_8ddGwrexkY- has been confirmed
Track | CTDB Status
1 | (2/2) Accurately ripped
2 | (2/2) Accurately ripped
3 | (2/2) Accurately ripped
4 | (2/2) Accurately ripped
5 | (2/2) Accurately ripped
6 | (2/2) Accurately ripped
7 | (2/2) Accurately ripped
8 | (1/2) Accurately ripped


==== Log checksum 80D76CFBB5BF064AE472FABFEEBD03FA4DFE6EA5FE5999DC6553E2498BC209F4 ====

* * * * *

April Wine - Classic Album Set (2016) [6CD Box Set]

CD03: April Wine - The Nature Of The Beast (1981)
EAC | Flac(Image) + Cue + Log & MP3 CBR 320Kbps
Aquarius / Caroline Records | ~ 368 or 118 Mb | Scans(png) -> 34 Mb
Hard Rock

April Wine (like any good wine) got better with age, and the Canadians' brightest moment only arrived over a decade into their career with 1981's The Nature of the Beast. Opener "All Over Town" lurches into action on a lopsided riff before finding its awesome groove, – a groove they seldom abandon through and to the end of the disc. All-around frontman Myles Goodwyn is in top form, leading the band through some of their most aggressive material ever ("Bad Boys," "Crash and Burn"), as well as through the band's career-defining power ballad "Just Between You and Me." While "Caught in the Crossfire" and "Future Tense" suffer from some cheesy sci-fi lyrics, melodic hard rockers such as "Big City Girls," "One More Time," and "Sign of the Gypsy Queen" (featuring Thin Lizzy-like dual guitar harmonies) pick up the slack in spades.

by Eduardo Rivadavia, AMG
Tracklist:

01. All Over Town 03:01
02. Tellin' Me Lies 03:01
03. Sign Of The Gypsy Queen 04:17
04. Just Between You And Me 03:55
05. Wanna Rock 02:05
06. Caught In The Crossfire 03:35
07. Future Tense 04:09
08. Big City Girls 03:42
09. Crash And Burn 02:33
10. Bad Boys 03:10
11. One More Time 03:58
12. Roller (Live At Hammersmith) 04:19
13. I Like To Rock (Live At Hammersmith) 08:23

Exact Audio Copy V1.1 from 23. June 2015

EAC extraction logfile from 13. April 2016, 17:15

April Wine / The Nature Of The Beast

Used drive : PLEXTOR BD-R PX-B950SA Adapter: 1 ID: 1

Read mode : Secure
Utilize accurate stream : Yes
Defeat audio cache : Yes
Make use of C2 pointers : No

Read offset correction : 6
Overread into Lead-In and Lead-Out : No
Fill up missing offset samples with silence : Yes
Delete leading and trailing silent blocks : No
Null samples used in CRC calculations : Yes
Used interface : Native Win32 interface for Win NT & 2000

Used output format : Internal WAV Routines
Sample format : 44.100 Hz; 16 Bit; Stereo


TOC of the extracted CD

Track | Start | Length | Start sector | End sector
––––––––––––––––––––––––––––-
1 | 0:00.00 | 3:01.34 | 0 | 13608
2 | 3:01.34 | 3:01.29 | 13609 | 27212
3 | 6:02.63 | 4:17.73 | 27213 | 46560
4 | 10:20.61 | 3:55.67 | 46561 | 64252
5 | 14:16.53 | 2:05.58 | 64253 | 73685
6 | 16:22.36 | 3:35.62 | 73686 | 89872
7 | 19:58.23 | 4:09.62 | 89873 | 108609
8 | 24:08.10 | 3:42.03 | 108610 | 125262
9 | 27:50.13 | 2:33.45 | 125263 | 136782
10 | 30:23.58 | 3:10.24 | 136783 | 151056
11 | 33:34.07 | 3:58.61 | 151057 | 168967
12 | 37:32.68 | 4:19.54 | 168968 | 188446
13 | 41:52.47 | 8:23.63 | 188447 | 226234


Range status and errors

Selected range

Filename C:\Users\Meijin\Desktop\ALLexxess\April Wine\2016 April Wine (6CD Box Set Caroline Records)\1981 The Nature Of The Beast\April Wine - The Nature Of The Beast.wav

Peak level 98.6 %
Extraction speed 7.2 X
Range quality 100.0 %
Test CRC 8B91F720
Copy CRC 8B91F720
Copy OK

No errors occurred


AccurateRip summary

Track 1 not present in database
Track 2 not present in database
Track 3 not present in database
Track 4 not present in database
Track 5 not present in database
Track 6 not present in database
Track 7 not present in database
Track 8 not present in database
Track 9 not present in database
Track 10 not present in database
Track 11 not present in database
Track 12 not present in database
Track 13 not present in database

None of the tracks are present in the AccurateRip database

End of status report

–– CUETools DB Plugin V2.1.6

[CTDB TOCID: vtoarlTrvZafSJ4bQznV_Qv0g9o-] found
Submit result: vtoarlTrvZafSJ4bQznV_Qv0g9o- has been confirmed
Track | CTDB Status
1 | (1/1) Accurately ripped
2 | (1/1) Accurately ripped
3 | (1/1) Accurately ripped
4 | (1/1) Accurately ripped
5 | (1/1) Accurately ripped
6 | (1/1) Accurately ripped
7 | (1/1) Accurately ripped
8 | (1/1) Accurately ripped
9 | (1/1) Accurately ripped
10 | (1/1) Accurately ripped
11 | (1/1) Accurately ripped
12 | (1/1) Accurately ripped
13 | (1/1) Accurately ripped


==== Log checksum BDC5DE3A5425466A7A30203B0414F6C409E98A507965359EAC8D3D9914ADD2D9 ====

* * * * *

April Wine - Classic Album Set (2016) [6CD Box Set]

CD04: April Wine - Power Play (1982)
EAC | Flac(Image) + Cue + Log & MP3 CBR 320Kbps
Aquarius / Caroline Records | ~ 321 or 102 Mb | Scans(png) -> 32 Mb
Hard Rock

Having just released two blockbuster albums in a row (the second of which contained the highest charting single of their career, "Just between You and Me"), April Wine was riding high in the early '80s. So it was quite surprising when their hot streak came to a screeching halt with the release of 1983's terribly humdrum Power Play. If only this mediocrity could have been blamed on a change of musical direction, new personnel, or another mysterious force of nature, but the album simply lacks good songs and perhaps musical mastermind Myles Goodwyn had simply run out of creative steam. Not that the album is a complete wash-out, as the band manages to pull it together on a few mid-paced rockers like "Anything You want, You got It" and "Enough Is Enough." But even these are performed with muted enthusiasm and most fans will want to give this record a miss.

by Eduardo Rivadavia, AMG
Tracklist:

01. Anything You Want, You Got It 04:46
02. Enough Is Enough 04:05
03. If You See Kay 03:52
04. What If We Fall In Love 04:23
05. Waiting On A Miracle 04:06
06. Doin' It Right 03:43
07. Ain't Got Your Love 04:32
08. Blood Money 05:23
09. Tell Me Why 03:17
10. Runners In The Night 05:21

Exact Audio Copy V1.1 from 23. June 2015

EAC extraction logfile from 12. April 2016, 9:34

April Wine / Power Play

Used drive : PLEXTOR BD-R PX-B950SA Adapter: 1 ID: 1

Read mode : Secure
Utilize accurate stream : Yes
Defeat audio cache : Yes
Make use of C2 pointers : No

Read offset correction : 6
Overread into Lead-In and Lead-Out : No
Fill up missing offset samples with silence : Yes
Delete leading and trailing silent blocks : No
Null samples used in CRC calculations : Yes
Used interface : Native Win32 interface for Win NT & 2000

Used output format : Internal WAV Routines
Sample format : 44.100 Hz; 16 Bit; Stereo


TOC of the extracted CD

Track | Start | Length | Start sector | End sector
––––––––––––––––––––––––––––-
1 | 0:00.00 | 4:46.36 | 0 | 21485
2 | 4:46.36 | 4:05.14 | 21486 | 39874
3 | 8:51.50 | 3:52.14 | 39875 | 57288
4 | 12:43.64 | 4:23.19 | 57289 | 77032
5 | 17:07.08 | 4:06.10 | 77033 | 95492
6 | 21:13.18 | 3:43.33 | 95493 | 112250
7 | 24:56.51 | 4:32.17 | 112251 | 132667
8 | 29:28.68 | 5:23.14 | 132668 | 156906
9 | 34:52.07 | 3:17.15 | 156907 | 171696
10 | 38:09.22 | 5:21.27 | 171697 | 195798


Range status and errors

Selected range

Filename C:\Users\Meijin\Desktop\ALLexxess\April Wine\2016 April Wine (6CD Box Set Caroline Records)\1982 Power Play\April Wine - Power Play.wav

Peak level 97.0 %
Extraction speed 6.9 X
Range quality 100.0 %
Test CRC 3D9C7745
Copy CRC 3D9C7745
Copy OK

No errors occurred


AccurateRip summary

Track 1 not present in database
Track 2 not present in database
Track 3 not present in database
Track 4 not present in database
Track 5 not present in database
Track 6 not present in database
Track 7 not present in database
Track 8 not present in database
Track 9 not present in database
Track 10 not present in database

None of the tracks are present in the AccurateRip database

End of status report

–– CUETools DB Plugin V2.1.6

[CTDB TOCID: _B7Q7wipCqp9w_Qte03GDv0fTls-] found
Submit result: _B7Q7wipCqp9w_Qte03GDv0fTls- has been confirmed
Track | CTDB Status
1 | (2/2) Accurately ripped
2 | (2/2) Accurately ripped
3 | (2/2) Accurately ripped
4 | (2/2) Accurately ripped
5 | (2/2) Accurately ripped
6 | (2/2) Accurately ripped
7 | (2/2) Accurately ripped
8 | (2/2) Accurately ripped
9 | (2/2) Accurately ripped
10 | (2/2) Accurately ripped


==== Log checksum DF0C634E63E92205D2224CC62366D3E1DC7A0447C12AAAC992799ACF04804EFC ====

* * * * *

April Wine - Classic Album Set (2016) [6CD Box Set]

CD05: April Wine - Animal Grace(1984)
EAC | Flac(Image) + Cue + Log & MP3 CBR 320Kbps
Aquarius / Caroline Records | ~ 319 or 99 Mb | Scans(png) -> 33 Mb
Hard Rock

Setting the stage for the final phase in the sputtering glory period of Montreal celestials April Wine, Animal Grace stealthily practiced commercially competent clod rock but distinguishably disappeared without a trace. Leadoff "This Could Be the Right One" escapes the fate of ad infinitum wussy ballads via a brisk tempo and cynical lyrics. The herky-jerky "If Money Could Talk" breaks with one of those great yuppie funk moves isolated to the '80s. The dead-on-the-vine vintage Wine pumping out "Gimme That Thing Called Love" invokes a glorious but extinct custom of quaintness and Quaaludes. Über AOR producer Mike Stone co-writes the downright great "Hard Rock Kid" who cooly cooks in the spotlight ("Leave him alone, he's in the hard rock zone"). Weirdo "Sons of the Pioneer" sported a silly video, dressing the boys in some crazy Hoth threads. Like Loverboy, Canuck kings of frat rock, the April Wine muscle machine was running out of steam and about to be displaced by handyman Bryan Adams' installation of Canadian Hartland into the American consciousness. But even this late in the game, Myles Goodwyn and company are good for a few choice cuts. The celebrated three-guitar lineup long gone, the rest of the band (included bald dynamo Jerry Mercer on the skins) dissipated after this release, due to Goodwyn's dictatorship. Nobody ever expected April Wine to achieve so darn much in rock's vicious game anyway.

by Doug Stone, AMG
Tracklist:

01. This Could Be The Right One 04:18
02. Sons Of The Pioneers 05:35
03. Without Your Love 04:52
04. Rock Tonite 04:59
05. Hard Rock Kid 03:57
06. Money Talks 03:28
07. Gimme That Thing Called Love 05:04
08. Too Hot Too Handle 05:05
09. Last Time I'll Ever Sing The Blues 04:47

Exact Audio Copy V1.1 from 23. June 2015

EAC extraction logfile from 12. April 2016, 9:03

April Wine / Animal Grace

Used drive : PLEXTOR BD-R PX-B950SA Adapter: 1 ID: 1

Read mode : Secure
Utilize accurate stream : Yes
Defeat audio cache : Yes
Make use of C2 pointers : No

Read offset correction : 6
Overread into Lead-In and Lead-Out : No
Fill up missing offset samples with silence : Yes
Delete leading and trailing silent blocks : No
Null samples used in CRC calculations : Yes
Used interface : Native Win32 interface for Win NT & 2000

Used output format : Internal WAV Routines
Sample format : 44.100 Hz; 16 Bit; Stereo


TOC of the extracted CD

Track | Start | Length | Start sector | End sector
––––––––––––––––––––––––––––-
1 | 0:00.00 | 4:18.04 | 0 | 19353
2 | 4:18.04 | 5:35.37 | 19354 | 44515
3 | 9:53.41 | 4:52.21 | 44516 | 66436
4 | 14:45.62 | 4:59.16 | 66437 | 88877
5 | 19:45.03 | 3:57.20 | 88878 | 106672
6 | 23:42.23 | 3:28.55 | 106673 | 122327
7 | 27:11.03 | 5:04.06 | 122328 | 145133
8 | 32:15.09 | 5:05.04 | 145134 | 168012
9 | 37:20.13 | 4:47.27 | 168013 | 189564


Range status and errors

Selected range

Filename C:\Users\Meijin\Desktop\ALLexxess\April Wine\2016 April Wine (6CD Box Set Caroline Records)\1984 Animal Grace\April Wine - Animal Grace.wav

Peak level 97.0 %
Extraction speed 6.7 X
Range quality 99.9 %
Test CRC BC14265F
Copy CRC BC14265F
Copy OK

No errors occurred


AccurateRip summary

Track 1 not present in database
Track 2 not present in database
Track 3 not present in database
Track 4 not present in database
Track 5 not present in database
Track 6 not present in database
Track 7 not present in database
Track 8 not present in database
Track 9 not present in database

None of the tracks are present in the AccurateRip database

End of status report

–– CUETools DB Plugin V2.1.6

[CTDB TOCID: z.dvu_z_lk0Y4c3w1RxeOTBeNrI-] found
Submit result: z.dvu_z_lk0Y4c3w1RxeOTBeNrI- has been confirmed
Track | CTDB Status
1 | (2/2) Accurately ripped
2 | (2/2) Accurately ripped
3 | (2/2) Accurately ripped
4 | (2/2) Accurately ripped
5 | (2/2) Accurately ripped
6 | (2/2) Accurately ripped
7 | (2/2) Accurately ripped
8 | (2/2) Accurately ripped
9 | (2/2) Accurately ripped


==== Log checksum F70BBFC34C84C810A87268C7129EF1EF6D1253523D6EAEB764A49F3FC8EB656F ====

* * * * *

April Wine - Classic Album Set (2016) [6CD Box Set]

CD06: April Wine - Live At The BBC (2016)
EAC | Flac(Image) + Cue + Log & MP3 CBR 320Kbps
Aquarius / Caroline Records | ~ 258 or 107 Mb | Scans(png) -> 37 Mb
Classic Rock / Blues Rock / Hard Rock

~ BBC In Concert - Live In Reading, UK - 1980 ~

Tracklist:

01. Oowatanite 04:43
02. Get Ready For Love 05:49
03. I Like To Rock 04:34
04. Before The Dawn 03:21
05. Ladies Man 04:51
06. 21st Century Schizoid Man 06;28
07. Roller 03;48
08. Don't Push Me Around 05:32
09. Better Do It Well 06:05

Exact Audio Copy V1.1 from 23. June 2015

EAC extraction logfile from 11. April 2016, 16:01

April Wine / Live At The BBC

Used drive : PLEXTOR BD-R PX-B950SA Adapter: 1 ID: 1

Read mode : Secure
Utilize accurate stream : Yes
Defeat audio cache : Yes
Make use of C2 pointers : No

Read offset correction : 6
Overread into Lead-In and Lead-Out : No
Fill up missing offset samples with silence : Yes
Delete leading and trailing silent blocks : No
Null samples used in CRC calculations : Yes
Used interface : Native Win32 interface for Win NT & 2000

Used output format : Internal WAV Routines
Sample format : 44.100 Hz; 16 Bit; Stereo


TOC of the extracted CD

Track | Start | Length | Start sector | End sector
––––––––––––––––––––––––––––-
1 | 0:00.00 | 4:43.74 | 0 | 21298
2 | 4:43.74 | 5:49.61 | 21299 | 47534
3 | 10:33.60 | 4:34.37 | 47535 | 68121
4 | 15:08.22 | 3:21.41 | 68122 | 83237
5 | 18:29.63 | 4:51.57 | 83238 | 105119
6 | 23:21.45 | 6:28.49 | 105120 | 134268
7 | 29:50.19 | 3:48.26 | 134269 | 151394
8 | 33:38.45 | 5:32.12 | 151395 | 176306
9 | 39:10.57 | 6:05.05 | 176307 | 203686


Range status and errors

Selected range

Filename C:\Users\Meijin\Desktop\ALLexxess\April Wine\2016 April Wine (6CD Box Set Caroline Records)\2016 Live At The BBC\April Wine - Live At The BBC.wav

Peak level 97.0 %
Extraction speed 6.9 X
Range quality 100.0 %
Test CRC CA5C03A1
Copy CRC CA5C03A1
Copy OK

No errors occurred


AccurateRip summary

Track 1 not present in database
Track 2 not present in database
Track 3 not present in database
Track 4 not present in database
Track 5 not present in database
Track 6 not present in database
Track 7 not present in database
Track 8 not present in database
Track 9 not present in database

None of the tracks are present in the AccurateRip database

End of status report

–– CUETools DB Plugin V2.1.6

[CTDB TOCID: ktZFxRdwrLme1hnAU6hJcREYHZ8-] found
Submit result: ktZFxRdwrLme1hnAU6hJcREYHZ8- has been confirmed
Track | CTDB Status
1 | (1/1) Accurately ripped
2 | (1/1) Accurately ripped
3 | (1/1) Accurately ripped
4 | (1/1) Accurately ripped
5 | (1/1) Accurately ripped
6 | (1/1) Accurately ripped
7 | (1/1) Accurately ripped
8 | (1/1) Accurately ripped
9 | (1/1) Accurately ripped


==== Log checksum 46EC902E41F6163BE027DE96E32C9ED413AEB0A921C637CD6B82DEB4F3DBCE0B ====

April Wine - Classic Album Set (2016) [6CD Box Set]

All thanks go to ALLexxess

Download April Wine - Classic Album Set (2016):