Subcategories

Arabesque - Arabesque Deluxe (1998)

Posted By: v3122
Arabesque - Arabesque Deluxe (1998)

Arabesque - Arabesque Deluxe (1998)
EAC | Flac(Image) + Cue + Log & MP3 CBR 320Kbps
2CD | Victor, VICP-41017~18 | ~ 996 or 341 Mb | Scans(jpg) -> 13 Mb
Europop, Synth-pop, Disco

The trio Arabesque was created by two Frankfurt-based German producers at the height of the disco era in 1977. After one album and a few singles that found surprising success in Japan, the producers changed the lineup, keeping Michaela Rose and replacing the two other members with Jasmin Vetter and Sandra Lauer. Vetter, a former gymnast, also became the trio's choreographer and Lauer, soon to be billed simply as Sandra, assumed the position of a lead vocalist. The first single of the updated Arabesque, "Hello, Mr. Monkey," went to number one in Japan. The Far East remained the band's biggest market, with numerous albums and compilations released over the years. However, Arabesque's success in their homeland was very modest, with only one single, "Marigot Bay," entering the German charts at number eight in 1981. In 1984, they disbanded and Sandra embarked on a successful solo career with the songs written by future husband Michael Cretu (of Enigma fame). Jasmin Vetter and Michaela Rose formed a duo, Rouge, but after a few obscure singles it ceased to exist.

by Yuri German, allmusic
Arabesque - Arabesque Deluxe (1998):

Arabesque - Arabesque Deluxe (1998)

Tracklist CD1:

01. Hello Mr. Monkey [0:04:19.00]
02. Fly High little Butterfly [0:03:28.58]
03. Someone Is Waiting For You [0:04:05.40]
04. Buggy Boy [0:02:58.17]
05. Friday Night [0:04:17.65]
06. Peppermint Jack [0:03:08.38]
07. In The Heat Of A Disco Night [0:03:17.32]
08. Rock Me After Midnigt [0:03:52.10]
09. Lucifer's Lovers [0:03:34.43]
10. Hell Driver [0:04:59.37]
11. High Life [0:03:08.45]
12. Jingle Jangle Joe [0:03:11.73]
13. Roller Star [0:03:41.45]
14. Marigot Bay [0:03:52.07]
15. Parties in A Penthouse [0:03:20.53]
16. Once In A Blue Moon [0:03:20.30]
17. Make Love Whenever You Can [0:03:46.55]
18. Keep The Wolf From The Door [0:04:21.35]
19. I Don't Wanna Have BreakFast With You [0:03:51.00]
20. Midnight Dancer [0:03:40.45]

Exact Audio Copy V0.99 prebeta 3 from 28. July 2007

EAC extraction logfile from 23. February 2008, 11:57

Arabesque / Arabesque Deluxe Disk1

Used drive : TSSTcorpCDDVDW SH-S203B Adapter: 6 ID: 0

Read mode : Secure
Utilize accurate stream : Yes
Defeat audio cache : Yes
Make use of C2 pointers : No

Read offset correction : 6
Overread into Lead-In and Lead-Out : No
Fill up missing offset samples with silence : Yes
Delete leading and trailing silent blocks : No
Null samples used in CRC calculations : No
Used interface : Installed external ASPI interface

Used output format : Monkey's Audio Lossless Encoder
Selected bitrate : Fast Lossless Compression
Quality : High
Add ID3 tag : No
Command line compressor : C:\Program Files\Monkey's Audio\MAC.exe
Additional command line options : -6 -V -T "ARTIST=%a" -T "TITLE=%t" -T "ALBUM=%g" -T "DATE=%y" -T "TRACKNUMBER=%n" -T "GENRE=%m" -T "COMMENT=%e" %s -o %d


TOC of the extracted CD

Track | Start | Length | Start sector | End sector
––––––––––––––––––––––––––––-
1 | 0:00.37 | 4:19.00 | 37 | 19461
2 | 4:19.37 | 3:28.58 | 19462 | 35119
3 | 7:48.20 | 4:05.40 | 35120 | 53534
4 | 11:53.60 | 2:58.17 | 53535 | 66901
5 | 14:52.02 | 4:17.65 | 66902 | 86241
6 | 19:09.67 | 3:08.38 | 86242 | 100379
7 | 22:18.30 | 3:17.32 | 100380 | 115186
8 | 25:35.62 | 3:52.10 | 115187 | 132596
9 | 29:27.72 | 3:34.43 | 132597 | 148689
10 | 33:02.40 | 4:59.37 | 148690 | 171151
11 | 38:02.02 | 3:08.45 | 171152 | 185296
12 | 41:10.47 | 3:11.73 | 185297 | 199694
13 | 44:22.45 | 3:41.45 | 199695 | 216314
14 | 48:04.15 | 3:52.07 | 216315 | 233721
15 | 51:56.22 | 3:20.53 | 233722 | 248774
16 | 55:17.00 | 3:20.30 | 248775 | 263804
17 | 58:37.30 | 3:46.55 | 263805 | 280809
18 | 62:24.10 | 4:21.35 | 280810 | 300419
19 | 66:45.45 | 3:51.00 | 300420 | 317744
20 | 70:36.45 | 3:40.45 | 317745 | 334289


Range status and errors

Selected range

Filename C:\uTorrent\CD\Arabesque - Arabesque Deluxe\Arabesque - Arabesque Deluxe Disk1\Arabesque - Arabesque Deluxe Disk1.wav

Peak level 100.0 %
Range quality 100.0 %
Copy CRC C93EDB28
Copy OK

No errors occurred


AccurateRip summary

Track 1 not present in database
Track 2 not present in database
Track 3 not present in database
Track 4 not present in database
Track 5 not present in database
Track 6 not present in database
Track 7 not present in database
Track 8 not present in database
Track 9 not present in database
Track 10 not present in database
Track 11 not present in database
Track 12 not present in database
Track 13 not present in database
Track 14 not present in database
Track 15 not present in database
Track 16 not present in database
Track 17 not present in database
Track 18 not present in database
Track 19 not present in database
Track 20 not present in database

None of the tracks are present in the AccurateRip database

End of status report

foobar2000 1.2.9 / Dynamic Range Meter 1.1.1
log date: 2017-06-02 11:38:26

––––––––––––––––––––––––––––––––––––––––
Analyzed: Arabesque / Arabesque Deluxe Disk1
––––––––––––––––––––––––––––––––––––––––

DR Peak RMS Duration Track
––––––––––––––––––––––––––––––––––––––––
DR9 0.00 dB -10.94 dB 4:19 01-Hello Mr. Monkey
DR11 0.00 dB -12.24 dB 3:29 02-Fly High little Butterfly
DR10 0.00 dB -11.81 dB 4:06 03-Someone Is Waiting For You
DR13 0.00 dB -13.74 dB 2:58 04-Buggy Boy
DR11 0.00 dB -13.04 dB 4:18 05-Friday Night
DR12 0.00 dB -12.64 dB 3:09 06-Peppermint Jack
DR11 0.00 dB -12.33 dB 3:17 07-In The Heat Of A Disco Night
DR11 0.00 dB -12.33 dB 3:52 08-Rock Me After Midnigt
DR12 0.00 dB -13.37 dB 3:35 09-Lucifer's Lovers
DR11 0.00 dB -11.76 dB 4:59 10-Hell Driver
DR12 0.00 dB -13.45 dB 3:09 11-High Life
DR12 0.00 dB -13.60 dB 3:12 12-Jingle Jangle Joe
DR12 0.00 dB -12.65 dB 3:42 13-Roller Star
DR12 0.00 dB -14.36 dB 3:52 14-Marigot Bay
DR12 0.00 dB -13.01 dB 3:21 15-Parties in A Penthouse
DR12 0.00 dB -12.86 dB 3:20 16-Once In A Blue Moon
DR11 0.00 dB -11.83 dB 3:47 17-Make Love Whenever You Can
DR11 0.00 dB -12.76 dB 4:21 18-Keep The Wolf From The Door
DR12 0.00 dB -12.99 dB 3:51 19-I Don't Wanna Have BreakFast With You
DR11 0.00 dB -11.86 dB 3:41 20-Midnight Dancer
––––––––––––––––––––––––––––––––––––––––

Number of tracks: 20
Official DR value: DR11

Samplerate: 44100 Hz
Channels: 2
Bits per sample: 16
Bitrate: 937 kbps
Codec: FLAC

[CUETools log; Date: 02.06.2017 11:38:16; Version: 2.1.4]
Pregap length 00:00:37.
[CTDB TOCID: VjLnq2eiySVjb0za0tx4TexcuiY-] found.
Track | CTDB Status
1 | (6/6) Accurately ripped
2 | (6/6) Accurately ripped
3 | (6/6) Accurately ripped
4 | (6/6) Accurately ripped
5 | (6/6) Accurately ripped
6 | (6/6) Accurately ripped
7 | (6/6) Accurately ripped
8 | (6/6) Accurately ripped
9 | (6/6) Accurately ripped
10 | (6/6) Accurately ripped
11 | (6/6) Accurately ripped
12 | (6/6) Accurately ripped
13 | (6/6) Accurately ripped
14 | (6/6) Accurately ripped
15 | (6/6) Accurately ripped
16 | (6/6) Accurately ripped
17 | (6/6) Accurately ripped
18 | (6/6) Accurately ripped
19 | (6/6) Accurately ripped
20 | (6/6) Accurately ripped
[AccurateRip ID: 00358fa2-030f998e-2e116914] found.
Track [ CRC | V2 ] Status
01 [81f27f79|cea87330] (0+0/4) No match
02 [3c370e3c|49bda3f4] (0+0/4) No match
03 [97a274de|89738aee] (0+0/4) No match
04 [dd4323af|41884cd5] (0+0/4) No match
05 [b0137ecd|64ef20ec] (0+0/4) No match
06 [fdd33a8d|7687dee5] (0+0/4) No match
07 [32509378|6cf26b22] (0+0/4) No match
08 [7574a019|eb13c8db] (0+0/4) No match
09 [1e7a944f|56aee3e6] (0+0/4) No match
10 [d73ae93f|a5029c94] (0+0/4) No match
11 [d446ee54|d18ea582] (0+0/4) No match
12 [50013a30|397415fa] (0+0/4) No match
13 [2badf023|68ecacad] (0+0/4) No match
14 [9bcc9fe2|f23846f3] (0+0/4) No match
15 [3a0f93df|85aeb8b3] (0+0/4) No match
16 [678518a9|61af8879] (0+0/4) No match
17 [a6dcd37c|3a36c036] (0+0/4) No match
18 [a8a3f2f6|744df4ea] (0+0/4) No match
19 [368477ca|535ca729] (0+0/4) No match
20 [a01d65ab|3686bdc1] (0+0/4) No match
Offsetted by 379:
01 [aa41800c] (2/4) Accurately ripped
02 [e3633247] (2/4) Accurately ripped
03 [c8635a5c] (2/4) Accurately ripped
04 [7e3cec6f] (2/4) Accurately ripped
05 [88fd2691] (2/4) Accurately ripped
06 [ab6ef23b] (2/4) Accurately ripped
07 [ecf5d914] (2/4) Accurately ripped
08 [3c19f753] (2/4) Accurately ripped
09 [0ada04e1] (2/4) Accurately ripped
10 [5860568d] (2/4) Accurately ripped
11 [86347c1d] (2/4) Accurately ripped
12 [6591407e] (2/4) Accurately ripped
13 [56006250] (2/4) Accurately ripped
14 [b15e55ff] (2/4) Accurately ripped
15 [a1b0e1bb] (2/4) Accurately ripped
16 [d822c830] (2/4) Accurately ripped
17 [f983eee2] (2/4) Accurately ripped
18 [2c3f536b] (2/4) Accurately ripped
19 [875e1f48] (2/4) Accurately ripped
20 [b2d8b538] (2/4) Accurately ripped

Track Peak [ CRC32 ] [W/O NULL] [ LOG ]
– 100,0 [F38141F7] [C93EDB28] W/O NULL
01 100,0 [8E6C52FC] [B9765BC0]
02 100,0 [44EDCFC7] [26CBD3B7]
03 100,0 [489966F3] [B86DD9AE]
04 100,0 [1959FA1C] [F7C8C0DF]
05 100,0 [0586C858] [98610138]
06 100,0 [D630EE9C] [9127F8ED]
07 100,0 [A654E5E5] [14BC724F]
08 100,0 [52739FE3] [7D51F593]
09 100,0 [C531450F] [140F681E]
10 100,0 [8086E854] [764B3499]
11 100,0 [1DE3C1CB] [76E8894E]
12 100,0 [BE5B1D60] [8FD9A048]
13 100,0 [47D59243] [65FA4506]
14 100,0 [229382B8] [21269BE7]
15 100,0 [CAB855C4] [1A7A4CF2]
16 100,0 [C59A5533] [77DE1055]
17 100,0 [5C14356C] [0E3C46AB]
18 100,0 [8BF8082C] [73D89CC4]
19 100,0 [CF234A2F] [AAAE2795]
20 100,0 [12BAE34E] [170AA1EE]

Arabesque - Arabesque Deluxe (1998)

Tracklist CD2:

01. In For A Penny, In For A Pound [0:03:02.38]
02. The Hero Of My Life [0:03:50.07]
03. Indio Boy [0:04:01.00]
04. Billy's Barbrque [0:02:49.73]
05. Caballero [0:04:02.45]
06. Why Do You Ride The High Horse [0:03:40.35]
07. It's So Hard To Leave You [0:04:03.70]
08. Hit The Jackpot [0:03:19.07]
09. Why No Reply [0:03:33.18]
10. A New Sensation [0:03:40.32]
11. Young Fingers Get Burnt [0:03:10.10]
12. Zanzibar [0:03:43.35]
13. Loser Pays The Piperv [0:03:23.70]
14. Heart On Fire [0:03:38.15]
15. Don't Kiss A Crocodile [0:03:31.08]
16. Dance, Dance, Dance [0:03:12.00]
17. You Better Get A Move On [0:02:54.42]
18. Tropical Summernight [0:03:45.68]
19. Time To Say -Good Bye- [0:03:39.30]
20. Dreamin' [0:03:31.37]

Exact Audio Copy V0.99 prebeta 3 from 28. July 2007

EAC extraction logfile from 23. February 2008, 12:26

Arabesque / Arabesque Deluxe Disk2

Used drive : TSSTcorpCDDVDW SH-S203B Adapter: 6 ID: 0

Read mode : Secure
Utilize accurate stream : Yes
Defeat audio cache : Yes
Make use of C2 pointers : No

Read offset correction : 6
Overread into Lead-In and Lead-Out : No
Fill up missing offset samples with silence : Yes
Delete leading and trailing silent blocks : No
Null samples used in CRC calculations : No
Used interface : Installed external ASPI interface

Used output format : Monkey's Audio Lossless Encoder
Selected bitrate : Fast Lossless Compression
Quality : High
Add ID3 tag : No
Command line compressor : C:\Program Files\Monkey's Audio\MAC.exe
Additional command line options : -6 -V -T "ARTIST=%a" -T "TITLE=%t" -T "ALBUM=%g" -T "DATE=%y" -T "TRACKNUMBER=%n" -T "GENRE=%m" -T "COMMENT=%e" %s -o %d


TOC of the extracted CD

Track | Start | Length | Start sector | End sector
––––––––––––––––––––––––––––-
1 | 0:00.37 | 3:02.38 | 37 | 13724
2 | 3:03.00 | 3:50.07 | 13725 | 30981
3 | 6:53.07 | 4:01.00 | 30982 | 49056
4 | 10:54.07 | 2:49.73 | 49057 | 61804
5 | 13:44.05 | 4:02.45 | 61805 | 79999
6 | 17:46.50 | 3:40.35 | 80000 | 96534
7 | 21:27.10 | 4:03.70 | 96535 | 114829
8 | 25:31.05 | 3:19.07 | 114830 | 129761
9 | 28:50.12 | 3:33.18 | 129762 | 145754
10 | 32:23.30 | 3:40.32 | 145755 | 162286
11 | 36:03.62 | 3:10.10 | 162287 | 176546
12 | 39:13.72 | 3:43.35 | 176547 | 193306
13 | 42:57.32 | 3:23.70 | 193307 | 208601
14 | 46:21.27 | 3:38.15 | 208602 | 224966
15 | 49:59.42 | 3:31.08 | 224967 | 240799
16 | 53:30.50 | 3:12.00 | 240800 | 255199
17 | 56:42.50 | 2:54.42 | 255200 | 268291
18 | 59:37.17 | 3:45.68 | 268292 | 285234
19 | 63:23.10 | 3:39.30 | 285235 | 301689
20 | 67:02.40 | 3:31.37 | 301690 | 317551


Range status and errors

Selected range

Filename C:\uTorrent\CD\Arabesque - Arabesque Deluxe\Arabesque - Arabesque Deluxe Disk2\Arabesque - Arabesque Deluxe Disk2.wav

Peak level 100.0 %
Range quality 100.0 %
Copy CRC 2EA63BEB
Copy OK

No errors occurred


AccurateRip summary

Track 1 not present in database
Track 2 not present in database
Track 3 not present in database
Track 4 not present in database
Track 5 not present in database
Track 6 not present in database
Track 7 not present in database
Track 8 not present in database
Track 9 not present in database
Track 10 not present in database
Track 11 not present in database
Track 12 not present in database
Track 13 not present in database
Track 14 not present in database
Track 15 not present in database
Track 16 not present in database
Track 17 not present in database
Track 18 not present in database
Track 19 not present in database
Track 20 not present in database

None of the tracks are present in the AccurateRip database

End of status report

foobar2000 1.2.9 / Dynamic Range Meter 1.1.1
log date: 2017-06-02 11:38:45

––––––––––––––––––––––––––––––––––––––––
Analyzed: Arabesque / Arabesque Deluxe Disk2
––––––––––––––––––––––––––––––––––––––––

DR Peak RMS Duration Track
––––––––––––––––––––––––––––––––––––––––
DR10 0.00 dB -12.22 dB 3:03 01-In For A Penny, In For A Pound
DR13 0.00 dB -14.55 dB 3:50 02-The Hero Of My Life
DR10 -0.13 dB -12.57 dB 4:01 03-Indio Boy
DR11 0.00 dB -12.02 dB 2:50 04-Billy's Barbrque
DR12 0.00 dB -13.13 dB 4:03 05-Caballero
DR11 0.00 dB -12.47 dB 3:40 06-Why Do You Ride The High Horse
DR10 -0.25 dB -12.37 dB 4:04 07-It's So Hard To Leave You
DR11 0.00 dB -12.74 dB 3:19 08-Hit The Jackpot
DR11 -0.84 dB -12.40 dB 3:33 09-Why No Reply
DR12 0.00 dB -14.27 dB 3:40 10-A New Sensation
DR11 -0.12 dB -13.07 dB 3:10 11-Young Fingers Get Burnt
DR12 0.00 dB -14.25 dB 3:43 12-Zanzibar
DR11 -0.17 dB -12.83 dB 3:24 13-Loser Pays The Piperv
DR11 -0.53 dB -13.14 dB 3:38 14-Heart On Fire
DR11 0.00 dB -12.51 dB 3:31 15-Don't Kiss A Crocodile
DR11 0.00 dB -11.89 dB 3:12 16-Dance, Dance, Dance
DR12 0.00 dB -13.38 dB 2:55 17-You Better Get A Move On
DR12 -0.05 dB -13.32 dB 3:46 18-Tropical Summernight
DR12 0.00 dB -13.55 dB 3:39 19-Time To Say -Good Bye-
DR11 -0.82 dB -13.15 dB 3:31 20-Dreamin'
––––––––––––––––––––––––––––––––––––––––

Number of tracks: 20
Official DR value: DR11

Samplerate: 44100 Hz
Channels: 2
Bits per sample: 16
Bitrate: 930 kbps
Codec: FLAC

[CUETools log; Date: 02.06.2017 11:38:34; Version: 2.1.4]
Pregap length 00:00:37.
[CTDB TOCID: v5DxQxC6ZQJtKY8_yhkM4zeW5fE-] found.
Track | CTDB Status
1 | (4/4) Accurately ripped
2 | (4/4) Accurately ripped
3 | (4/4) Accurately ripped
4 | (4/4) Accurately ripped
5 | (4/4) Accurately ripped
6 | (4/4) Accurately ripped
7 | (4/4) Accurately ripped
8 | (4/4) Accurately ripped
9 | (4/4) Accurately ripped
10 | (4/4) Accurately ripped
11 | (4/4) Accurately ripped
12 | (4/4) Accurately ripped
13 | (4/4) Accurately ripped
14 | (4/4) Accurately ripped
15 | (4/4) Accurately ripped
16 | (4/4) Accurately ripped
17 | (4/4) Accurately ripped
18 | (4/4) Accurately ripped
19 | (4/4) Accurately ripped
20 | (4/4) Accurately ripped
[AccurateRip ID: 00333927-02ee6b2d-1c108a14] found.
Track [ CRC | V2 ] Status
01 [d854f437|06194277] (0+0/2) No match
02 [abc651e4|fccb27fa] (0+0/2) No match
03 [884b9eca|b6bad19b] (0+0/2) No match
04 [0fb85195|6fbcba33] (0+0/2) No match
05 [b9561d60|4dba5c40] (0+0/2) No match
06 [619cc8d8|83cefe17] (0+0/2) No match
07 [90fcf4f1|b397a61d] (0+0/2) No match
08 [908fd961|66f5080c] (0+0/2) No match
09 [886a4f7e|13fd187d] (0+0/2) No match
10 [acb0fe64|08116587] (0+0/2) No match
11 [04d83955|e7924a0a] (0+0/2) No match
12 [6af77dd5|dfe0ce0e] (0+0/2) No match
13 [0a64251c|05bb8993] (0+0/2) No match
14 [9a24a678|d4229e2e] (0+0/2) No match
15 [d3cc20a4|8b498fcc] (0+0/2) No match
16 [e3bfce43|8d27a2ae] (0+0/2) No match
17 [cde39d39|2d612f19] (0+0/2) No match
18 [4fbc622a|607a130f] (0+0/2) No match
19 [3fffba4e|20dedc01] (0+0/2) No match
20 [222f2cff|8f42418b] (0+0/2) No match
Offsetted by 190:
01 [011045c9] (0/2) No match (V2 was not tested)
02 [ac2aa3bc] (0/2) No match (V2 was not tested)
03 [ad93badc] (0/2) No match (V2 was not tested)
04 [17e66e8d] (0/2) No match (V2 was not tested)
05 [8ee9a082] (0/2) No match (V2 was not tested)
06 [3bee38f4] (0/2) No match (V2 was not tested)
07 [56e5e85b] (0/2) No match (V2 was not tested)
08 [eb0aac33] (0/2) No match (V2 was not tested)
09 [7b88236c] (0/2) No match (V2 was not tested)
10 [048d03c0] (0/2) No match (V2 was not tested)
11 [16f445bb] (0/2) No match (V2 was not tested)
12 [0d00a29b] (0/2) No match (V2 was not tested)
13 [12112450] (0/2) No match (V2 was not tested)
14 [2c75332e] (0/2) No match (V2 was not tested)
15 [d9bb026e] (0/2) No match (V2 was not tested)
16 [02b3d667] (0/2) No match (V2 was not tested)
17 [f30f541d] (0/2) No match (V2 was not tested)
18 [eaddd5f2] (0/2) No match (V2 was not tested)
19 [fb99c71a] (0/2) No match (V2 was not tested)
20 [9c2896fd] (0/2) No match (V2 was not tested)

Track Peak [ CRC32 ] [W/O NULL] [ LOG ]
– 100,0 [05959D35] [2EA63BEB] W/O NULL
01 100,0 [AE476853] [495FFF83]
02 100,0 [193033AB] [5E5753D7]
03 98,5 [DF061A01] [5841EE1B]
04 100,0 [6B3B07E9] [57E6FA0F]
05 100,0 [9498BE13] [010F9A49]
06 100,0 [5B4ED0D8] [90AD24DA]
07 97,1 [F92BD533] [ACFC6525]
08 100,0 [3C2D4528] [FC1DA573]
09 90,8 [521AE192] [9115B5D0]
10 99,9 [64A47A6F] [AEE85FAE]
11 98,6 [B4719676] [31A3039E]
12 100,0 [6DBFE816] [1EE1B589]
13 98,0 [7C7CFEC0] [6A84248B]
14 94,0 [121B6394] [14421A16]
15 100,0 [9B2E253B] [C2CD99D0]
16 100,0 [E4CB1E4B] [AADED68E]
17 100,0 [460F78A1] [3BF28C71]
18 99,3 [CC555092] [EC21A4DD]
19 100,0 [41D0811F] [C9138E08]
20 91,0 [4E9EF326] [5F1772AC]

Arabesque - Arabesque Deluxe (1998)

All thanks go to the original releaser

Arabesque in my Blog

Download Arabesque - Arabesque Deluxe (1998):