Subcategories

Arachnoid - Arachnoid (1978) [Reissue 2005]

Posted By: gribovar
Arachnoid - Arachnoid (1978) [Reissue 2005]

Arachnoid - Arachnoid (1978) [Reissue 2005]
EAC Rip | WavPack (image+.cue+log) - 536 MB | MP3 CBR 320 kbps (LAME 3.93) - 298 MB | Covers included
Genre: Progressive Rock | RAR 3% Rec. | Label: Musea/MALS (MALS 054)

Arachnoid is a French major progressive band whose music was combined the strengths of other French symphonic groups and dark progressive rock that recalled King Crimson. The dark sound, almost like Univers Zero, is accomplished mostly by melodic structures in the vein of King Crimson's "Larks' Tongues In Apic" and dramatical vocals similar to that of Christian Decamps from Ange. ARACHNOÏD's music express a continuous tension with flashing guitar's parts and tormented keyboards interventions. A unique band with nods to King Crimson, Pulsar, Shylock & Pink Floyd.
Tracklist:
01. Le Chamandere
02. Piano Caveau
03. In the Screen Side Of Your Eyes
04. Toutes Ces Images
05. La Guepe
06. L'Adieu Au Pierrot
07. Final
08. L'Hiver (Live, Bonus track)
09. Le Pierrot (Live, Bonus track)
10. L'Adieu (Live, Bonus track)
11. Piano Caveau (Instrumental, Bonus track)

Total time: 01:06:31

Exact Audio Copy V1.0 beta 1 from 15. November 2010

EAC extraction logfile from 15. August 2011, 19:59

Arachnoid / Arachnoid (FR)

Used drive : _NEC CD-RW NR-9100A Adapter: 0 ID: 1

Read mode : Secure
Utilize accurate stream : Yes
Defeat audio cache : Yes
Make use of C2 pointers : No

Read offset correction : 685
Overread into Lead-In and Lead-Out : No
Fill up missing offset samples with silence : Yes
Delete leading and trailing silent blocks : No
Null samples used in CRC calculations : Yes
Used interface : Native Win32 interface for Win NT & 2000

Used output format : Internal WAV Routines
Sample format : 44.100 Hz; 16 Bit; Stereo


TOC of the extracted CD

Track | Start | Length | Start sector | End sector
––––––––––––––––––––––––––––-
1 | 0:00.42 | 13:51.43 | 42 | 62409
2 | 13:52.10 | 7:18.00 | 62410 | 95259
3 | 21:10.10 | 4:04.15 | 95260 | 113574
4 | 25:14.25 | 8:07.05 | 113575 | 150104
5 | 33:21.30 | 8:39.62 | 150105 | 189091
6 | 42:01.17 | 0:59.25 | 189092 | 193541
7 | 43:00.42 | 3:03.48 | 193542 | 207314
8 | 46:04.15 | 4:39.37 | 207315 | 228276
9 | 50:43.52 | 5:07.58 | 228277 | 251359
10 | 55:51.35 | 3:22.72 | 251360 | 266581
11 | 59:14.32 | 7:16.63 | 266582 | 299344


Range status and errors

Selected range

Filename C:\Users\WAN0777\Desktop\Lossless Galaxy Rip by WANO777\Arachnoid - Arachnoid (FR).wav

Peak level 100.0 %
Extraction speed 0.4 X
Range quality 100.0 %
Test CRC 719C93BE
Copy CRC 719C93BE
Copy OK

No errors occurred


AccurateRip summary

Track 1 accurately ripped (confidence 3) [187AA500]
Track 2 accurately ripped (confidence 3) [BD34EFCD]
Track 3 accurately ripped (confidence 3) [8E7FBA59]
Track 4 accurately ripped (confidence 3) [DB035E94]
Track 5 accurately ripped (confidence 3) [38C07E40]
Track 6 accurately ripped (confidence 3) [D9121541]
Track 7 accurately ripped (confidence 3) [C2C4E8E8]
Track 8 accurately ripped (confidence 3) [503BD7DA]
Track 9 accurately ripped (confidence 3) [95BCC848]
Track 10 accurately ripped (confidence 3) [EBB71A3B]
Track 11 accurately ripped (confidence 3) [EC1C21A1]

All tracks accurately ripped

End of status report

==== Log checksum 4207AF0FFBD4F8161BE34DC3D3D98B204E5984A7913B1BDAA4849DBC32EB4569 ====

Thanks to WANO777
LOSSLESS:

Filepost.com
________________

MP3 320 kbps:

Filepost.com