Tags
Language
Tags

Arbee Stidham - Tired Of Wandering (1961) [Reissue 2001]

Posted By: gribovar
Arbee Stidham - Tired Of Wandering (1961) [Reissue 2001]

Arbee Stidham - Tired Of Wandering (1961) [Reissue 2001]
EAC Rip | FLAC (tracks+.cue+log) - 229 MB | MP3 CBR 320 kbps (LAME 3.93) - 88 MB | Covers - 23 MB
Genre: Blues, Chicago Blues | RAR 3% Rec. | Label: OBC/Prestige/Bluesville Records (OBCCD-593-2 (BV-1021))

Over the years, the term R&B has been used to describe everything from the 1950s doo wop of the Five Satins to the hip-hop-influenced urban contemporary of Erykah Badu and R. Kelly - in other words, a variety of African-American popular music with roots in the blues. Arbee Stidham was exactly the sort of singer who thrived in the R&B or "race" market after World War II; although essentially a bluesman, he wasn't a blues purist who embraced the 12-bar format 100 percent of the time. But his mixture of blues, jazz, and gospel made him quite popular among what were considered rhythm & blues audiences in the 1940s and 1950s. Recorded for Prestige's Bluesville label in 1960 - eight years before Stidham's death - Tired of Wandering is among his finest albums. This session, which boasts King Curtis on tenor sax, doesn't cater to blues purists; while some of the tunes have 12 bars, others don't. Regardless, the feeling of the blues enriches everything on the CD; that is true whether Stidham is turning his attention to Big Joe Turner's "Last Goodbye Blues" or revisiting his 1948 hit, "My Heart Belongs to You." Equally triumphant is Brownie McGhee's "Pawn Shop," which is associated with Piedmont country blues but gets a big-city makeover from Stidham. Like Jimmy Witherspoon - someone he inspires comparisons to - Stidham demonstrates that the blues can be sophisticated, polished, and jazz-influenced without losing their grit. The big-voiced singer/guitarist was born in Arkansas, but Chicago was his adopted home - and the Windy City had a definite influence on his work. Anyone who has spent a lot of time savoring jazz-influenced bluesmen like Witherspoon and Percy Mayfield owes it to himself/herself to give Tired of Wandering a very close listen.
Tracklist:
01. Last Goodbye Blues
02. You Can't Live In This World By Sourself
03. Pawn Shop
04. I'm Tired Of Wandering
05. I Wan't To Belong To You
06. Wee Baby Blues
07. You Keep Me Yearning
08. My Heart Will Always Belong To You
09. People, What Would You Do
10. Teenage Kiss

Total time: 37:29

Exact Audio Copy V1.0 beta 1 from 15. November 2010

EAC extraction logfile from 12. September 2013, 21:00

Arbee Stidham / Tired Of Wandering

Used drive : PLEXTOR DVDR PX-891SA Adapter: 4 ID: 1

Read mode : Secure
Utilize accurate stream : Yes
Defeat audio cache : Yes
Make use of C2 pointers : No

Read offset correction : 6
Overread into Lead-In and Lead-Out : No
Fill up missing offset samples with silence : Yes
Delete leading and trailing silent blocks : No
Null samples used in CRC calculations : Yes
Used interface : Native Win32 interface for Win NT & 2000
Gap handling : Appended to previous track

Used output format : User Defined Encoder
Selected bitrate : 128 kBit/s
Quality : High
Add ID3 tag : No
Command line compressor : D:\Exact Audio Copy\Flac\flac.exe
Additional command line options : -8 -V -T "ARTIST=%a" -T "TITLE=%t" -T "ALBUM=%g" -T "DATE=%y" -T "TRACKNUMBER=%n" -T "TOTALTRACKS=%x" -T "GENRE=%m" -T "ALBUMARTIST=%v" -T "ALBUM ARTIST=%v" -T "COMMENT=EAC Secure Mode, Test & Copy, AccurateRip, FLAC -8" %s


TOC of the extracted CD

Track | Start | Length | Start sector | End sector
––––––––––––––––––––––––––––-
1 | 0:00.00 | 3:02.62 | 0 | 13711
2 | 3:02.62 | 3:57.13 | 13712 | 31499
3 | 7:00.00 | 6:57.42 | 31500 | 62816
4 | 13:57.42 | 3:10.28 | 62817 | 77094
5 | 17:07.70 | 3:08.25 | 77095 | 91219
6 | 20:16.20 | 5:28.05 | 91220 | 115824
7 | 25:44.25 | 2:34.35 | 115825 | 127409
8 | 28:18.60 | 3:36.72 | 127410 | 143681
9 | 31:55.57 | 3:14.25 | 143682 | 158256
10 | 35:10.07 | 2:19.43 | 158257 | 168724


Track 1

Filename D:\01 - Last Goodbye Blues.wav

Pre-gap length 0:00:02.00

Peak level 97.0 %
Extraction speed 2.0 X
Track quality 100.0 %
Test CRC 5817A85A
Copy CRC 5817A85A
Accurately ripped (confidence 2) [75FFA93A]
Copy OK

Track 2

Filename D:\02 - You Can't Live In This World By Sourself.wav

Pre-gap length 0:00:02.15

Peak level 100.0 %
Extraction speed 2.3 X
Track quality 100.0 %
Test CRC 47DC2C4F
Copy CRC 47DC2C4F
Accurately ripped (confidence 2) [40AE7D1E]
Copy OK

Track 3

Filename D:\03 - Pawn Shop.wav

Pre-gap length 0:00:02.13

Peak level 100.0 %
Extraction speed 2.7 X
Track quality 100.0 %
Test CRC 488D0739
Copy CRC 488D0739
Accurately ripped (confidence 2) [22A55A65]
Copy OK

Track 4

Filename D:\04 - I'm Tired Of Wandering.wav

Pre-gap length 0:00:01.60

Peak level 100.0 %
Extraction speed 2.7 X
Track quality 100.0 %
Test CRC 0D279195
Copy CRC 0D279195
Accurately ripped (confidence 2) [F22331C3]
Copy OK

Track 5

Filename D:\05 - I Wan't To Belong To You.wav

Pre-gap length 0:00:03.00

Peak level 100.0 %
Extraction speed 2.8 X
Track quality 100.0 %
Test CRC C94AC1E9
Copy CRC C94AC1E9
Accurately ripped (confidence 2) [315ACC92]
Copy OK

Track 6

Filename D:\06 - Wee Baby Blues.wav

Pre-gap length 0:00:02.33

Peak level 100.0 %
Extraction speed 2.5 X
Track quality 99.9 %
Test CRC 7EA7AD66
Copy CRC 7EA7AD66
Accurately ripped (confidence 2) [C3A7BDA3]
Copy OK

Track 7

Filename D:\07 - You Keep Me Yearning.wav

Pre-gap length 0:00:02.60

Peak level 100.0 %
Extraction speed 3.0 X
Track quality 100.0 %
Test CRC 82168FDA
Copy CRC 82168FDA
Accurately ripped (confidence 2) [860203C8]
Copy OK

Track 8

Filename D:\08 - My Heart Will Always Belong To You.wav

Pre-gap length 0:00:01.65

Peak level 97.4 %
Extraction speed 3.3 X
Track quality 100.0 %
Test CRC D6416074
Copy CRC D6416074
Accurately ripped (confidence 2) [F6F17EC7]
Copy OK

Track 9

Filename D:\09 - People, What Would You Do.wav

Pre-gap length 0:00:02.25

Peak level 100.0 %
Extraction speed 3.3 X
Track quality 100.0 %
Test CRC 733A9FD0
Copy CRC 733A9FD0
Accurately ripped (confidence 2) [58419857]
Copy OK

Track 10

Filename D:\10 - Teenage Kiss.wav

Pre-gap length 0:00:02.02

Peak level 100.0 %
Extraction speed 3.2 X
Track quality 100.0 %
Test CRC 6087F52D
Copy CRC 6087F52D
Accurately ripped (confidence 2) [C5088B43]
Copy OK


All tracks accurately ripped

No errors occurred

End of status report

==== Log checksum F21F92E38D40657DA344EE058793E9BA0213EDDFFA8EAE3B4F73C73C8E6779C0 ====

[CUETools log; Date: 14.10.2021 0:46:05; Version: 2.1.4]
[CTDB TOCID: BLyxvo22kQ87yA0bQWcnZQ6Xm1Y-] found.
Track | CTDB Status
1 | (8/8) Accurately ripped
2 | (8/8) Accurately ripped
3 | (8/8) Accurately ripped
4 | (8/8) Accurately ripped
5 | (8/8) Accurately ripped
6 | (8/8) Accurately ripped
7 | (7/8) Accurately ripped
8 | (8/8) Accurately ripped
9 | (8/8) Accurately ripped
10 | (8/8) Accurately ripped
[AccurateRip ID: 000f1c23-00780d4e-7308c90a] found.
Track [ CRC | V2 ] Status
01 [75ffa93a|ad844abb] (2+3/7) Accurately ripped
02 [40ae7d1e|d422e28c] (2+3/7) Accurately ripped
03 [22a55a65|7b594cab] (2+3/7) Accurately ripped
04 [f22331c3|66c094b2] (2+3/7) Accurately ripped
05 [315acc92|e5c4e4f2] (2+3/7) Accurately ripped
06 [c3a7bda3|7c580e60] (2+3/7) Accurately ripped
07 [860203c8|50cf81e4] (2+3/7) Accurately ripped
08 [f6f17ec7|a69ae3cf] (2+3/7) Accurately ripped
09 [58419857|5071f703] (2+3/7) Accurately ripped
10 [c5088b43|ec5d8fe3] (2+3/7) Accurately ripped
Offsetted by -659:
01 [a4982dcb] (0/7) No match (V2 was not tested)
02 [cf993cdb] (0/7) No match (V2 was not tested)
03 [3a310c3c] (0/7) No match (V2 was not tested)
04 [dbb43718] (0/7) No match (V2 was not tested)
05 [30f02325] (0/7) No match (V2 was not tested)
06 [3eb9572b] (0/7) No match (V2 was not tested)
07 [c0da4ef0] (0/7) No match (V2 was not tested)
08 [28496a66] (0/7) No match (V2 was not tested)
09 [bcbcdd91] (0/7) No match (V2 was not tested)
10 [57cfdc5d] (0/7) No match (V2 was not tested)

Track Peak [ CRC32 ] [W/O NULL] [ LOG ]
– 100,0 [702276AB] [58A037B8]
01 97,0 [5817A85A] [057B972E] CRC32
02 100,0 [47DC2C4F] [D22F3758] CRC32
03 100,0 [488D0739] [F896EE53] CRC32
04 100,0 [0D279195] [8297278F] CRC32
05 100,0 [C94AC1E9] [C5D7DD11] CRC32
06 100,0 [7EA7AD66] [E298ED44] CRC32
07 100,0 [82168FDA] [C53D2888] CRC32
08 97,4 [D6416074] [F67C7F86] CRC32
09 100,0 [733A9FD0] [61C99B69] CRC32
10 100,0 [6087F52D] [E63028CF] CRC32

Thanks to Smal_AV