Subcategories

Arch Rival - In The Face Of Danger (1991) (Japan APCY-8114)

Posted By: apocalipsys2014
Arch Rival - In The Face Of Danger (1991) (Japan APCY-8114)

Arch Rival - In The Face Of Danger (1991)
Year & Label: 1991/93, Windmill Records/FEMS, Japan | CD#: APCY-8114
Flac (image) | MP3 CBR 320 Kbps | Artwork (JPG, 300 dpi) | File-hosts: Uploaded.net
Heavy Metal/Hard Rock | FLAC: 340 MB | Artwork: 30 MB | MP3: 110 MB | 5% WinRAR Recovery

EAC Secure-rip with LOG+CUE+COVERS | Source: eMule
Japanese 1st Press CD with bonus song

At long last, the reissue of the debut album by Arch Rival found its rightful way to the record stores of the world and now everyone has the chance to enjoy in digital format this hard to find album. Michael Harris on guitar and Steve Snyder on vocals are predominantly the cornerstones of the Arch Rival foundation. “In The Face Of Danger” is truly exciting in a sense that it displays a bunch of tight and qualitative compositions that flaw harmonically throughout the duration of the c.d. In my opinion, that’s the strong point of the album…you cannot skip a single track and you listen to it very easily! Musically speaking, the album refers to the late 80s while Arch Rival’s melodic metal reminds of such bands as Fifth Angel, Dokken and Fates Warning (“No Exit” and “Parallels” era).

www.metal-archives.com
Musicians:

Vocals : Steve Snyder
Guitars : Michael Harris
Bass : Gary Rigmaiden
Drums : Greg Martin

Recorded and mixed at Midtown Studio (Nashville) and Refraze Studio (Dayton).
Engineered by Chris Armstrong and Paul Mahern
Produced by Michael D. Clute

Track List:

01. In the Face of Danger [4:40]
02. Time Won't Wait [4:12]
03. Me Against the World [4:06]
04. Rock the Night Away [4:33]
05. Fortune Hunter [4:32]
06. God Bless America [3:32]
07. Revolution (Japanese Bonus Track) [3:34]
08. Mr. Attitude [4:07]
09. Shotgun at Midnight [3:57]
10. Siren's Song [3:59]
11. Can You Tell Me Why [4:17]

Exact Audio Copy V0.99 prebeta 5 from 4. May 2009

EAC extraction logfile from 23. April 2013, 13:03

Arch Rival / In the Face of Danger

Used drive : ATAPI iHAS624 B Adapter: 2 ID: 0

Read mode : Secure
Utilize accurate stream : Yes
Defeat audio cache : Yes
Make use of C2 pointers : No

Read offset correction : 6
Overread into Lead-In and Lead-Out : No
Fill up missing offset samples with silence : Yes
Delete leading and trailing silent blocks : No
Null samples used in CRC calculations : Yes
Used interface : Installed external ASPI interface

Used output format : User Defined Encoder
Selected bitrate : 40 kBit/s
Quality : High
Add ID3 tag : No
Command line compressor : C:\Program Files\Exact Audio Copy\Flac\flac.exe
Additional command line options : -6 -V %s


TOC of the extracted CD

Track | Start | Length | Start sector | End sector
––––––––––––––––––––––––––––-
1 | 0:00.37 | 4:39.53 | 37 | 21014
2 | 4:40.15 | 4:12.15 | 21015 | 39929
3 | 8:52.30 | 4:05.57 | 39930 | 58361
4 | 12:58.12 | 4:33.08 | 58362 | 78844
5 | 17:31.20 | 4:31.50 | 78845 | 99219
6 | 22:02.70 | 3:31.67 | 99220 | 115111
7 | 25:34.62 | 3:34.15 | 115112 | 131176
8 | 29:09.02 | 4:06.58 | 131177 | 149684
9 | 33:15.60 | 3:57.12 | 149685 | 167471
10 | 37:12.72 | 3:59.08 | 167472 | 185404
11 | 41:12.05 | 4:16.55 | 185405 | 204659


Range status and errors

Selected range

Filename D:\Download\Arch Rival - In the Face of Danger.wav

Peak level 100.0 %
Range quality 100.0 %
Copy CRC E5F09E56
Copy OK

No errors occurred


AccurateRip summary

Track 1 cannot be verified as accurate (confidence 1) [6AD46AEC], AccurateRip returned [A4A81846]
Track 2 cannot be verified as accurate (confidence 1) [6F8C55D0], AccurateRip returned [96B0581D]
Track 3 cannot be verified as accurate (confidence 1) [6AB33312], AccurateRip returned [23E7C127]
Track 4 cannot be verified as accurate (confidence 1) [A5FA1362], AccurateRip returned [815219D0]
Track 5 cannot be verified as accurate (confidence 1) [5181716C], AccurateRip returned [AC61DB00]
Track 6 cannot be verified as accurate (confidence 1) [7F701A4D], AccurateRip returned [9410EEC3]
Track 7 cannot be verified as accurate (confidence 1) [CA8A0F6D], AccurateRip returned [0C2F67EF]
Track 8 cannot be verified as accurate (confidence 1) [8A749065], AccurateRip returned [6485BEAF]
Track 9 cannot be verified as accurate (confidence 1) [5AE5BA7C], AccurateRip returned [995581DB]
Track 10 cannot be verified as accurate (confidence 1) [F9BF1209], AccurateRip returned [2132EA5B]
Track 11 cannot be verified as accurate (confidence 1) [43D7F015], AccurateRip returned [AAF2F131]

No tracks could be verified as accurate
You may have a different pressing from the one(s) in the database

End of status report

Not my rip, not my scan-job. Thx very much to the original uploader Ilijan [MMT]!
5% WinRar Recovery Record for all files.
Try before you might buy. Support the artists you like and buy their stuff whenever you can afford it.
FLAC, image + atrwork or mp3 at Uploaded.net:
FLAC | Artwork | Mp3 320 kbps