Subcategories

Archangelica - Like A Drug (2013)

Posted By: v3122
Archangelica - Like A Drug (2013)

Archangelica - Like A Drug (2013)
EAC Rip | Flac(Image) + Cue + Log & iPod M4A(Tracks) & MP3 CBR 320Kbps
Progressive Rock | ~ 343 or 344 or 147 Mb | Scans Included
Lynx Music | LM 78 CD

Archangelica was founded in 2004 in the art rock, prog rock area. In early days Archangelica was named as a "polish Anathema". After some time band created it's own typical style. Their debut album "Like A Drug" was released in 2013 after two mini albums, "Archangelica" in 2007 and "Where are you now?" in 2009.

Archangelica - Like A Drug (2013)

В конце января начавшегося года увидел свет альбом молодой и весьма интересной польской группы. Группа существует с 2004 года и в начале своего творческого пути снискала славу польской Anathema. За восемь лет состав менялся неоднократно. Первые демо-записи были сделаны в 2007 году и вот, после двух синглов 2007 и 2009 годов, наконец увидел свет полноценный альбом.

Очень приятная, мелодичная, в меру тяжёлая (время от времени) музыка с приятным англоязычным вокалом.
Archangelica - Like A Drug (2013):

Archangelica - Like A Drug (2013)

Tracklist:

1. Into Unknown (3:18)
2. Like A Drug (4:45)
3. Confession (4:22)
4. Night Passage (6:52)
5. Midnight Train (4:46)
6. Cathedral (6:15)
7. The Journey (5:45)
8. Let Me Stay With The Trees (5:58)
9. When All Is Gone (6:03)

Musicians:

Maciej Engel - guitar/keyboards
Arek Gawdzik - guitar
Jakub Kolada - bass
Krzysiek Salapa - lead vocal
Piotr Brzezicki - drums
Natalia Matuszek - vocal

Exact Audio Copy V1.0 beta 2 from 29. April 2011

EAC extraction logfile from 31. January 2013, 16:10

Archangelica / Like A Drug

Used drive : ASUS DRW-24B3ST Adapter: 0 ID: 0

Read mode : Secure
Utilize accurate stream : Yes
Defeat audio cache : Yes
Make use of C2 pointers : No

Read offset correction : 6
Overread into Lead-In and Lead-Out : No
Fill up missing offset samples with silence : Yes
Delete leading and trailing silent blocks : No
Null samples used in CRC calculations : Yes
Used interface : Native Win32 interface for Win NT & 2000

Used output format : User Defined Encoder
Selected bitrate : 1024 kBit/s
Quality : High
Add ID3 tag : No
Command line compressor : C:\Program Files (x86)\Exact Audio Copy\Flac\flac.exe
Additional command line options : -8 -V -T "ARTIST=%artist%" -T "TITLE=%title%" -T "ALBUM=%albumtitle%" -T "DATE=%year%" -T "TRACKNUMBER=%tracknr%" -T "TOTALTRACKS=%numtracks%" -T "GENRE=%genre%" -T "ALBUMARTIST=%albumartist%" -T "ALBUM ARTIST=%albumartist%


TOC of the extracted CD

Track | Start | Length | Start sector | End sector
––––––––––––––––––––––––––––-
1 | 0:00.00 | 3:18.47 | 0 | 14896
2 | 3:18.47 | 4:45.12 | 14897 | 36283
3 | 8:03.59 | 4:21.48 | 36284 | 55906
4 | 12:25.32 | 6:52.11 | 55907 | 86817
5 | 19:17.43 | 4:45.60 | 86818 | 108252
6 | 24:03.28 | 6:14.72 | 108253 | 136374
7 | 30:18.25 | 5:44.67 | 136375 | 162241
8 | 36:03.17 | 5:58.23 | 162242 | 189114
9 | 42:01.40 | 6:03.34 | 189115 | 216373


Range status and errors

Selected range

Filename D:\Yurek Private\Uploads\ARCHANGELICA - Like a Drug 2013\Archangelica - Like A Drug.wav

Peak level 98.7 %
Extraction speed 5.8 X
Range quality 100.0 %
Test CRC 6A1A5436
Copy CRC 6A1A5436
Copy OK

No errors occurred


AccurateRip summary

Track 1 not present in database
Track 2 not present in database
Track 3 not present in database
Track 4 not present in database
Track 5 not present in database
Track 6 not present in database
Track 7 not present in database
Track 8 not present in database
Track 9 not present in database

None of the tracks are present in the AccurateRip database

End of status report

==== Log checksum 927B4FD6777E494881196150D77391C2BD75E4BB1E9B72AAE4DD60FAE35A09AD ====

foobar2000 1.1.18 / Dynamic Range Meter 1.1.1
log date: 2013-02-11 07:23:54

––––––––––––––––––––––––––––––––––––––––
Analyzed: Archangelica / Like A Drug
––––––––––––––––––––––––––––––––––––––––

DR Peak RMS Duration Track
––––––––––––––––––––––––––––––––––––––––
DR9 -0.11 dB -10.97 dB 3:19 01-Into Unknown
DR7 -0.11 dB -8.51 dB 4:45 02-Like A Drug
DR7 -0.11 dB -8.51 dB 4:22 03-Confession
DR8 -0.11 dB -8.87 dB 6:52 04-Night Passage
DR6 -0.11 dB -7.92 dB 4:46 05-Midnight Train
DR6 -0.11 dB -8.01 dB 6:15 06-Cathedral
DR7 -0.11 dB -8.26 dB 5:45 07-The Journey
DR7 -0.11 dB -8.60 dB 5:58 08-Let Me Stay With The Trees
DR7 -0.11 dB -8.49 dB 6:03 09-When All Is Gone
––––––––––––––––––––––––––––––––––––––––

Number of tracks: 9
Official DR value: DR7

Samplerate: 44100 Hz
Channels: 2
Bits per sample: 16
Bitrate: 959 kbps
Codec: FLAC

Archangelica - Like A Drug (2013)

All thanks go to yurek and wurensh

Download Archangelica - Like A Drug (2013):