Subcategories

Arctic Monkeys - Albums & Singles Collection 2006-2013 (11CD) Japanese Releases

Posted By: Designol
Arctic Monkeys - Albums & Singles Collection 2006-2013 (11CD) Japanese Releases

Arctic Monkeys - Albums & Singles Collection 2006-2013 (11CD) Japanese Releases
EAC/XLD | FLAC | Image (Cue+Log) ~ 2.21 Gb | Mp3 (CBR320) ~ 990 Mb | Complete Scans
Alternative/Indie Rock, Post-Punk Revival, Psychedelic Rock, Garage Rock | Time: 04:49:34

Arctic Monkeys are an English rock band formed in 2002 in High Green, a suburb of Sheffield. The band consists of Alex Turner (lead vocals, rhythm/lead guitar), Matt Helders (drums, vocals), Jamie Cook (lead/rhythm guitar) and Nick O'Malley (bass, backing vocals). They have released five studio albums: Whatever People Say I Am, That's What I'm Not (2006), Favourite Worst Nightmare (2007), Humbug (2009), Suck It and See (2011) and AM (2013). Their debut album is the fastest-selling debut album by a band in British chart history, and in 2013, Rolling Stone ranked it the 30th-greatest debut album of all time. The band has won six Brit Awards – winning both Best British Group and Best British Album three times, and have been nominated for three Grammy Awards.

By distilling the sounds of Franz Ferdinand, the Clash, the Strokes, and the Libertines into a hybrid of swaggering indie rock and danceable neo-punk, Arctic Monkeys became one of the U.K.'s biggest bands of the new millennium. Their meteoric rise began in 2005, when the teenagers fielded offers from major labels and drew a sold-out crowd to the London Astoria, using little more than a self-released EP as bait. Several months later, Whatever People Say I Am, That's What I'm Not became the fastest-selling debut album in British history, entrenching Arctic Monkeys in the same circle as multi-platinum acts like Oasis and Blur.

Frontman Alex Turner and guitarist Jamie Cook began their music careers in 2001, when the friends both received guitars for Christmas. Two years later, they began performing shows around their native Sheffield with drummer Matt Helders and bassist Andy Nicholson, two fellow students at Stocksbridge High School. A series of demo recordings followed, and Arctic Monkeys' audience swelled as fans circulated those recordings via the Internet. The musicians soon found themselves at the center of a growing media circus, with such outlets as BBC Radio examining the band's music and mounting hype.

By distributing their homemade material on the Internet, Arctic Monkeys were able to build a sizable fan base without the help of a record label, effectively circumventing the usual road to superstardom. They continued to buck tradition by signing with Domino Records in 2005, eschewing a major label's budget for Domino's D.I.Y. cred and hip roster (which also included Franz Ferdinand, a touchstone for the band's sound). The smart moves paid off as Arctic Monkeys' first two singles – "I Bet You Look Good on the Dancefloor" and "When the Sun Goes Down" – both topped the U.K. charts. Critical reception was similarly favorable, but few could have predicted the whirlwind success of the band's debut album, which ousted Oasis' Definitely Maybe as the fastest-selling debut in British history (a record that was broken one year later by Leona Lewis' Spirit). Whatever People Say I Am, That's What I'm Not sold 363,735 copies during its first week alone, transforming Arctic Monkeys from underground stars into mainstream figures.

Arctic Monkeys' debut sold approximately 300,000 total copies in America – enough to warrant more media coverage, but notably less than the album's British sales during its first week alone. Nevertheless, their success continued as they released a spring EP, Who the F**k Are Arctic Monkeys, and prepared for a stateside tour. Temporary bassist Nick O'Malley was brought aboard for the band's American shows, while a fatigued Nicholson stayed at home. Nicholson then announced his official departure when the band returned home in June 2006, and O'Malley remained with Arctic Monkeys as a permanent member. That fall, the guys received the 2006 Mercury Prize and donated the accompanying money to an undisclosed charity. Additional accolades included Best British Breakthrough Act at the Brit Awards and Best New Band at the NME Awards. NME also made a bold assertion by deeming the band's debut one of the Top Five British albums ever released.

Released in April 2007, Favourite Worst Nightmare updated Arctic Monkeys' sound with louder instruments and faster tempos. The bandmates had recorded the sophomore album quickly, wishing to return to the road as soon as possible, and the speedy turnaround between records helped maintain the band's popularity at home. Favourite Worst Nightmare sold 85,000 copies during its first day of release, and all 12 tracks entered the Top 200 of the U.K. singles charts. As Alex Turner briefly turned his attention to a side project, the Last Shadow Puppets, Arctic Monkeys received another Mercury Prize nomination and took home two titles at the 2008 Brit Awards. Recording sessions for a third album commenced in early 2008 and lasted throughout the year, with producers James Ford (who previously worked with Turner on the Last Shadow Puppets' album) and Josh Homme (frontman of Queens of the Stone Age) adding some newfound heft to the band's sound. Meanwhile, Arctic Monkeys released a concert album entitled At the Apollo – with accompanying video footage captured on 35mm film – before unveiling Humbug in August 2009.

Humbug went platinum in the U.K. but failed to produce a Top Ten hit, with "Crying Lightning" peaking at number 12 and "Cornerstone" topping out at 94. The band hit the road that February, kicking off a multi-leg tour that ran through the rest of the year. After playing another handful of shows in early 2010, the guys took a short hiatus before reconvening with James Ford for their fourth album. Sessions began that fall, and the resulting Suck It and See arrived in spring 2011. Meanwhile, Turner also wrote music for a Richard Ayoade film, Submarine, whose soundtrack doubled as the frontman’s first solo release. In February 2012, Arctic Monkeys released a song entitled "R U Mine?" on their Youtube channel, which indicated that a new album was on the way. A few months later, the band played at the London Summer Olympics opening ceremony, performing "I Bet You Look Good on the Dancefloor" and The Beatles' "Come Together", but it wasn't until the summer of 2013 that a new album was to be revealed. Entitled AM, the fifth album was released in September, a few months after a triumphant headline performance at Glastonbury 2013, which was opened with the new song "Do I Wanna Know?".

Biography by Andrew Leahey, Allmusic.com

Arctic Monkeys - Albums & Singles Collection 2006-2013 (11CD) Japanese Releases





–- ALBUMS –-




Arctic Monkeys - Albums & Singles Collection 2006-2013 (11CD) Japanese Releases

Arctic Monkeys - Albums & Singles Collection 2006-2013 (11CD) Japanese Releases

Arctic Monkeys - Whatever People Say I Am, That's What I'm Not (2006)
EAC | FLAC | Image (Cue+Log) ~ 320 Mb | Mp3 (CBR320) ~ 136 Mb | Scans included
Label: Domino | # WIGCD162J, HSE-10001 | Time: 00:40:45

Breathless, hyperbolic praise was piled upon the Arctic Monkeys and their debut album, Whatever People Say I Am, That's What I'm Not, an instant phenomenon without peer. Within the course of a year, the band rose from the ranks of an Internet phenomenon to the biggest band in the U.K., all on the strength of early demos circulated on the web as MP3s. Those demos built the band a rabid fan base before the Monkeys had released a record, even before they played more than a handful of gigs. In effect, the group performed a complete run around the industry, avoiding conventional routes toward stardom, which paid off in spades. When Whatever People Say I Am hit the streets in January 2006, it sold a gob-smacking 118,501 copies within its first week of release, which not only made it the fastest-selling U.K. debut ever, but sold more than the rest of the Top 20 combined – a remarkable achievement by any measure.

Last time such excitement surrounded a new British guitar band it was a decade earlier, as Brit-pop hit overdrive with the release of Oasis' 1994 debut, Definitely Maybe. All four members of the Arctic Monkeys were a little bit shy of their tenth birthday at the time, a bit young to be sure, but old enough to have Oasis be their first favorite band. So, it's little surprise that the Gallaghers' laddism – celebrating nights out fueled by lager and loud guitars – is the bedrock foundation of the Arctic Monkeys, just the way as it has been for most British rock bands since the mid-'90s, but the Monkeys' true musical ground zero is 2001, the year the Strokes stormed British consciousness with their debut, Is This It. The Arctic Monkeys borrow heavily from the Strokes' stylized ennui, adding an equal element of the Libertines' shambolic neo-classicist punk, undercut by a hint of dance-punk learned from Franz Ferdinand. But where the Strokes, the Libertines, and Franz all knowingly reference the past, this Sheffield quartet is only concerned with the now, piecing together elements of their favorite bands as lead singer/songwriter Alex Turner tells stories from their lives, mainly hookups on the dancefloor and underage drinking, balanced by the occasional imagined tragic tales of prostitution and the music industry.

Whatever People Say I Am captures the band mashing up the Strokes and the Libertines at will, jamming too many angular riffs into too short a space, tearing through the songs as quickly as possible. But where the Strokes camouflaged their songwriting skills with a laconic, take-it-or-leave-it sexiness, and where the Libertines mythologized England with a junkie poeticism, the Arctic Monkeys at their heart are simple, everyday lads, lacking any sense of sex appeal or romanticism, or even the desire for either. Nor do they harbor much menace, either in their tightly wound music or in how Turner spits out his words. Also, the dry production, sounding for all the world like an homage to Is This It – all clanking guitars and clattering drums, with most of the energy coming from the group's sloppy call-and-response backing vocals – keeps things ever immediate, and in a way, Whatever People Say I Am is an ideal album for the Information Overload Age: nearly every track here is overloaded with riffs and words, and just when it's about to sort itself out, it stops short. Instead of relying on a digital cut-and-paste clamor, lead singer and lyricist Alex Turner is a natural storyteller, chronicling a very specific time and place. Like Weller or Ian Dury before him, he’s captured his era in stark, vivid terms; he may not transcend his time, but he embodies it fully.

Review by Stephen Thomas Erlewine, Allmusic.com

Tracklist:

01. The View From The Afternoon (3:38)
02. I Bet You Look Good On The Dancefloor (2:54)
03. Fake Tales Of San Francisco (2:58)
04. Dancing Shoes (2:21)
05. You Probably Couldn't See For The Lights But You Were Staring Straight At Me (2:11)
06. Still Take You Home (2:54)
07. Riot Van (2:15)
08. Red Light Indicates Doors Are Secured (2:24)
09. Mardy Bum (2:55)
10. Perhaps Vampires Is A Bit Strong But.. (4:29)
11. When The Sun Goes Down (3:20)
12. From The Ritz To The Rubble (3:13)
13. A Certain Romance (5:31)


Exact Audio Copy V1.0 beta 3 from 29. August 2011

EAC extraction logfile from 19. August 2012, 21:51

Arctic Monkeys / Whatever People Say I Am, That's What I'm Not (WIGCD162J, HSE-10001)

Used drive : HL-DT-STDVD+-RW GT60N Adapter: 0 ID: 1

Read mode : Secure
Utilize accurate stream : Yes
Defeat audio cache : Yes
Make use of C2 pointers : No

Read offset correction : 103
Overread into Lead-In and Lead-Out : No
Fill up missing offset samples with silence : Yes
Delete leading and trailing silent blocks : No
Null samples used in CRC calculations : Yes
Used interface : Native Win32 interface for Win NT & 2000

Used output format : User Defined Encoder
Selected bitrate : 128 kBit/s
Quality : High
Add ID3 tag : No
Command line compressor : C:\Program Files (x86)\Exact Audio Copy\Flac\flac.exe
Additional command line options : -V -8 -T "Genre=%genre%" -T "Artist=%artist%" -T "Title=%title%" -T "Album=%albumtitle%" -T "Date=%year%" -T "Tracknumber=%tracknr%" -T "Comment=%comment%" %source%


TOC of the extracted CD

Track | Start | Length | Start sector | End sector
––––––––––––––––––––––––––––-
1 | 0:00.00 | 3:38.11 | 0 | 16360
2 | 3:38.11 | 2:53.50 | 16361 | 29385
3 | 6:31.61 | 2:57.71 | 29386 | 42731
4 | 9:29.57 | 2:21.10 | 42732 | 53316
5 | 11:50.67 | 2:10.60 | 53317 | 63126
6 | 14:01.52 | 2:53.52 | 63127 | 76153
7 | 16:55.29 | 2:14.70 | 76154 | 86273
8 | 19:10.24 | 2:23.45 | 86274 | 97043
9 | 21:33.69 | 2:55.32 | 97044 | 110200
10 | 24:29.26 | 4:28.46 | 110201 | 130346
11 | 28:57.72 | 3:20.01 | 130347 | 145347
12 | 32:17.73 | 3:13.30 | 145348 | 159852
13 | 35:31.28 | 5:31.13 | 159853 | 184690
14 | 43:34.41 | 12:49.46 | 196091 | 253811


Range status and errors

Selected range

Filename C:\Arctic Monkeys - Whatever People Say I Am, That's What I'm Not (WIGCD162J, HSE-10001).wav

Peak level 99.9 %
Extraction speed 4.5 X
Range quality 100.0 %
Test CRC 9C8455A9
Copy CRC 9C8455A9
Copy OK

No errors occurred


AccurateRip summary

Track 1 accurately ripped (confidence 8) [19FE89F2] (AR v1)
Track 2 accurately ripped (confidence 8) [6D9AA7DB] (AR v1)
Track 3 accurately ripped (confidence 8) [89FFF713] (AR v1)
Track 4 accurately ripped (confidence 8) [0AF29288] (AR v1)
Track 5 accurately ripped (confidence 8) [CBAF2ED4] (AR v1)
Track 6 accurately ripped (confidence 8) [132880C2] (AR v1)
Track 7 accurately ripped (confidence 8) [DF093FCC] (AR v1)
Track 8 accurately ripped (confidence 8) [3637AB84] (AR v1)
Track 9 accurately ripped (confidence 8) [CD26F362] (AR v1)
Track 10 accurately ripped (confidence 8) [BB0C0ABF] (AR v1)
Track 11 accurately ripped (confidence 8) [BF1CB007] (AR v1)
Track 12 accurately ripped (confidence 8) [B13185D9] (AR v1)
Track 13 accurately ripped (confidence 8) [554BAEEE] (AR v1)

All tracks accurately ripped

End of status report

==== Log checksum D7145BF4180C02C9623A9FC1415E123E62DB21A8C11A7301C087DC645E9D723F ====

foobar2000 1.1.13 / Dynamic Range Meter 1.1.0

log date: 2012-08-20 21:41:13

––––––––––––––––––––––––––––––––––––––––
Analyzed: Arctic Monkeys / Whatever People Say I Am, That's What I'm Not (WIGCD162J, HSE-10001)
–––––––––––––––––––––––––––––––––––––––-

DR Peak RMS Duration Track
––––––––––––––––––––––––––––––––––––––––
DR6 -0.01 dB -7.78 dB 3:38 01-The View From The Afternoon
DR6 -0.01 dB -7.61 dB 2:54 02-I Bet You Look Good On The Dancefloor
DR6 -0.01 dB -8.40 dB 2:58 03-Fake Tales Of San Francisco
DR7 -0.01 dB -7.82 dB 2:21 04-Dancing Shoes
DR7 0.00 dB -8.35 dB 2:11 05-You Probably Couldn't See For The Lights But You Were Staring Straight At Me
DR6 -0.01 dB -7.87 dB 2:54 06-Still Take You Home
DR11 -0.01 dB -13.02 dB 2:15 07-Riot Van
DR7 -0.01 dB -8.23 dB 2:24 08-Red Light Indicates Doors Are Secured
DR7 -0.01 dB -9.06 dB 2:55 09-Mardy Bum
DR6 -0.01 dB -8.10 dB 4:29 10-Perhaps Vampires Is A Bit Strong But..
DR6 -0.01 dB -8.96 dB 3:20 11-When The Sun Goes Down
DR7 -0.01 dB -8.67 dB 3:13 12-From The Ritz To The Rubble
DR6 -0.01 dB -9.00 dB 5:31 13-A Certain Romance

––––––––––––––––––––––––––––––––––––––––

Number of tracks: 13

Official DR value: DR7


Samplerate: 44100 Hz
Channels: 2
Bits per sample: 16
Bitrate: 950 kbps

Codec: FLAC

===============================================================================




Arctic Monkeys - Albums & Singles Collection 2006-2013 (11CD) Japanese Releases

Arctic Monkeys - Albums & Singles Collection 2006-2013 (11CD) Japanese Releases

Arctic Monkeys - Albums & Singles Collection 2006-2013 (11CD) Japanese Releases

Arctic Monkeys - Favourite Worst Nightmare (2007)
EAC | FLAC | Image (Cue+Log) ~ 363 Mb (incl 5%) | Mp3 (CBR320) ~ 157 Mb | Scans included
Label: Domino | # WIGCD188J, HSE-10043 | Time: 00:44:36

Breathless praise is a time-honored tradition in British pop music, but even so, the whole brouhaha surrounding the 2006 debut of the Arctic Monkeys bordered on the absurd. It wasn't enough for the Arctic Monkeys to be the best new band of 2006; they had to be the saviors of rock & roll. Lead singer/songwriter Alex Turner had to be the best songwriter since Noel Gallagher or perhaps even Paul Weller, and their debut, Whatever People Say I Am, That's What I'm Not, at first was hailed as one of the most important albums of the decade, and then, just months after its release, NME called it one of the Top Five British albums ever. Heady stuff for a group just out of their teens, and they weathered the storm with minimal damage, losing their bassist but not their sense of purpose as they coped in the time-honored method for young bands riding the wave of enormous success: they kept on working. All year long they toured, rapidly writing and recording their second album, Favourite Worst Nightmare, getting it out just a little over a year after their debut, a speedy turnaround by any measure. Some may call it striking when the iron is hot, cashing in while there's still interest, but Favourite Worst Nightmare is the opposite of opportunism: it's the vibrant, thrilling sound of a band coming into its own.

The Arctic Monkeys surely showed potential on Whatever People Say I Am, but their youthful vigor often camouflaged their debt to other bands. Here, they're absorbing their influences, turning their liberal borrowings from the Libertines, the Strokes, and the Jam into something that's their own distinct identity. Unlike any of those three bands, however, the Arctic Monkeys haven't stumbled on their second album; they haven't choked on hubris, they haven't overthought their sophomore salvo, nor have they cranked it out too quickly. That constant year of work resulted in startling growth as the band is testing the limits of what they can do and where they can go. Favourite Worst Nightmare hardly abandons the pleasures of their debut but instead frantically expands upon them. They still have a kinetic nervous energy, but this isn't a quartet that bashes out simply three-chord rock & roll. The Monkeys may start with an infectious riff, but then they'll violently burst into jagged yet tightly controlled blasts of post-punk squalls, or they'll dress a verse with circular harmonies as they do at the end of "Fluorescent Adolescent." Their signature is precision, evident in their concise songs, deftly executed instrumental interplay, and the details within Turner's wry wordplay, which is clever but never condescending. Indeed, the remarkable thing about the Arctic Monkeys – which Favourite Worst Nightmare brings into sharp relief – is their genuine guilelessness, how they restructure classic rock clichés in a way that pays little mind to how things were done in the past, and that all goes back to their youth.

Born in the '80s and raised on the Strokes and the Libertines, they treat all rock as a level playing field, loving its traditions but not seeing musical barriers between generations, since the band learned all of rock history at once and now spit it all out in a giddy, cacophonous blend of post-punk and classic rock that sounds fresh, partially because they jam each of their very songs with a surplus of ideas. Some of this was true on their debut album, but it's the restlessness of Favourite Worst Nightmare that impresses – they're discovering themselves as they go and, unlike so many modern bands, they're interested in the discovery and not appearances. They'll venture into darker territory, they'll slow things down on "Only Ones Who Know," they'll play art punk riffs without pretension. Here, they sound like they'll try anything, which makes this a rougher album in some ways than their debut, which indeed was more cohesive. All the songs on Whatever shared a similar viewpoint, whereas the excitement here is that there's a multitude of viewpoints, all suggesting different tantalizing directions they could go. On that debut, it was possible hear all the ways they were similar to their predecessors, but here it's possible to hear all the ways the Arctic Monkeys are a unique, vibrant band and that's why Favourite Worst Nightmare is in its own way more exciting than the debut: it reveals the depth and ambition of the band and, in doing so, it will turn skeptics into believers.

Review by Stephen Thomas Erlewine, Allmusic.com

Tracklist:

01. Brianstorm (2:50)
02. Teddy Picker (2:43)
03. D Is For Dangerous (2:16)
04. Balaclava (2:49)
05. Fluorescent Adolescent (2:58)
06. Only Ones Who Know (3:03)
07. Do Me A Favour (3:27)
08. This House Is A Circus (3:10)
09. If You Were There, Beware (4:34)
10. The Bad Thing (2:23)
11. Old Yellow Bricks (3:11)
12. 505 (4:43)
13. Da Frame 2R (2:20)
14. Matador (4:57)


Exact Audio Copy V1.0 beta 3 from 29. August 2011

EAC extraction logfile from 19. August 2012, 22:18

Arctic Monkeys / Favourite Worst Nightmare (WIGCD188J, HSE-10043)

Used drive : HL-DT-STDVD+-RW GT60N Adapter: 0 ID: 1

Read mode : Secure
Utilize accurate stream : Yes
Defeat audio cache : Yes
Make use of C2 pointers : No

Read offset correction : 103
Overread into Lead-In and Lead-Out : No
Fill up missing offset samples with silence : Yes
Delete leading and trailing silent blocks : No
Null samples used in CRC calculations : Yes
Used interface : Native Win32 interface for Win NT & 2000

Used output format : User Defined Encoder
Selected bitrate : 128 kBit/s
Quality : High
Add ID3 tag : No
Command line compressor : C:\Program Files (x86)\Exact Audio Copy\Flac\flac.exe
Additional command line options : -V -8 -T "Genre=%genre%" -T "Artist=%artist%" -T "Title=%title%" -T "Album=%albumtitle%" -T "Date=%year%" -T "Tracknumber=%tracknr%" -T "Comment=%comment%" %source%


TOC of the extracted CD

Track | Start | Length | Start sector | End sector
––––––––––––––––––––––––––––-
1 | 0:00.00 | 2:50.19 | 0 | 12768
2 | 2:50.19 | 2:43.11 | 12769 | 25004
3 | 5:33.30 | 2:16.08 | 25005 | 35212
4 | 7:49.38 | 2:49.17 | 35213 | 47904
5 | 10:38.55 | 2:57.40 | 47905 | 61219
6 | 13:36.20 | 3:02.57 | 61220 | 74926
7 | 16:39.02 | 3:27.19 | 74927 | 90470
8 | 20:06.21 | 3:09.51 | 90471 | 104696
9 | 23:15.72 | 4:34.15 | 104697 | 125261
10 | 27:50.12 | 2:23.16 | 125262 | 136002
11 | 30:13.28 | 3:11.17 | 136003 | 150344
12 | 33:24.45 | 4:43.30 | 150345 | 171599
13 | 38:08.00 | 2:19.74 | 171600 | 182098
14 | 40:27.74 | 4:57.30 | 182099 | 204403


Range status and errors

Selected range

Filename C:\Arctic Monkeys - Favourite Worst Nightmare (WIGCD188J, HSE-10043).wav

Peak level 99.9 %
Extraction speed 4.5 X
Range quality 99.9 %
Test CRC 9407E958
Copy CRC 9407E958
Copy OK

No errors occurred


AccurateRip summary

Track 1 accurately ripped (confidence 8) [5C0C1079] (AR v1)
Track 2 accurately ripped (confidence 8) [08585F2F] (AR v1)
Track 3 accurately ripped (confidence 8) [1F44B3A4] (AR v1)
Track 4 accurately ripped (confidence 8) [4A1489D3] (AR v1)
Track 5 accurately ripped (confidence 8) [603CAC01] (AR v1)
Track 6 accurately ripped (confidence 8) [FCAE5047] (AR v1)
Track 7 accurately ripped (confidence 8) [BA96323D] (AR v1)
Track 8 accurately ripped (confidence 7) [977448E4] (AR v1)
Track 9 accurately ripped (confidence 8) [5E22DFA8] (AR v1)
Track 10 accurately ripped (confidence 8) [47E37626] (AR v1)
Track 11 accurately ripped (confidence 8) [D2573633] (AR v1)
Track 12 accurately ripped (confidence 8) [19C3A8B7] (AR v1)
Track 13 accurately ripped (confidence 8) [4394F775] (AR v1)
Track 14 accurately ripped (confidence 8) [963FAB5A] (AR v1)

All tracks accurately ripped

End of status report

==== Log checksum 3F6CA5511A9E62CD14C9842C6E8E882AD91BD2EBD6F1D2BC2D855EF14FD8A105 ====

foobar2000 1.1.13 / Dynamic Range Meter 1.1.0

log date: 2012-08-20 21:41:24

––––––––––––––––––––––––––––––––––––––––
Analyzed: Arctic Monkeys / Favourite Worst Nightmare (WIGCD188J, HSE-10043)
––––––––––––––––––––––––––––––––––––––––
DR Peak RMS Duration Track
––––––––––––––––––––––––––––––––––––––––

DR6 -0.01 dB -7.27 dB 2:50 01-Brianstorm
DR6 -0.01 dB -7.21 dB 2:43 02-Teddy Picker
DR6 -0.01 dB -7.85 dB 2:16 03-D Is For Dangerous
DR6 -0.01 dB -8.10 dB 2:49 04-Balaclava
DR7 -0.01 dB -8.42 dB 2:58 05-Fluorescent Adolescent
DR9 -0.01 dB -10.29 dB 3:03 06-Only Ones Who Know
DR6 -0.01 dB -9.02 dB 3:27 07-Do Me A Favour
DR7 -0.01 dB -8.35 dB 3:10 08-This House Is A Circus
DR6 -0.01 dB -9.07 dB 4:34 09-If You Were There, Beware
DR7 -0.01 dB -7.72 dB 2:23 10-The Bad Thing
DR6 -0.01 dB -7.84 dB 3:11 11-Old Yellow Bricks
DR6 -0.01 dB -9.27 dB 4:43 12-505
DR6 -0.01 dB -7.10 dB 2:20 13-Da Frame 2R
DR6 -0.01 dB -8.02 dB 4:57 14-Matador
––––––––––––––––––––––––––––––––––––––––

Number of tracks: 14
Official DR value: DR6

Samplerate: 44100 Hz
Channels: 2
Bits per sample: 16
Bitrate: 954 kbps
Codec: FLAC

================================================================================




Arctic Monkeys - Albums & Singles Collection 2006-2013 (11CD) Japanese Releases

Arctic Monkeys - Albums & Singles Collection 2006-2013 (11CD) Japanese Releases

Arctic Monkeys - Humburg (2009)
EAC | FLAC | Image (Cue+Log) ~ 362 Mb (incl 5%) | Mp3 (CBR320) ~ 160 Mb
Domino | # WIGCD220J, HSE-10090 | Time: 00:45:04

Facing the third album blues, the Arctic Monkeys turned to Josh Homme, the Queens of the Stone Age mastermind renowned for his collaborations but heretofore untested as a producer. On first glance, it's a peculiar pair – the heirs of Paul Weller meet the heavy desert mystic – but this isn't a team of equals, it's a big brother helping his little siblings go wayward and get weird. Homme doesn't imprint his own views on the Monkeys but encourages them to follow their strange instincts, whether it's a Nick Cave obsession or the inclination to emphasize atmosphere over energy. Wading into the murk of Humbug it becomes clear that the common ground between the Monkeys and Homme is the actual act of making music, the pleasure of not knowing what comes next when an entire band is drifting inside a zone. Since so much of Humbug is about its process, it's not always immediately accessible or pleasurable to an outside listener, nor is it quite the thickly colored freakout Homme's presence suggests. The Monkeys still favor angular riffs and clenched rhythms, constructing tightly framed vignettes not widescreen epics, but they're working with a darker palette and creating vaguely abstract compositions, sensibilities that extend to Alex Turner's words too, as he trades keen detail for vivid scrawled impressions. Every element of the album reflects a band testing its limits, seeing where they could – not necessarily will – go next; it's a voyage through territory that's new to them as musicians (which doesn't necessarily mean that it's also new to their audience), offering at a peek at what lies beyond via three songs cut after the desert sessions, songs informed by what they learned during their sojourn with Homme. This trio of tunes, highlighted by "Cornerstone," aren't as darkly as evocative as the rest of the dense, gnarled Humbug but they're among the best songs the album has to offer suggesting that the record may mean more in the long-term that it does on its own. Nevertheless, Humbug makes two things clear: Arctic Monkeys are serious about being in a band, about making music, and they are the first major British band in generations unencumbered by fear or spite for America. Humbug was not done with hopes of breaking the American market or reacting spitefully against it, it is solely about big, loud, dark noise. No wonder Josh Homme sensed he had a band of little brothers in Arctic Monkeys.

Review by Stephen Thomas Erlewine, Allmusic.com

Tracklist:

01. My Propeller (3:28)
02. Crying Lightning (3:43)
03. Dangerous Animals (3:31)
04. Secret Door (3:43)
05. Potion Approaching (3:32)
06. Fire And The Thud (3:58)
07. Cornerstone (3:18)
08. Dance Little Liar (4:43)
09. Pretty Visitors (3:41)
10. The Jeweller's Hands (6:12)
11. I Haven't Got My Strange (1:30)
12. Red Right Hand (4:18)


Exact Audio Copy V1.0 beta 3 from 29. August 2011

EAC extraction logfile from 19. August 2012, 22:45

Arctic Monkeys / Humbug (WIGCD220J, HSE-10090)

Used drive : HL-DT-STDVD+-RW GT60N Adapter: 0 ID: 1

Read mode : Secure
Utilize accurate stream : Yes
Defeat audio cache : Yes
Make use of C2 pointers : No

Read offset correction : 103
Overread into Lead-In and Lead-Out : No
Fill up missing offset samples with silence : Yes
Delete leading and trailing silent blocks : No
Null samples used in CRC calculations : Yes
Used interface : Native Win32 interface for Win NT & 2000

Used output format : User Defined Encoder
Selected bitrate : 128 kBit/s
Quality : High
Add ID3 tag : No
Command line compressor : C:\Program Files (x86)\Exact Audio Copy\Flac\flac.exe
Additional command line options : -V -8 -T "Genre=%genre%" -T "Artist=%artist%" -T "Title=%title%" -T "Album=%albumtitle%" -T "Date=%year%" -T "Tracknumber=%tracknr%" -T "Comment=%comment%" %source%


TOC of the extracted CD

Track | Start | Length | Start sector | End sector
––––––––––––––––––––––––––––-
1 | 0:00.00 | 3:27.39 | 0 | 15563
2 | 3:27.39 | 3:43.12 | 15564 | 32300
3 | 7:10.51 | 3:30.50 | 32301 | 48100
4 | 10:41.26 | 3:43.05 | 48101 | 64830
5 | 14:24.31 | 3:32.10 | 64831 | 80740
6 | 17:56.41 | 3:57.40 | 80741 | 98555
7 | 21:54.06 | 3:17.73 | 98556 | 113403
8 | 25:12.04 | 4:43.37 | 113404 | 134665
9 | 29:55.41 | 3:40.38 | 134666 | 151203
10 | 33:36.04 | 6:12.04 | 151204 | 179107
11 | 39:48.08 | 1:30.09 | 179108 | 185866
12 | 41:18.17 | 4:17.60 | 185867 | 205201


Range status and errors

Selected range

Filename C:\Arctic Monkeys - Humbug (WIGCD220J, HSE-10090).wav

Peak level 100.0 %
Extraction speed 4.5 X
Range quality 99.9 %
Test CRC BDC75D28
Copy CRC BDC75D28
Copy OK

No errors occurred


AccurateRip summary

Track 1 accurately ripped (confidence 5) [7594276C] (AR v1)
Track 2 accurately ripped (confidence 5) [CB7E1CE6] (AR v1)
Track 3 accurately ripped (confidence 5) [71FCB451] (AR v1)
Track 4 accurately ripped (confidence 5) [816152E0] (AR v1)
Track 5 accurately ripped (confidence 5) [72AC97D6] (AR v1)
Track 6 accurately ripped (confidence 5) [2FDD01D0] (AR v1)
Track 7 accurately ripped (confidence 5) [6606C7E9] (AR v1)
Track 8 accurately ripped (confidence 5) [EDFF1F9D] (AR v1)
Track 9 accurately ripped (confidence 5) [584CE4C3] (AR v1)
Track 10 accurately ripped (confidence 5) [5DEE61AE] (AR v1)
Track 11 accurately ripped (confidence 5) [1543F41B] (AR v1)
Track 12 accurately ripped (confidence 5) [89F8CA04] (AR v1)

All tracks accurately ripped

End of status report

==== Log checksum 4E35BD812FA702C2E5B6AF73DFF6809DFAEE5F44FD83BB26CD71C9D4A468F2C9 ====

foobar2000 1.1.13 / Dynamic Range Meter 1.1.0

log date: 2012-08-20 21:41:34
––––––––––––––––––––––––––––––––––––––––
Analyzed: Arctic Monkeys / Humbug (WIGCD220J, HSE-10090)
––––––––––––––––––––––––––––––––––––––––
DR Peak RMS Duration Track
––––––––––––––––––––––––––––––––––––––––
DR5 -0.01 dB -6.90 dB 3:28 01-My Propeller
DR5 -0.01 dB -6.48 dB 3:43 02-Crying Lightning
DR5 0.00 dB -6.51 dB 3:31 03-Dangerous Animals
DR6 -0.01 dB -7.74 dB 3:43 04-Secret Door
DR7 -0.01 dB -8.47 dB 3:32 05-Potion Approaching
DR7 -0.01 dB -10.14 dB 3:58 06-Fire And The Thud
DR5 -0.01 dB -6.87 dB 3:18 07-Cornerstone
DR6 -0.01 dB -8.06 dB 4:43 08-Dance Little Liar
DR6 -0.01 dB -7.81 dB 3:41 09-Pretty Visitors
DR7 0.00 dB -8.97 dB 6:12 10-The Jeweller's Hands
DR7 -0.01 dB -9.11 dB 1:30 11-I Haven't Got My Strange (Japan bonus track)
DR7 0.00 dB -7.87 dB 4:18 12-Red Right Hand (Japan bonus track)
––––––––––––––––––––––––––––––––––––––––
Number of tracks: 12
Official DR value: DR6

Samplerate: 44100 Hz
Channels: 2
Bits per sample: 16
Bitrate: 940 kbps
Codec: FLAC

================================================================================




Arctic Monkeys - Albums & Singles Collection 2006-2013 (11CD) Japanese Releases

Arctic Monkeys - Albums & Singles Collection 2006-2013 (11CD) Japanese Releases

Arctic Monkeys - Suck It And See (2011)
EAC | FLAC | Image (Cue&Log) ~ 366 Mb | Mp3 (CBR320) ~ 168 Mb | Scans included
Label: Domino | # WIGCD258J | Time: 00:43:56

Returning home after their Josh Homme-directed voyage into the desert, Arctic Monkeys get back to basics on their fourth album, Suck It and See. The journey is figurative: Suck It was recorded not in Sheffield, but in Los Angeles, with their longtime producer James Ford, who conjures a sound not unlike the one he captured on the band’s 2007 sophomore set Your Favourite Worst Nightmare. Homme may be gone but he’s not forgotten, not when the group regularly trades in fuzztones and heavy-booted stomps, accentuating their choruses with single-note guitar runs lifted from the Pixies. Ultimately, all these thick tones provide color on a set of songs trimmed of fatty excess and reliant on sturdy melodicism, arriving via the guitar hooks and sung melodies. Naturally, in a setting without frills, Alex Turner's lyrics are also pushed to the forefront, more so than they were on Humbug, and he shows no signs of slack, still displaying an uncanny ear for conversational rhythms and quick-witted puns. If Suck It and See is missing anything, it’s a powerhouse single. “Brick by Brick” contains a crushing riff and “Don’t Sit Down Because I Moved Your Chair” pulses with an insinuating menace, but neither are knockouts, they’re growers that get stronger with repeated spins. And in that sense, they’re quite representative of the album as a whole: Suck It and See may be at the opposite end of the spectrum from Humbug – it’s concentrated and purposeful where its predecessor sprawled – yet it still demands attention from the listener, delivering its rewards according to just how much time you’re willing to devote.

Review by Stephen Thomas Erlewine, Allmusic.com

Tracklist:

01. She's Thunderstorms (03:54)
02. Black Treacle (03:35)
03. Brick by Brick (02:59)
04. The Hellcat Spangled Shalalala (03:00)
05. Don't Sit Down 'Cause I've Moved Your Chair (03:03)
06. Library Pictures (02:22)
07. All My Own Stunts (03:52)
08. Reckless Serenade (02:42)
09. Piledriver Waltz (03:23)
10. Love is a Laserquest (03:11)
11. Suck It and See (03:45)
12. That's Where You're Wrong (04:16)
13. The Blond-O-Sonic Shimmer Trap (03:28)


Exact Audio Copy V0.99 prebeta 5 from 4. May 2009

Отчёт EAC об извлечении, выполненном 31. августа 2011, 16:24

Arctic Monkeys / Suck It And See

Дисковод: HL-DT-STDVDRAM GSA-T20N Adapter: 0 ID: 0

Режим чтения : Достоверность
Использование точного потока : Да
Отключение кэша аудио : Да
Использование указателей C2 : Нет

Коррекция смещения при чтении : 667
Способность читать области Lead-in и Lead-out : Нет
Заполнение пропущенных сэмплов тишиной : Да
Удаление блоков с тишиной в начале и конце : Нет
При вычислениях CRC использовались нулевые сэмплы : Да
Интерфейс : Встроенный Win32-интерфейс для Win NT/2000

Выходной формат : Внутренние WAV-операции
Формат сэмплов : 44.100 Гц; 16 бит; стерео


TOC извлечённого CD

Трек | Старт | Длительность | Начальный сектор | Конечный сектор
––––––––––––––––––––––––––––––––––-
1 | 0:00.00 | 3:54.69 | 0 | 17618
2 | 3:54.69 | 3:35.10 | 17619 | 33753
3 | 7:30.04 | 2:59.68 | 33754 | 47246
4 | 10:29.72 | 3:00.24 | 47247 | 60770
5 | 13:30.21 | 3:03.38 | 60771 | 74533
6 | 16:33.59 | 2:22.13 | 74534 | 85196
7 | 18:55.72 | 3:52.21 | 85197 | 102617
8 | 22:48.18 | 2:42.56 | 102618 | 114823
9 | 25:30.74 | 3:23.66 | 114824 | 130114
10 | 28:54.65 | 3:11.32 | 130115 | 144471
11 | 32:06.22 | 3:45.74 | 144472 | 161420
12 | 35:52.21 | 4:36.48 | 161421 | 182168
13 | 40:28.69 | 3:28.06 | 182169 | 197774


Характеристики диапазона извлечения и сообщения об ошибках

Выбранный диапазон

Имя файла D:\Новая папка\Arctic Monkeys - (2011) Suck It And See (Japan ed)\Arctic Monkeys - Suck It And See.wav

Пиковый уровень 100.0 %
Качество диапазона 100.0 %
CRC теста 059B4D25
CRC копии 059B4D25
Копирование… OK

Ошибок не произошло


AccurateRip: сводка

Трек 1 точность не определена (достоверность 1) [99862B29], AccurateRip вернул [918426A9]
Трек 2 точность не определена (достоверность 1) [356BADA5], AccurateRip вернул [042FCD3D]
Трек 3 точность не определена (достоверность 1) [BC665E13], AccurateRip вернул [46E2BAEB]
Трек 4 точность не определена (достоверность 1) [C371A6AE], AccurateRip вернул [22DAFD96]
Трек 5 точность не определена (достоверность 1) [F6D8B6BB], AccurateRip вернул [CAA37B53]
Трек 6 точность не определена (достоверность 1) [FE08ED25], AccurateRip вернул [FFA0BF98]
Трек 7 точность не определена (достоверность 1) [7C258DF1], AccurateRip вернул [C7E5D65E]
Трек 8 точность не определена (достоверность 1) [54870A28], AccurateRip вернул [E14CB554]
Трек 9 точность не определена (достоверность 1) [0D166DC6], AccurateRip вернул [A34B02F6]
Трек 10 точность не определена (достоверность 1) [1B7B8CAF], AccurateRip вернул [1266428F]
Трек 11 точность не определена (достоверность 1) [6CE398F4], AccurateRip вернул [38C7FAC4]
Трек 12 точность не определена (достоверность 1) [C1C55D9E], AccurateRip вернул [2CC878A6]
Трек 13 точность не определена (достоверность 1) [2BE77CEA], AccurateRip вернул [8DE4DBC2]

Ни один трек не прошёл проверки на точность
В вашей базе может быть иной вариант штамповки диска

Конец отчёта

foobar2000 1.3.9 / Dynamic Range Meter 1.1.1
log date: 2016-08-10 22:58:05

––––––––––––––––––––––––––––––––––––––––
Analyzed: Arctic Monkeys / Suck It And See
––––––––––––––––––––––––––––––––––––––––
DR Peak RMS Duration Track
––––––––––––––––––––––––––––––––––––––––
DR7 0.00 dB -8.58 dB 3:55 01-She's Thunderstorms
DR7 0.00 dB -8.51 dB 3:35 02-Black Treacle
DR7 0.00 dB -8.01 dB 3:00 03-Brick by Brick
DR7 0.00 dB -8.82 dB 3:00 04-The Hellcat Spangled Shalalala
DR7 0.00 dB -8.66 dB 3:04 05-Don't Sit Down 'Cause I've Moved Your Chair
DR8 0.00 dB -9.47 dB 2:22 06-Library Pictures
DR7 0.00 dB -8.69 dB 3:52 07-All My Own Stunts
DR7 0.00 dB -8.82 dB 2:43 08-Reckless Serenade
DR7 0.00 dB -8.42 dB 3:24 09-Piledriver Waltz
DR7 0.00 dB -8.34 dB 3:11 10-Love is a Laserquest
DR7 0.00 dB -7.92 dB 3:46 11-Suck It and See
DR7 0.00 dB -8.36 dB 4:37 12-That's Where You're Wrong
DR5 -0.01 dB -5.91 dB 3:28 13-The Blond-O-Sonic Shimmer Trap
––––––––––––––––––––––––––––––––––––––––

Number of tracks: 13
Official DR value: DR7

Samplerate: 44100 Hz
Channels: 2
Bits per sample: 16
Bitrate: 948 kbps
Codec: FLAC

================================================================================




Arctic Monkeys - Albums & Singles Collection 2006-2013 (11CD) Japanese Releases

Arctic Monkeys - Albums & Singles Collection 2006-2013 (11CD) Japanese Releases

Arctic Monkeys - AM (2013)
XLD | FLAC | Image (Cue&Log) ~ 314 Mb | Mp3 (CBR320) ~ 126 Mb | Scans included
Label: Hostess/Domino | # HSE-10137/WIGCD317J | Time: 00:45:16

If Arctic Monkeys launched a tentative retreat on Suck It & See, their first effort after being seduced by Josh Homme, the group once again forge ahead into bold new territory on AM, their fifth album. Neatly splitting the difference between the band's two personalities – the devotees of barbed British pop and disciples of curdled heavy rock – AM consolidates Arctic Monkeys strengths, a tricky task in and of itself, but the band pushes further, incorporating unapologetic glam stomps, fuzzy guitars, and a decidedly strong rhythmic undercurrent. At times, AM pulses to a distinctly danceable rhythm – "Fireplace" percolates while "Why Do You Only Call Me When You're High" simmers and "Knee Socks" nearly rivals Franz Ferdinand in disco rock – but this isn't an album made for nights out; it's a soundtrack for nights in. Too much of Alex Turner's mind is preoccupied with love gone wrong, jealousy, and general misanthropy, so even when he's singing about a "No. 1 Party Anthem," he's doing so with a nearly visible sneer. Such an undercurrent of cynicism makes AM an ideal album to listen to under the cover of darkness, but due to the Arctic Monkeys' muscular wallop and musical restlessness, it never feels like the band is wallowing in bleakness. Instead, this is vibrant, moody music that showcases a band growing ever stronger with each risk and dare they take.

Review by Stephen Thomas Erlewine, Allmusic.com

Tracklist:

01. Do I Wanna Know? (04:33)
02. R U Mine? (03:21)
03. One for the Road (03:26)
04. Arabella (03:27)
05. I Want It All (03:04)
06. No. 1 Party Anthem (04:03)
07. Mad Sounds (03:35)
08. Fireside (03:01)
09. Why’d You Only Call Me When You’re High? (02:41)
10. Snap Out of It (03:12)
11. Knee Socks (04:17)
12. I Wanna Be Yours (04:04)
13. 2013 (Japan Bonus Track) (02:28)


X Lossless Decoder version 20141129 (148.1)

XLD extraction logfile from 2015-02-25 14:38:00 +0300

Arctic Monkeys / AM [WIGCD317J, HSE-10137, Japan]

Used drive : HL-DT-ST DVDRAM GU40N (revision RR01)
Media type : Pressed CD

Ripper mode : XLD Secure Ripper
Disable audio cache : OK for the drive with a cache less than 1375KiB
Make use of C2 pointers : NO
Read offset correction : 103
Max retry count : 20
Gap status : Analyzed, Appended

TOC of the extracted CD
Track | Start | Length | Start sector | End sector
––––––––––––––––––––––––––––-
1 | 00:00:00 | 04:33:08 | 0 | 20482
2 | 04:33:08 | 03:21:60 | 20483 | 35617
3 | 07:54:68 | 03:26:03 | 35618 | 51070
4 | 11:20:71 | 03:27:27 | 51071 | 66622
5 | 14:48:23 | 03:04:26 | 66623 | 80448
6 | 17:52:49 | 04:03:05 | 80449 | 98678
7 | 21:55:54 | 03:35:05 | 98679 | 114808
8 | 25:30:59 | 03:01:02 | 114809 | 128385
9 | 28:31:61 | 02:41:10 | 128386 | 140470
10 | 31:12:71 | 03:12:66 | 140471 | 154936
11 | 34:25:62 | 04:17:43 | 154937 | 174254
12 | 38:43:30 | 04:04:04 | 174255 | 192558
13 | 42:47:34 | 02:29:00 | 192559 | 203733

List of alternate offset correction values
# | Absolute | Relative | Confidence
–––––––––––––––––––––
1 | 115 | 12 | 5

AccurateRip Summary (DiscID: 00164f3a-00dd12a9-b60a9c0d)
Track 01 : OK (v2, confidence 6/11)
Track 02 : OK (v2, confidence 5/10)
Track 03 : OK (v2, confidence 6/11)
Track 04 : OK (v2, confidence 6/11)
Track 05 : OK (v2, confidence 6/11)
Track 06 : OK (v2, confidence 6/11)
Track 07 : OK (v2, confidence 6/11)
Track 08 : OK (v2, confidence 6/11)
Track 09 : OK (v2, confidence 6/11)
Track 10 : OK (v2, confidence 6/11)
Track 11 : OK (v2, confidence 6/11)
Track 12 : OK (v2, confidence 6/11)
Track 13 : OK (v2, confidence 6/11)
->All tracks accurately ripped.

All Tracks
Filename : /CD/Arctic Monkeys - AM [WIGCD317J, HSE-10137, Japan] (2013)/Arctic Monkeys - AM [WIGCD317J, HSE-10137, Japan].flac
Album gain : -8.91 dB
Peak : 0.968231
CRC32 hash (test run) : 4436585B
CRC32 hash : 4436585B
CRC32 hash (skip zero) : 588267A4
Statistics
Read error : 0
Jitter error (maybe fixed) : 0
Retry sector count : 32
Damaged sector count : 0

Track 01
Pre-gap length : 00:02:00

Track gain : -8.87 dB
Peak : 0.966034
CRC32 hash (test run) : A7BFBFB5
CRC32 hash : A7BFBFB5
CRC32 hash (skip zero) : 41570898
AccurateRip v1 signature : 092346C4
AccurateRip v2 signature : 3E76AEA9
->Accurately ripped (v2, confidence 6/11)
Statistics
Read error : 0
Jitter error (maybe fixed) : 0
Retry sector count : 0
Damaged sector count : 0

Track 02

Track gain : -9.27 dB
Peak : 0.966034
CRC32 hash (test run) : DB090BD6
CRC32 hash : DB090BD6
CRC32 hash (skip zero) : 2DE15486
AccurateRip v1 signature : 95744B18
AccurateRip v2 signature : 98439C1E
->Accurately ripped (v2, confidence 5/10)
Statistics
Read error : 0
Jitter error (maybe fixed) : 0
Retry sector count : 0
Damaged sector count : 0

Track 03

Track gain : -8.99 dB
Peak : 0.966034
CRC32 hash (test run) : 194D9CFF
CRC32 hash : 194D9CFF
CRC32 hash (skip zero) : 0EF187B9
AccurateRip v1 signature : 4F3389D9
AccurateRip v2 signature : A8B5B4B1
->Accurately ripped (v2, confidence 6/11)
Statistics
Read error : 0
Jitter error (maybe fixed) : 0
Retry sector count : 0
Damaged sector count : 0

Track 04

Track gain : -8.64 dB
Peak : 0.966034
CRC32 hash (test run) : 3DB0212A
CRC32 hash : 3DB0212A
CRC32 hash (skip zero) : FD2294D7
AccurateRip v1 signature : 30F25DA3
AccurateRip v2 signature : 0834FCE8
->Accurately ripped (v2, confidence 6/11)
Statistics
Read error : 0
Jitter error (maybe fixed) : 0
Retry sector count : 32
Damaged sector count : 0

Track 05

Track gain : -9.50 dB
Peak : 0.966034
CRC32 hash (test run) : 54A4205F
CRC32 hash : 54A4205F
CRC32 hash (skip zero) : E8515CE4
AccurateRip v1 signature : 6D1A0634
AccurateRip v2 signature : DC110679
->Accurately ripped (v2, confidence 6/11)
Statistics
Read error : 0
Jitter error (maybe fixed) : 0
Retry sector count : 0
Damaged sector count : 0

Track 06

Track gain : -9.59 dB
Peak : 0.966034
CRC32 hash (test run) : DD8157C6
CRC32 hash : DD8157C6
CRC32 hash (skip zero) : D04D3128
AccurateRip v1 signature : 0762B454
AccurateRip v2 signature : E1E89223
->Accurately ripped (v2, confidence 6/11)
Statistics
Read error : 0
Jitter error (maybe fixed) : 0
Retry sector count : 0
Damaged sector count : 0

Track 07

Track gain : -6.19 dB
Peak : 0.966034
CRC32 hash (test run) : 583E40A1
CRC32 hash : 583E40A1
CRC32 hash (skip zero) : 3955F6C3
AccurateRip v1 signature : B786017F
AccurateRip v2 signature : 8593E913
->Accurately ripped (v2, confidence 6/11)
Statistics
Read error : 0
Jitter error (maybe fixed) : 0
Retry sector count : 0
Damaged sector count : 0

Track 08

Track gain : -9.31 dB
Peak : 0.966034
CRC32 hash (test run) : 6C90E3DD
CRC32 hash : 6C90E3DD
CRC32 hash (skip zero) : C274D744
AccurateRip v1 signature : 2E88CFBB
AccurateRip v2 signature : 807AABC9
->Accurately ripped (v2, confidence 6/11)
Statistics
Read error : 0
Jitter error (maybe fixed) : 0
Retry sector count : 0
Damaged sector count : 0

Track 09

Track gain : -8.90 dB
Peak : 0.966034
CRC32 hash (test run) : 0726271E
CRC32 hash : 0726271E
CRC32 hash (skip zero) : 62EA3CDF
AccurateRip v1 signature : 242FAD17
AccurateRip v2 signature : 9B5D5D17
->Accurately ripped (v2, confidence 6/11)
Statistics
Read error : 0
Jitter error (maybe fixed) : 0
Retry sector count : 0
Damaged sector count : 0

Track 10

Track gain : -9.01 dB
Peak : 0.966034
CRC32 hash (test run) : AAAA2643
CRC32 hash : AAAA2643
CRC32 hash (skip zero) : A4B2B1CF
AccurateRip v1 signature : C5097AF0
AccurateRip v2 signature : C8FD58DE
->Accurately ripped (v2, confidence 6/11)
Statistics
Read error : 0
Jitter error (maybe fixed) : 0
Retry sector count : 0
Damaged sector count : 0

Track 11

Track gain : -7.67 dB
Peak : 0.966034
CRC32 hash (test run) : A5B4559D
CRC32 hash : A5B4559D
CRC32 hash (skip zero) : 522A922E
AccurateRip v1 signature : 5BB6D151
AccurateRip v2 signature : 3793ADBA
->Accurately ripped (v2, confidence 6/11)
Statistics
Read error : 0
Jitter error (maybe fixed) : 0
Retry sector count : 0
Damaged sector count : 0

Track 12

Track gain : -5.86 dB
Peak : 0.966034
CRC32 hash (test run) : 06105F76
CRC32 hash : 06105F76
CRC32 hash (skip zero) : 40B4CEC7
AccurateRip v1 signature : 2AB9A3CA
AccurateRip v2 signature : FBF6298F
->Accurately ripped (v2, confidence 6/11)
Statistics
Read error : 0
Jitter error (maybe fixed) : 0
Retry sector count : 0
Damaged sector count : 0

Track 13
Pre-gap length : 00:59:65

Track gain : -8.77 dB
Peak : 0.968231
CRC32 hash (test run) : 54421B10
CRC32 hash : 54421B10
CRC32 hash (skip zero) : 0CCBC6B4
AccurateRip v1 signature : 2E80FFEE
AccurateRip v2 signature : A1C2C39D
->Accurately ripped (v2, confidence 6/11)
Statistics
Read error : 0
Jitter error (maybe fixed) : 0
Retry sector count : 0
Damaged sector count : 0

No errors occurred

End of status report

––-BEGIN XLD SIGNATURE––-
nJ7lXXYGA0KfSpWeYeinSafX3FX4soSoNR4pUEQgNqZ2zuuPzA.5Rt5e0zT3O4n2cKv0ayqUulAFaCN8BayxpNEIsybNk__kvCcuVMq
––-END XLD SIGNATURE––-

foobar2000 1.2 / Dynamic Range Meter 1.1.1
log date: 2015-07-11 18:26:00

––––––––––––––––––––––––––––––––––––––––
Analyzed: Arctic Monkeys / AM [WIGCD317J, HSE-10137, Japan]
––––––––––––––––––––––––––––––––––––––––

DR Peak RMS Duration Track
––––––––––––––––––––––––––––––––––––––––
DR6 -0.30 dB -8.77 dB 4:33 01-Do I Wanna Know?
DR5 -0.30 dB -6.56 dB 3:22 02-R U Mine?
DR5 -0.30 dB -7.68 dB 3:26 03-One for the Road
DR5 -0.30 dB -7.78 dB 3:27 04-Arabella
DR5 -0.30 dB -6.39 dB 3:04 05-I Want It All
DR5 -0.30 dB -6.94 dB 4:03 06-No. 1 Party Anthem
DR7 -0.30 dB -10.08 dB 3:35 07-Mad Sounds
DR5 -0.30 dB -6.74 dB 3:01 08-Fireside
DR6 -0.30 dB -7.78 dB 2:41 09-Why’d You Only Call Me When You’re High?
DR6 -0.30 dB -8.32 dB 3:13 10-Snap Out of It
DR7 -0.30 dB -9.05 dB 4:18 11-Knee Socks
DR8 -0.30 dB -11.54 dB 4:04 12-I Wanna Be Yours
DR5 -0.28 dB -7.18 dB 2:29 13-2013 (Japan Bonus Track)
––––––––––––––––––––––––––––––––––––––––

Number of tracks: 13
Official DR value: DR6

Samplerate: 44100 Hz
Channels: 2
Bits per sample: 16
Bitrate: 868 kbps
Codec: FLAC
================================================================================



–- SINGLES –-



Arctic Monkeys - Albums & Singles Collection 2006-2013 (11CD) Japanese Releases

Arctic Monkeys - Albums & Singles Collection 2006-2013 (11CD) Japanese Releases

Arctic Monkeys - Who the Fuck Are Arctic Monkeys? (2006) EP
EAC | FLAC | Image (Cue+Log) ~ 134 Mb | Mp3 (CBR320) ~ 67 Mb | Scans included
Label: Domino | # RUG226CDJ, HSE-10030 | Time: 00:18:47

"Who the Fuck Are Arctic Monkeys?" is the second EP by Arctic Monkeys, first released on 24 April 2006. The EP features "The View from the Afternoon", the opening track of their debut album Whatever People Say I Am, That's What I'm Not, along with four other songs.

Tracklist:

01. The View From The Afternoon (3:41)
02. Cigarette Smoker Fiona (2:57)
03. Despair In The Departure Lounge (3:23)
04. No Buses (3:17)
05. Who The Fuck Are Arctic Monkeys (5:37)


Exact Audio Copy V1.0 beta 3 from 29. August 2011

EAC extraction logfile from 5. December 2011, 20:59

Arctic Monkeys / Who The Fuck Are Arctic Monkeys (RUG226CDJ, HSE-10030)

Used drive : ASUS DRW-24B1ST Adapter: 3 ID: 0

Read mode : Secure
Utilize accurate stream : Yes
Defeat audio cache : Yes
Make use of C2 pointers : No

Read offset correction : 6
Overread into Lead-In and Lead-Out : No
Fill up missing offset samples with silence : Yes
Delete leading and trailing silent blocks : No
Null samples used in CRC calculations : Yes
Used interface : Native Win32 interface for Win NT & 2000

Used output format : User Defined Encoder
Selected bitrate : 128 kBit/s
Quality : High
Add ID3 tag : No
Command line compressor : C:\Program Files (x86)\Exact Audio Copy\Flac\flac.exe
Additional command line options : -V -8 -T "Date=%year%" -T "Genre=%genre%" %source%


TOC of the extracted CD

Track | Start | Length | Start sector | End sector
––––––––––––––––––––––––––––-
1 | 0:00.00 | 3:40.71 | 0 | 16570
2 | 3:40.71 | 2:56.41 | 16571 | 29811
3 | 6:37.37 | 3:22.64 | 29812 | 45025
4 | 10:00.26 | 3:17.24 | 45026 | 59824
5 | 13:17.50 | 5:36.62 | 59825 | 85086


Range status and errors

Selected range

Filename D:\Arctic Monkeys - Who The Fuck Are Arctic Monkeys (RUG226CDJ, HSE-10030).wav

Peak level 99.3 %
Extraction speed 4.4 X
Range quality 100.0 %
Test CRC E6F561F3
Copy CRC E6F561F3
Copy OK

No errors occurred


AccurateRip summary

Track 1 accurately ripped (confidence 12) [E6091C36] (AR v1)
Track 2 accurately ripped (confidence 12) [C0CD9A8F] (AR v1)
Track 3 accurately ripped (confidence 12) [E2CB2527] (AR v1)
Track 4 accurately ripped (confidence 12) [5D601969] (AR v1)
Track 5 accurately ripped (confidence 12) [C6A90B02] (AR v1)

All tracks accurately ripped

End of status report

–– CUETools DB Plugin V2.1.3

[CTDB TOCID: se8VW8VMNzBzqAjqKwMDrlIOprs-] found, Submit result: se8VW8VMNzBzqAjqKwMDrlIOprs- has been confirmed
[32fd7723] (46/46) Accurately ripped


==== Log checksum B06DE1C4E0F65B7B5702A9B88DAE9D428824D6E3C61F1C3F2ABF90B8463240BB ====

foobar2000 1.1.13 / Dynamic Range Meter 1.1.0
log date: 2012-08-20 21:53:29

––––––––––––––––––––––––––––––––––––––––
Analyzed: Arctic Monkeys / Who The Fuck Are Arctic Monkeys? (RUG226CDJ, HSE-10030)
––––––––––––––––––––––––––––––––––––––––

DR Peak RMS Duration Track
––––––––––––––––––––––––––––––––––––––––
DR6 -1.01 dB -8.84 dB 3:41 01-The View From The Afternoon
DR8 -0.05 dB -9.47 dB 2:57 02-Cigarette Smoker Fiona
DR8 -2.15 dB -11.86 dB 3:23 03-Despair In The Departure Lounge
DR9 -0.10 dB -12.16 dB 3:17 04-No Buses
DR7 -0.09 dB -9.27 dB 5:37 05-Who The Fuck Are Arctic Monkeys?
––––––––––––––––––––––––––––––––––––––––

Number of tracks: 5
Official DR value: DR8

Samplerate: 44100 Hz
Channels: 2
Bits per sample: 16
Bitrate: 885 kbps
Codec: FLAC

================================================================================




Arctic Monkeys - Albums & Singles Collection 2006-2013 (11CD) Japanese Releases

Arctic Monkeys - Albums & Singles Collection 2006-2013 (11CD) Japanese Releases

Arctic Monkeys - When The Sun Goes Down (2006) Single
EAC | FLAC | Image (Cue+Log) ~ 62 Mb | Mp3 (CBR320) ~ 31 Mb | Scans Included
Label: Domino | # RUG216CDJ, HSE-10002 | Time: 00:06:45

"When the Sun Goes Down" is the second single from Arctic Monkeys, released on 16 November 2005. The song, about prostitution in the Neepsend district of Sheffield, was originally known as "Scummy" and followed debut single "I Bet You Look Good on the Dancefloor" to UK Number One. The track is featured on the band's debut album, Whatever People Say I Am, That's What I'm Not, released the week after this single.

Tracklist:

01. When The Sun Goes Down (3:20)
02. Stickin To The Floor (1:19)
03. 7 (2:11)


Exact Audio Copy V1.0 beta 3 from 29. August 2011

EAC extraction logfile from 5. December 2011, 21:14

Arctic Monkeys / When the Sun Goes Down (RUG216CDJ, HSE-10002)

Used drive : ASUS DRW-24B1ST Adapter: 3 ID: 0

Read mode : Secure
Utilize accurate stream : Yes
Defeat audio cache : Yes
Make use of C2 pointers : No

Read offset correction : 6
Overread into Lead-In and Lead-Out : No
Fill up missing offset samples with silence : Yes
Delete leading and trailing silent blocks : No
Null samples used in CRC calculations : Yes
Used interface : Native Win32 interface for Win NT & 2000

Used output format : User Defined Encoder
Selected bitrate : 128 kBit/s
Quality : High
Add ID3 tag : No
Command line compressor : C:\Program Files (x86)\Exact Audio Copy\Flac\flac.exe
Additional command line options : -V -8 -T "Date=%year%" -T "Genre=%genre%" %source%


TOC of the extracted CD

Track | Start | Length | Start sector | End sector
––––––––––––––––––––––––––––-
1 | 0:00.00 | 3:20.10 | 0 | 15009
2 | 3:20.10 | 1:18.73 | 15010 | 20932
3 | 4:39.08 | 2:10.38 | 20933 | 30720


Range status and errors

Selected range

Filename D:\Arctic Monkeys - When the Sun Goes Down (RUG216CDJ, HSE-10002).wav

Peak level 99.9 %
Extraction speed 3.9 X
Range quality 100.0 %
Test CRC FE9F9727
Copy CRC FE9F9727
Copy OK

No errors occurred


AccurateRip summary

Track 1 accurately ripped (confidence 29) [098B127E] (AR v1)
Track 2 accurately ripped (confidence 31) [AF3B746B] (AR v1)
Track 3 accurately ripped (confidence 31) [45B61AA3] (AR v1)

All tracks accurately ripped

End of status report

–– CUETools DB Plugin V2.1.3

[CTDB TOCID: PeJev9y.EDt1NZC6cUKfryc7zsU-] found, Submit result: PeJev9y.EDt1NZC6cUKfryc7zsU- has been confirmed
[b043dc0a] (28/28) Accurately ripped


==== Log checksum 549544E2ED59F2D3C49C6D0DAF5692B86BB1BD7A578E032C66BAF2FDDCE18798 ====

foobar2000 1.1.13 / Dynamic Range Meter 1.1.0

log date: 2012-08-20 21:53:24
––––––––––––––––––––––––––––––––––––––––
Analyzed: Arctic Monkeys / When the Sun Goes Down (RUG216CDJ, HSE-10002)
––––––––––––––––––––––––––––––––––––––––
DR Peak RMS Duration Track
––––––––––––––––––––––––––––––––––––––––
DR6 -0.01 dB -8.96 dB 3:20 01-When The Sun Goes Down
DR6 -0.01 dB -7.97 dB 1:19 02-Stickin to the Floor
DR7 -0.01 dB -8.10 dB 2:11 03-7
––––––––––––––––––––––––––––––––––––––––

Number of tracks: 3
Official DR value: DR6

Samplerate: 44100 Hz
Channels: 2
Bits per sample: 16
Bitrate: 944 kbps
Codec: FLAC

================================================================================




Arctic Monkeys - Albums & Singles Collection 2006-2013 (11CD) Japanese Releases

Arctic Monkeys - Albums & Singles Collection 2006-2013 (11CD) Japanese Releases

Arctic Monkeys - Leave Before The Lights Come On (2006) Single
EAC | FLAC | Image (Cue+Log) ~ 75 Mb | Mp3 (CBR320) ~ 33 Mb | Scans included
Label: Domino | # RUG236CDJ, HSE-10035 | Time: 00:09:33

"Leave Before the Lights Come On" is a song by Arctic Monkeys and was released on 14 August 2006 as the band's third single in the United Kingdom. The song was not included on the band's debut album Whatever People Say I Am, That's What I'm Not, though Alex Turner has stated that it could have been on the album as it follows a similar theme to many of the album tracks. It was the band's final release before promotion began for their second album Favourite Worst Nightmare in Spring 2007. However, it was not included on their second album either. The single's release was confirmed on the band's website on 6 July 2006, and that the track would be released on Monday, 14 August, on 3 track CD and 2 track 7" vinyl. The website did not offer any further information, but NME's website announced that the two b-side tracks for the single will be covers, "one of which will be their version of an old song and the other a cover of a track by one of their favourite groups." In July 2006, it was confirmed on Gonzo that "Put Your Dukes Up, John" by The Little Flames would be one of the cover versions. On 17 July, it emerged on an Arctic Monkeys fansite that the other cover version would be "Baby, I'm Yours" originally recorded by Barbara Lewis. The official website soon confirmed this and added that the track would be a collaboration with the 747s. The single entered the UK singles charts at number four on 20 August 2006, their first not to top the chart.

Tracklist:

01. Leave Before The Lights Come On (3:52)
02. Put Your Dukes Up John (3:02)
03. Baby I'm Yours (2:43)


Exact Audio Copy V1.0 beta 3 from 29. August 2011

EAC extraction logfile from 5. December 2011, 20:45

Arctic Monkeys / Leave Before The Lights Come On (RUG236CDJ, HSE-10035)

Used drive : ASUS DRW-24B1ST Adapter: 3 ID: 0

Read mode : Secure
Utilize accurate stream : Yes
Defeat audio cache : Yes
Make use of C2 pointers : No

Read offset correction : 6
Overread into Lead-In and Lead-Out : No
Fill up missing offset samples with silence : Yes
Delete leading and trailing silent blocks : No
Null samples used in CRC calculations : Yes
Used interface : Native Win32 interface for Win NT & 2000

Used output format : User Defined Encoder
Selected bitrate : 128 kBit/s
Quality : High
Add ID3 tag : No
Command line compressor : C:\Program Files (x86)\Exact Audio Copy\Flac\flac.exe
Additional command line options : -V -8 -T "Date=%year%" -T "Genre=%genre%" %source%


TOC of the extracted CD

Track | Start | Length | Start sector | End sector
––––––––––––––––––––––––––––-
1 | 0:00.00 | 3:52.04 | 0 | 17403
2 | 3:52.04 | 3:01.72 | 17404 | 31050
3 | 6:54.01 | 2:43.36 | 31051 | 43311


Range status and errors

Selected range

Filename D:\Arctic Monkeys - Leave Before The Lights Come On (RUG236CDJ, HSE-10035).wav

Peak level 100.0 %
Extraction speed 4.1 X
Range quality 100.0 %
Test CRC 019C797F
Copy CRC 019C797F
Copy OK

No errors occurred


AccurateRip summary

Track 1 accurately ripped (confidence 1) [BD0AF945] (AR v1)
Track 2 accurately ripped (confidence 1) [D3EDCD4D] (AR v1)
Track 3 accurately ripped (confidence 1) [740D9EBD] (AR v1)

All tracks accurately ripped

End of status report

–– CUETools DB Plugin V2.1.3

[CTDB TOCID: OGaUAFtXYamVZ9jqNhb_c1HmlTw-] disk not present in database, Submit result: OGaUAFtXYamVZ9jqNhb_c1HmlTw- has been uploaded


==== Log checksum 809336D4232A194F25CB2FFCE31A3032282BAB8E44464971C75F1DC2F740876E ====

foobar2000 1.1.13 / Dynamic Range Meter 1.1.0
log date: 2012-08-20 21:53:23

––––––––––––––––––––––––––––––––––––––––
Analyzed: Arctic Monkeys / Leave Before The Lights Come On (RUG236CDJ, HSE-10035)
––––––––––––––––––––––––––––––––––––––––

DR Peak RMS Duration Track
––––––––––––––––––––––––––––––––––––––––
DR6 -0.09 dB -8.16 dB 3:52 01-Leave Before The Lights Come On
DR5 -0.12 dB -6.96 dB 3:02 02-Put Your Dukes Up John
DR6 0.00 dB -8.13 dB 2:43 03-Baby I'm Yours
––––––––––––––––––––––––––––––––––––––––

Number of tracks: 3
Official DR value: DR6

Samplerate: 44100 Hz
Channels: 2
Bits per sample: 16
Bitrate: 926 kbps
Codec: FLAC

================================================================================




Arctic Monkeys - Albums & Singles Collection 2006-2013 (11CD) Japanese Releases

Arctic Monkeys - Albums & Singles Collection 2006-2013 (11CD) Japanese Releases

Arctic Monkeys - Brianstorm (2007) Single
EAC | FLAC | Image (Cue+Log) ~ 91 Mb | Mp3 (CBR320) ~ 35 Mb | Scans included
Label: Domino | # RUG254CDJ, HSE-10042 | Time: 00:10:50

"Brianstorm" (often mistaken as 'Brainstorm') was written by Arctic Monkeys it is the opening track on their second album, Favourite Worst Nightmare. The song was released as the first single from that album on 2 April 2007, debuting at #21 in the UK Singles Chart via downloads alone. The single was released in physical formats on 16 April, the week before the release of the album, and charted at #2 in the UK Singles Chart behind Beyoncé and Shakira's "Beautiful Liar". It is the band's fourth single in the United Kingdom, following number ones "I Bet You Look Good on the Dancefloor", and "When the Sun Goes Down", as well as the non-album track "Leave Before the Lights Come On". The song was noticeably louder and heavier than previous efforts, marking the band's evolved sound. It is their highest charting single worldwide.

Tracklist:

01. If You Found This It's Probably Too Late (1:32)
02. Brianstorm (2:51)
03. Temptation Greets You Like Your Naughty Friend (3:27)
04. What If You Were Right The First Time? (3:03)


Exact Audio Copy V1.0 beta 3 from 29. August 2011

EAC extraction logfile from 20. August 2012, 20:14

Arctic Monkeys / Brianstorm (RUG254CDJ, HSE-10042)

Used drive : HL-DT-STDVD+-RW GT60N Adapter: 0 ID: 1

Read mode : Secure
Utilize accurate stream : Yes
Defeat audio cache : Yes
Make use of C2 pointers : No

Read offset correction : 103
Overread into Lead-In and Lead-Out : No
Fill up missing offset samples with silence : Yes
Delete leading and trailing silent blocks : No
Null samples used in CRC calculations : Yes
Used interface : Native Win32 interface for Win NT & 2000

Used output format : User Defined Encoder
Selected bitrate : 128 kBit/s
Quality : High
Add ID3 tag : No
Command line compressor : C:\Program Files (x86)\Exact Audio Copy\Flac\flac.exe
Additional command line options : -V -8 -T "Genre=%genre%" -T "Artist=%artist%" -T "Title=%title%" -T "Album=%albumtitle%" -T "Date=%year%" -T "Tracknumber=%tracknr%" -T "Comment=%comment%" %source%


TOC of the extracted CD

Track | Start | Length | Start sector | End sector
––––––––––––––––––––––––––––-
1 | 0:00.00 | 1:32.28 | 0 | 6927
2 | 1:32.28 | 2:50.65 | 6928 | 19742
3 | 4:23.18 | 3:27.17 | 19743 | 35284
4 | 7:50.35 | 3:02.69 | 35285 | 49003


Range status and errors

Selected range

Filename C:\Arctic Monkeys - Brianstorm (RUG254CDJ, HSE-10042).wav

Peak level 100.0 %
Extraction speed 3.2 X
Range quality 99.9 %
Test CRC 9A656736
Copy CRC 9A656736
Copy OK

No errors occurred


AccurateRip summary

Track 1 not present in database
Track 2 not present in database
Track 3 not present in database
Track 4 not present in database

None of the tracks are present in the AccurateRip database

End of status report

==== Log checksum 3EB827AB2451825066D7B193E99A3612ADE963ECBBAD497F48EB17A2FC975B24 ====

foobar2000 1.1.13 / Dynamic Range Meter 1.1.0
log date: 2012-08-20 21:53:31

––––––––––––––––––––––––––––––––––––––––
Analyzed: Arctic Monkeys / Brianstorm (RUG254CDJ, HSE-10042)
–––––––––––––––––––––––––––––––––––––––-
DR Peak RMS Duration Track
––––––––––––––––––––––––––––––––––––––––
DR6 0.00 dB -8.38 dB 1:32 01-If You Found This It's Probably Too Late
DR6 -0.01 dB -7.56 dB 2:51 02-Brianstorm
DR6 -0.01 dB -8.09 dB 3:27 03-Temptation Greets You Like Your Naughty Friend
DR6 -0.01 dB -7.53 dB 3:03 04-What If You Were Right The First Time?
––––––––––––––––––––––––––––––––––––––––

Number of tracks: 4
Official DR value: DR6

Samplerate: 44100 Hz
Channels: 2
Bits per sample: 16
Bitrate: 1033 kbps
Codec: FLAC

================================================================================




Arctic Monkeys - Albums & Singles Collection 2006-2013 (11CD) Japanese Releases

Arctic Monkeys - Albums & Singles Collection 2006-2013 (11CD) Japanese Releases

Arctic Monkeys - Fluorescent Adolescent (2007) Single
EAC | FLAC | Image (Cue+Log) ~ 90 Mb | Mp3 (CBR320) ~ 38 Mb | Scans included
Label: Domino | # RUG261CDJ, HSE-10050 | Time: 00:11:54

"Fluorescent Adolescent" is a song by the Arctic Monkeys and the second single from their second album Favourite Worst Nightmare. It was released on 4 July 2007 in Japan and 9 July 2007 in the United Kingdom. On downloads alone, "Fluorescent Adolescent" charted in the UK Singles Chart at #55 for the week commencing 25 June 2007. The song charted at number five upon release of the single on CD for the week commencing 16 July 2007. Since 27 June 2007, "Fluorescent Adolescent" has received significant BBC Radio 1 airplay as the first song on "The A List" Playlist. The songs three B-sides—"Plastic Tramp", "The Bakery" and "Too Much to Ask"—appeared on the UK Singles Chart the week of the single's physical release at #153, #161 and #178, respectively.

Tracklist:

01. Fluorescent Adolescent (3:04)
02. The Bakery (2:57)
03. Plastic Tramp (2:54)
04. Too Much To Ask (3:03)


Exact Audio Copy V1.0 beta 3 from 29. August 2011

EAC extraction logfile from 5. December 2011, 21:42

Arctic Monkeys / Fluorescent Adolescent (RUG261CDJ, HSE-10050)

Used drive : ASUS DRW-24B1ST Adapter: 3 ID: 0

Read mode : Secure
Utilize accurate stream : Yes
Defeat audio cache : Yes
Make use of C2 pointers : No

Read offset correction : 6
Overread into Lead-In and Lead-Out : No
Fill up missing offset samples with silence : Yes
Delete leading and trailing silent blocks : No
Null samples used in CRC calculations : Yes
Used interface : Native Win32 interface for Win NT & 2000

Used output format : User Defined Encoder
Selected bitrate : 128 kBit/s
Quality : High
Add ID3 tag : No
Command line compressor : C:\Program Files (x86)\Exact Audio Copy\Flac\flac.exe
Additional command line options : -V -8 -T "Date=%year%" -T "Genre=%genre%" %source%


TOC of the extracted CD

Track | Start | Length | Start sector | End sector
––––––––––––––––––––––––––––-
1 | 0:00.00 | 3:03.67 | 0 | 13791
2 | 3:03.67 | 2:56.39 | 13792 | 27030
3 | 6:00.31 | 2:53.39 | 27031 | 40044
4 | 8:53.70 | 3:03.19 | 40045 | 53788


Range status and errors

Selected range

Filename D:\Arctic Monkeys - Fluorescent Adolescent (RUG261CDJ, HSE-10050).wav

Peak level 98.0 %
Extraction speed 4.1 X
Range quality 100.0 %
Test CRC 8B155C05
Copy CRC 8B155C05
Copy OK

No errors occurred


AccurateRip summary

Track 1 accurately ripped (confidence 16) [B2537C5F] (AR v1)
Track 2 accurately ripped (confidence 17) [59D877FC] (AR v1)
Track 3 accurately ripped (confidence 17) [14F6AF9B] (AR v1)
Track 4 accurately ripped (confidence 17) [083D1AFE] (AR v1)

All tracks accurately ripped

End of status report

–– CUETools DB Plugin V2.1.3

[CTDB TOCID: 0HYuHSc3XUkz0PFTP5zsA17lSIY-] found, Submit result: 0HYuHSc3XUkz0PFTP5zsA17lSIY- has been confirmed
[b17bf615] (15/15) Accurately ripped


==== Log checksum AEF987C351EBDFAE054C33298CC541386CB2F40C44EB398A8C2A4B3CDF9BCD6F ====

foobar2000 1.1.13 / Dynamic Range Meter 1.1.0
log date: 2012-08-20 21:53:34

––––––––––––––––––––––––––––––––––––––––
Analyzed: Arctic Monkeys / Fluorescent Adolescent (RUG261CDJ, HSE-10050)
––––––––––––––––––––––––––––––––––––––––
DR Peak RMS Duration Track
––––––––––––––––––––––––––––––––––––––––
DR7 -0.17 dB -8.70 dB 3:04 01-Fluorescent Adolescent
DR7 -0.17 dB -8.18 dB 2:57 02-The Bakery
DR6 -0.17 dB -8.09 dB 2:54 03-Plastic Tramp
DR7 -0.17 dB -8.03 dB 3:03 04-Too Much To Ask
––––––––––––––––––––––––––––––––––––––––

Number of tracks: 4
Official DR value: DR7

Samplerate: 44100 Hz
Channels: 2
Bits per sample: 16
Bitrate: 938 kbps
Codec: FLAC

================================================================================




Arctic Monkeys - Albums & Singles Collection 2006-2013 (11CD) Japanese Releases

Arctic Monkeys - Albums & Singles Collection 2006-2013 (11CD) Japanese Releases

Arctic Monkeys - Teddy Picker (2007) Single
EAC | FLAC | Image (Cue+Log) ~ 84 Mb | Mp3 (CBR320) ~ 34 Mb | Scans included
Label: Domino | # RUG279CDJ, HSE-10059 | Time: 00:10:00

"Teddy Picker" is a song by Arctic Monkeys and the third single from their second album Favourite Worst Nightmare. It was released on 3 December 2007 in the United Kingdom. The song entered the UK singles chart at number 20.

Tracklist:

01. Teddy Picker (2:43)
02. Bad Woman (2:18)
03. The Death Ramps (3:19)
04. Nettles (1:45)


Exact Audio Copy V1.0 beta 3 from 29. August 2011

EAC extraction logfile from 20. August 2012, 20:25

Arctic Monkeys / Teddy Picker (RUG279CDJ, HSE-10059)

Used drive : HL-DT-STDVD+-RW GT60N Adapter: 0 ID: 1

Read mode : Secure
Utilize accurate stream : Yes
Defeat audio cache : Yes
Make use of C2 pointers : No

Read offset correction : 103
Overread into Lead-In and Lead-Out : No
Fill up missing offset samples with silence : Yes
Delete leading and trailing silent blocks : No
Null samples used in CRC calculations : Yes
Used interface : Native Win32 interface for Win NT & 2000

Used output format : User Defined Encoder
Selected bitrate : 128 kBit/s
Quality : High
Add ID3 tag : No
Command line compressor : C:\Program Files (x86)\Exact Audio Copy\Flac\flac.exe
Additional command line options : -V -8 -T "Genre=%genre%" -T "Artist=%artist%" -T "Title=%title%" -T "Album=%albumtitle%" -T "Date=%year%" -T "Tracknumber=%tracknr%" -T "Comment=%comment%" %source%


TOC of the extracted CD

Track | Start | Length | Start sector | End sector
––––––––––––––––––––––––––––-
1 | 0:00.00 | 2:43.00 | 0 | 12224
2 | 2:43.00 | 2:17.54 | 12225 | 22553
3 | 5:00.54 | 3:19.13 | 22554 | 37491
4 | 8:19.67 | 1:44.74 | 37492 | 45365


Range status and errors

Selected range

Filename C:\Arctic Monkeys - Teddy Picker (RUG279CDJ, HSE-10059).wav

Peak level 98.0 %
Extraction speed 3.1 X
Range quality 99.9 %
Test CRC A58149CD
Copy CRC A58149CD
Copy OK

No errors occurred


AccurateRip summary

Track 1 accurately ripped (confidence 11) [5AC42932] (AR v1)
Track 2 accurately ripped (confidence 12) [8682A05E] (AR v1)
Track 3 accurately ripped (confidence 12) [D762F2DF] (AR v1)
Track 4 accurately ripped (confidence 12) [620FD356] (AR v1)

All tracks accurately ripped

End of status report

==== Log checksum 11E69DF8842E3E06A0E76D0EE23DCEE0F30D4F23AA21CFC0D10F4BC579C469A8 ====

foobar2000 1.1.13 / Dynamic Range Meter 1.1.0
log date: 2012-08-20 21:53:36
––––––––––––––––––––––––––––––––––––––––
Analyzed: Arctic Monkeys / Teddy Picker (RUG279CDJ, HSE-10059)
––––––––––––––––––––––––––––––––––––––––
DR Peak RMS Duration Track
––––––––––––––––––––––––––––––––––––––––
DR8 -0.17 dB -9.32 dB 2:43 01-Teddy Picker
DR6 -0.17 dB -7.68 dB 2:18 02-Bad Woman
DR7 -0.17 dB -8.16 dB 3:19 03-The Death Ramps
DR6 -0.17 dB -7.76 dB 1:45 04-Nettles
––––––––––––––––––––––––––––––––––––––––

Number of tracks: 4
Official DR value: DR7

Samplerate: 44100 Hz
Channels: 2
Bits per sample: 16
Bitrate: 1007 kbps
Codec: FLAC

================================================================================





All thanks to original releasers: Misantrop, boogiedown and mVe74

More interesting music in My Blog