Are You God - O EP Espelho De Carne (2003)

Posted By: Necromandus
Are You God - O EP Espelho De Carne (2003)

Are You God - O EP Espelho De Carne (2003)
EAC Rip | FLAC, IMG+CUE+LOG | 110 MB | MP3 CBR 320 Kbps | 40 MB | Complete HQ Scans | PNG -> 25 MB
Grindcore/Death Metal | Label: 2+2=5 Records | RAR 3% Rec. | IcerBox.com

After the huge success of their first demo, the brazilians from Are You God? finally release their first mCD. Titled "0 EP Espelho de Came", this record features the bombastic sound that they used to call "freestyle deathgrind". Extreme music for open-minded people! Awesome production, intricate song structures, lots of tempo changes and a great sense of humour. Fans of Brutal Truth, Groinchurn, Today is the Day and Soilent Green watch out!!!"
Tracklist :

1. Intro - 1:12
2. Sentimentos (Help Yourself) - 2:55
3. Carandiru No Seu Cu (Release) - 2:42
4. A Hora Da Zona Morta (Full Circle) - 2:48
5. Plano Furado III (Le Bal Masque) - 4:39

Exact Audio Copy V1.1 from 23. June 2015

EAC extraction logfile from 6. October 2016, 15:42

Are You God? / O EP Espelho De Carne

Used drive : TSSTcorpCDDVDW SH-S223F Adapter: 1 ID: 0

Read mode : Secure
Utilize accurate stream : Yes
Defeat audio cache : Yes
Make use of C2 pointers : No

Read offset correction : 6
Overread into Lead-In and Lead-Out : No
Fill up missing offset samples with silence : Yes
Delete leading and trailing silent blocks : No
Null samples used in CRC calculations : Yes
Used interface : Native Win32 interface for Win NT & 2000

Used output format : Internal WAV Routines
Sample format : 44.100 Hz; 16 Bit; Stereo


TOC of the extracted CD

Track | Start | Length | Start sector | End sector
––––––––––––––––––––––––––––-
1 | 0:00.00 | 1:12.03 | 0 | 5402
2 | 1:12.03 | 2:55.33 | 5403 | 18560
3 | 4:07.36 | 2:41.55 | 18561 | 30690
4 | 6:49.16 | 2:48.01 | 30691 | 43291
5 | 9:37.17 | 4:38.59 | 43292 | 64200


Range status and errors

Selected range

Filename Z:\by Necromandus [MeTaLMaDNeSS.TeaM]\Are You God - O EP Espelho De Carne.wav

Peak level 100.0 %
Extraction speed 2.1 X
Range quality 100.0 %
Test CRC A2B93493
Copy CRC A2B93493
Copy OK

No errors occurred


AccurateRip summary

Track 1 cannot be verified as accurate (confidence 1) [25505BA5], AccurateRip returned [399CD310] (AR v2)
Track 2 accurately ripped (confidence 1) [25F424BA] (AR v2)
Track 3 accurately ripped (confidence 1) [CFDD0DA2] (AR v2)
Track 4 accurately ripped (confidence 1) [BA589ADF] (AR v2)
Track 5 accurately ripped (confidence 1) [FFBB24E1] (AR v2)

4 track(s) accurately ripped
1 track(s) could not be verified as accurate

Some tracks could not be verified as accurate

End of status report

–– CUETools DB Plugin V2.1.6

[CTDB TOCID: loberif2qYTo5y4n8JSzyQpvbsY-] disk not present in database
Submit result: loberif2qYTo5y4n8JSzyQpvbsY- has been uploaded


==== Log checksum E9E25E333F704F5D3161C7037971D039CD51969CA822BCA6DA4E5990F26D46E4 ====