Subcategories

Area (Area International POPular Group) - The Essential Box Set Collection (2010)

Posted By: v3122
Area (Area International POPular Group) - The Essential Box Set Collection (2010)

Area (Area International POPular Group) - The Essential Box Set Collection (2010)
EAC | Flac(Image) + Cue + Log & iPod M4A(Tracks) & MP3 CBR 320Kbps
6CD | Cramps Music, CRSBOX0210 | ~ 1440 or 1457 or 542 Mb | Scans(jpg, 300dpi) -> 104 Mb
Progressive Rock / Rock Progressivo Italiano

Area's uncompromising blend of jazz-rock, ethnic folk, experimentation, and political philosophies made them a unique presence in Italy during the 1970s. Fronting the band's musical fusion was singer Demetrio Stratos, who embellished his own operatic technique with yodels and growls. Stratos died in 1979, and the remaining members disbanded after releasing one instrumental album.

The band was formed in 1972 by various musicians who had experience in pop, avant-garde, and jazz groups. The band consisted of Demetrio Stratos (born 1945, Alexandria, Egypt; died June 13, 1979, NY - voice, organ, harpsichord, percussion); Giulio Capiozzo (born 1946, Boretto, Italy drums, percussion); and Patrizio Fariselli (born 1951, Cesenatico, Italy - piano, electric piano, bass clarinet, percussion, ARP synthesizer). Guitarist Johnny Lambizzi and bassist Victor Edouard Busniello were soon replaced by Giampaolo Tofani (born 1944, Florence - electric guitar, EMS guitar synthesizer, flute) and Patrick Erard Djivas (bass). Manager Gianni Sassi signed the group to the independent Cramps label, and their debut, Arbeit Macht Frei, was released in 1973. The album's bold title, cover imagery, and lyrical content were packaged as a protest of fascism, and by declaring themselves an "International POPular Group," Area gave new meaning to playing music for the people. Musically, the album showed the early influence of jazz rock acts like Soft Machine and Nucleus, with hints of folk music of the Mediterranean, the Balkans, and the Middle East.

Area (Area International POPular Group) - The Essential Box Set Collection (2010)

After the first album, Djivas joined PFM and was replaced by Ares Tavolazzi (born 1948, Ferrara, Italy - bass, double bass, trombone, pocket trumpet). A second album, Caution Radiation Area, perfected the group's unique sound, combining the punch of rock and the frightening chaos of experimental music. It also showed their continuing political activism. By dedicating one song to German guerilla activist Ulrike Meinhof, the group began to get more international press for their politics than for their music. Over the next few years, Area would play benefits for controversial political causes, and they allied themselves with leftist youth and working class movements in Italy, including the socialist and communist parties. Winning a progressive music award in Italy, Crac! (1975) was the best evidence of Area's crazy fusion: furious, mind-bending rhythms and melodies balanced with humor and the avant-garde. A live album, Are(A)zione, followed in the fall of 1975.

But Area seemed to stall in its search for even more experimentation. Maledetti (1976) brought in guest players to contribute to the band's activity, and in some ways it backfired and fragmented the band. Event '76, one of those classic headache-inducing recordings, was a live album which found Area at the furthest point of their orbit: noisy, unmelodic sounds make up most of the record. Anto/Logicamente was a 1977 "greatest-hits" release, while Stratos had begun recording solo albums of voice experimentation.

y 1978, the band had reeled in their uncompromising and splintering directions, and recorded an album that was enjoyably melodic and playful, but by no means "pop." 1978 Gli Dei Se Ne Vanno… was Area reborn, a masterpiece of world melodies, jazz virtuosity, and off-the-wall attitudes. Sadly, the band's career was interrupted in 1979 by the loss of Stratos, who died of leukemia in New York. A memorial concert, featuring the brightest stars of Italy's progressive arts, was performed and recorded for a double album. Area returned with the mostly instrumental Tic & Tac (1980), an upbeat album that celebrated instead of grieved. It leaned towards the contemporary jazz fusion sound popular at the time. At the end of 1996, Capiozzo and Fariselli re-formed Area for a new release called Chernobyl 7991, with the collaboration of jazz bassist Paolino Dalla Porta (aka Paola Dalla Porta) and guitarist Fabio Condorelli.

Posthumous live recordings of Area have since been released, and the band continues to influence those who dare to listen.


by Patrick Little, AMG
Area (Area International POPular Group) - The Essential Box Set Collection (2010):

Area (Area International POPular Group) - The Essential Box Set Collection (2010)

CD1: Area (Area International POPular Group) - Arbeit Macht Frei (1973)
EAC | Flac(Image) + Cue + Log & iPod M4A(Tracks) & MP3 CBR 320Kbps
Cramps Music, CRSBOX0210 | ~ 259 or 261 or 86 Mb
Progressive Rock / Rock Progressivo Italiano

Appearing as it did in 1973, Area's debut album must have sounded to the average Italian pop critics like the end of the world. Issued on the Cramps label (and reissued by Arkarma as part of the Area box set), the album highlighted Area's early sound, which featured overt folk melodies, Canterbury Scene prog rock, acid psychedelia, and vanguard jazz all filtered through a particularly Italian sensibility. Those who came to love PFM later will not be able to handle the beautiful – yet very disciplined – weirdness of Area, at least on this disc. The Soft Machine comparisons are inevitable, especially in the free jazz sax blowing of Victor Eduardo Busnello. But in the deep funky guitarism of Paolo Trofani and rock-steady rhythmic invention of Patrick Djivasa on bass and Guido Capiozzo on drums, this band, fronted by keyboardist Patrizio Fariselli and vocalist-from-Mars Demetrio Stratos, Area was, at least in this early stage, a rock & roll band more than it was a jazz unit in the same way Soft Machine had evolved into one. Stratos is closest, sounding like Leon Thomas fronting Eno-era Roxy Music playing Mahavishnu Orchestra tunes, but Busnello's saxes are a close second. The rockish angles come from the guitars, while the bridge to progressivism comes from the rhythm section. Of the six tracks here, clocking in at just over 36 minutes, "Arbeit Macht Frei," the title track, is the one that brings all the pieces together most seamlessly. There are quotes from King Crimson's "21st Century Schizoid Man" and Jeff Beck's Beck-Ola album wrapped around towering rhythmic architectures and bleeding key changes that blur the boundaries between the various musics that made up the pursuit of Area. This is ambitious, strange, and ultimately very beautiful, an album that has dated very well into the new century.

by Thom Jurek
Tracklist:

01. Luglio, agosto, settembre (nero) 4:28
02. Arbeit macht frei 8:01
03. Consapevolezza 6:10
04. Le labbra del tempo 6:04
05. 240 chilometri da Smirne 5:16
06. L'abbattimento dello Zeppelin 6:54

Exact Audio Copy V1.0 beta 3 from 29. August 2011

Отчёт EAC об извлечении, выполненном 27. мая 2013, 15:07

Area / Arbeit macht frei

Дисковод: ASUS SDRW-08D1S-U Adapter: 1 ID: 0

Режим чтения : Достоверность
Использование точного потока : Да
Отключение кэша аудио : Да
Использование указателей C2 : Нет

Коррекция смещения при чтении : 103
Способность читать области Lead-in и Lead-out : Нет
Заполнение пропущенных сэмплов тишиной : Да
Удаление блоков с тишиной в начале и конце : Нет
При вычислениях CRC использовались нулевые сэмплы : Да
Интерфейс : Встроенный Win32-интерфейс для Win NT/2000

Выходной формат : Пользовательский кодировщик
Выбранный битрейт : 1024 kBit/s
Качество : Высокий
Добавление ID3-тега : Нет
Утилита сжатия : C:\Program Files\Exact Audio Copy\Monkey's Audio\MAC.exe
Дополнительные параметры : %source% %dest% -c3000


TOC извлечённого CD

Трек | Старт | Длительность | Начальный сектор | Конечный сектор
––––––––––––––––––––––––––––––––––-
1 | 0:00.00 | 4:27.42 | 0 | 20066
2 | 4:27.42 | 8:00.38 | 20067 | 56104
3 | 12:28.05 | 6:10.25 | 56105 | 83879
4 | 18:38.30 | 6:04.20 | 83880 | 111199
5 | 24:42.50 | 5:15.55 | 111200 | 134879
6 | 29:58.30 | 6:53.45 | 134880 | 165899


Характеристики диапазона извлечения и сообщения об ошибках

Выбранный диапазон

Имя файла D:\CD\Area (2010) - The Essential Box Set Collection 6CD\CD-1 (Arbeit Macht Frei)\Area - Arbeit macht frei.wav

Пиковый уровень 97.7 %
Скорость извлечения 1.9 X
Качество диапазона 100.0 %
CRC теста 876E79F6
CRC копии 876E79F6
Копирование… OK

Ошибок не произошло

Конец отчёта

foobar2000 1.2.4 / Dynamic Range Meter 1.1.1
log date: 2013-06-28 11:58:07

––––––––––––––––––––––––––––––––––––––––
Analyzed: Area / Arbeit macht frei
––––––––––––––––––––––––––––––––––––––––

DR Peak RMS Duration Track
––––––––––––––––––––––––––––––––––––––––
DR12 -0.20 dB -14.13 dB 4:28 01-Luglio, agosto, settembre (nero)
DR10 -0.20 dB -12.65 dB 8:01 02-Arbeit macht frei
DR10 -0.20 dB -12.45 dB 6:10 03-Consapevolezza
DR10 -0.20 dB -13.35 dB 6:04 04-Le labbra del tempo
DR9 -0.20 dB -11.65 dB 5:16 05-240 chilometri da Smirne
DR11 -0.20 dB -15.52 dB 6:54 06-L'abbattimento dello Zeppelin
––––––––––––––––––––––––––––––––––––––––

Number of tracks: 6
Official DR value: DR10

Samplerate: 44100 Hz
Channels: 2
Bits per sample: 16
Bitrate: 957 kbps
Codec: FLAC

Musicians:

- Demetrio Stratos / vocals, organ, still drums
- Patrick Djivas / bass
- Patrizio Fariselli / pianos
- Gianpaolo Tofani / guitars, VCS-3
- Giulio Capiozzo / drums, percussion
- Victor Edouard ('Eddie') Busnello / sax, bass clarinet, flutes

==================================

Area (Area International POPular Group) - The Essential Box Set Collection (2010)

CD2: Area (Area International POPular Group) - Cautio Radiation Area (1974)
EAC | Flac(Image) + Cue + Log & iPod M4A(Tracks) & MP3 CBR 320Kbps
Cramps Music, CRSBOX0210 | ~ 217 or 220 or75 Mb
Progressive Rock / Rock Progressivo Italiano

Area's second album takes its cues from the most serious side of early-'70s British progressive rock, particularly Soft Machine and King Crimson. There's a high-voltage, at times furious energy to the quasi-jazz-rock fusion, with keyboards showing some influence from Miles Davis fusion records, and the guitars wheeling off lines with a busy anxiety. Despite some sinister progressions and overlays of electronic squiggles (the closing "Lobotomia" consists almost entirely of disquieting electronic effects) and white noise percussion, there's a shortage of memorable riffs. That approach, combined with the impenetrability of the Italian-sung lyrics to the English-speaking audience that comprised much of the art rock audience, confined their international audience to a small cult one. Some idiosyncratic features distinguish it from other little-known Continental prog rock of the era, particularly the eerie yodeling vocals, though those are only occasionally heard. It's a dark record, and obviously intended to provoke and disturb; it's just not too special.

by Richie Unterberger
Tracklist:

01. Cometa rossa 3:59
02. ZYG (Crescita zero)5:30
03. Brujo 8:02
04. MIRage? Mirage! 10:28
05. Lobotomia 3:57

Exact Audio Copy V1.0 beta 3 from 29. August 2011

Отчёт EAC об извлечении, выполненном 27. мая 2013, 15:48

Area / Caution Radiation Area

Дисковод: ASUS SDRW-08D1S-U Adapter: 1 ID: 0

Режим чтения : Достоверность
Использование точного потока : Да
Отключение кэша аудио : Да
Использование указателей C2 : Нет

Коррекция смещения при чтении : 103
Способность читать области Lead-in и Lead-out : Нет
Заполнение пропущенных сэмплов тишиной : Да
Удаление блоков с тишиной в начале и конце : Нет
При вычислениях CRC использовались нулевые сэмплы : Да
Интерфейс : Встроенный Win32-интерфейс для Win NT/2000

Выходной формат : Пользовательский кодировщик
Выбранный битрейт : 1024 kBit/s
Качество : Высокий
Добавление ID3-тега : Нет
Утилита сжатия : C:\Program Files\Exact Audio Copy\Monkey's Audio\MAC.exe
Дополнительные параметры : %source% %dest% -c3000


TOC извлечённого CD

Трек | Старт | Длительность | Начальный сектор | Конечный сектор
––––––––––––––––––––––––––––––––––-
1 | 0:00.00 | 3:58.71 | 0 | 17920
2 | 3:58.71 | 5:29.60 | 17921 | 42655
3 | 9:28.56 | 8:01.49 | 42656 | 78779
4 | 17:30.30 | 10:27.38 | 78780 | 125842
5 | 27:57.68 | 3:57.02 | 125843 | 143619


Характеристики диапазона извлечения и сообщения об ошибках

Выбранный диапазон

Имя файла D:\CD\Area (2010) - The Essential Box Set Collection 6CD\CD-2 (Cautio Radiation Area)\Area - Caution Radiation Area.wav

Пиковый уровень 100.0 %
Скорость извлечения 1.8 X
Качество диапазона 100.0 %
CRC теста C5FD2034
CRC копии C5FD2034
Копирование… OK

Ошибок не произошло

Конец отчёта

foobar2000 1.2.4 / Dynamic Range Meter 1.1.1
log date: 2013-06-28 11:58:21

––––––––––––––––––––––––––––––––––––––––
Analyzed: Area / Caution Radiation Area
––––––––––––––––––––––––––––––––––––––––

DR Peak RMS Duration Track
––––––––––––––––––––––––––––––––––––––––
DR9 0.00 dB -13.74 dB 3:59 01-Cometa rossa
DR9 -0.20 dB -11.86 dB 5:30 02-ZYG (Crescita zero)
DR9 0.00 dB -11.89 dB 8:02 03-Brujo
DR9 0.00 dB -13.46 dB 10:28 04-MIRage? Mirage!
DR7 -0.42 dB -8.84 dB 3:57 05-Lobotomia
––––––––––––––––––––––––––––––––––––––––

Number of tracks: 5
Official DR value: DR9

Samplerate: 44100 Hz
Channels: 2
Bits per sample: 16
Bitrate: 925 kbps
Codec: FLAC

Musicians:

- Giulio Capiozzo / drums, percusion
- Patrizio Fariselli / piano, electric piano, bass clarinet, synthesizer
- Ares Tavolazzi / bass, trombone, contarabass
- Paolo Tofani / guitar, flute synthesizer
- Demetrio Stratos / vocal, organ, cembalo, percussion

==================================

Area (Area International POPular Group) - The Essential Box Set Collection (2010)

CD3: Area (Area International POPular Group) - Crac! (1975)
EAC | Flac(Image) + Cue + Log & iPod M4A(Tracks) & MP3 CBR 320Kbps
Cramps Music, CRSBOX0210 | ~ 262 or 265 or 88 Mb
Progressive Rock / Rock Progressivo Italiano

The third mid-'70s album from Italy's progresssive rock forerunners Area originally appeared on the experimental Cramps label and is reissued here for the first time. Favoring incredibly complex rhythms à la King Crimson, the group's fusion of folk and ethnic music, leftist political diatribe, and free jazz and hard rock coalesces into a distinctive sound further accented by the abstractions of vocalist Demitrio Stratos. His inimitable avant-garde vocal techniques are something to be heard to be believed, and the agility with which the ensemble cuts between genres and motifs is astonishing, deploying techniques way ahead of their time. Laced with high energy and abundant humor, Crac! is a standout concept album in avant-garde and progressive rock scenes, yet somehow neither genre would appropriately house this music. Further evidence of their groundbreaking fusion can be heard on their Maledetti and Arbeit Macht Frei albums.

by Skip Jansen
Tracklist:

01. L'elefante bianco 4:34
02. La mela di Odessa 6:40
03. Megalopoli 7:53
04. Nervi scoperti 6:36
05. Gioia e rivoluzione 4:38
06. Implosion 5:01
07. Area 5 2:08

Exact Audio Copy V1.0 beta 3 from 29. August 2011

Отчёт EAC об извлечении, выполненном 27. мая 2013, 17:21

Area / Crac!

Дисковод: ASUS SDRW-08D1S-U Adapter: 1 ID: 0

Режим чтения : Достоверность
Использование точного потока : Да
Отключение кэша аудио : Да
Использование указателей C2 : Нет

Коррекция смещения при чтении : 103
Способность читать области Lead-in и Lead-out : Нет
Заполнение пропущенных сэмплов тишиной : Да
Удаление блоков с тишиной в начале и конце : Нет
При вычислениях CRC использовались нулевые сэмплы : Да
Интерфейс : Встроенный Win32-интерфейс для Win NT/2000

Выходной формат : Пользовательский кодировщик
Выбранный битрейт : 1024 kBit/s
Качество : Высокий
Добавление ID3-тега : Нет
Утилита сжатия : C:\Program Files\Exact Audio Copy\Monkey's Audio\MAC.exe
Дополнительные параметры : %source% %dest% -c3000


TOC извлечённого CD

Трек | Старт | Длительность | Начальный сектор | Конечный сектор
––––––––––––––––––––––––––––––––––-
1 | 0:00.00 | 4:34.28 | 0 | 20577
2 | 4:34.28 | 6:40.34 | 20578 | 50611
3 | 11:14.62 | 7:52.68 | 50612 | 86079
4 | 19:07.55 | 6:35.49 | 86080 | 115753
5 | 25:43.29 | 4:38.34 | 115754 | 136637
6 | 30:21.63 | 5:00.40 | 136638 | 159177
7 | 35:22.28 | 2:08.36 | 159178 | 168813


Характеристики диапазона извлечения и сообщения об ошибках

Выбранный диапазон

Имя файла D:\CD\Area (2010) - The Essential Box Set Collection 6CD\CD-3 (Crac!)\Area - Crac!.wav

Пиковый уровень 100.0 %
Скорость извлечения 1.9 X
Качество диапазона 100.0 %
CRC теста 963C88E3
CRC копии 963C88E3
Копирование… OK

Ошибок не произошло

Конец отчёта

foobar2000 1.2.4 / Dynamic Range Meter 1.1.1
log date: 2013-06-28 11:58:38

––––––––––––––––––––––––––––––––––––––––
Analyzed: Area / Crac!
––––––––––––––––––––––––––––––––––––––––

DR Peak RMS Duration Track
––––––––––––––––––––––––––––––––––––––––
DR9 0.00 dB -10.83 dB 4:34 01-L'elefante bianco
DR9 -1.10 dB -11.89 dB 6:40 02-La mela di Odessa
DR11 0.00 dB -14.22 dB 7:53 03-Megalopoli
DR10 0.00 dB -11.74 dB 6:36 04-Nervi scoperti
DR10 0.00 dB -13.35 dB 4:38 05-Gioia e rivoluzione
DR9 -0.30 dB -11.09 dB 5:01 06-Implosion
DR15 0.00 dB -17.90 dB 2:08 07-Area 5
––––––––––––––––––––––––––––––––––––––––

Number of tracks: 7
Official DR value: DR10

Samplerate: 44100 Hz
Channels: 2
Bits per sample: 16
Bitrate: 888 kbps
Codec: FLAC

Musicians:

- Giulio Capiozzo / drums and percussion
- Patrizio Fariselli / electric & acoustic pianos, bass clarinet, percussion, synths
- Demetrio Stratos / vocals, organ, percussion
- Ares Tavolazzi / electric & acoustic basses, trombone
- Paolo Tofani / electric guitar, synths, flute

==================================

Area (Area International POPular Group) - The Essential Box Set Collection (2010)

CD4: Area (Area International POPular Group) - Are(A)zione (1975)
EAC | Flac(Image) + Cue + Log & iPod M4A(Tracks) & MP3 CBR 320Kbps
Cramps Music, CRSBOX0210 | ~ 265 or 268 or 105 Mb
Progressive Rock / Rock Progressivo Italiano

According to classic 1970s dictums, 1975's Are(A)zione is a "live" record by Italian vanguard progressive rock group Area. Taking one song from each of its four previous albums (recorded at as many festivals) and adding a complete freakout on the title track for over 15 minutes, the band nonetheless gives the impression that this is from a single performance. Area's energy and intensity were unequaled by anyone on either side of the Atlantic – rumor has it that Emerson, Lake & Palmer, who headlined a gig in Italy, wouldn't come onto the stage for a full two hours because they didn't want to follow the band that had driven ELP's crowd intro a frenzy. Everything that makes Area special is in abundance here: lightning quick directional and time changes ("Cometa Rosa"), astonishing improvisation ("Are(A)zione"), harmonic invention thought impossible for rock bands ("La Mela di Odessa"), intricately woven folk melodies that give way to sprawling free jazz jams ("Lugglio, Agosto, Settembre"), and vanguard free associative experimentalism laced with over-the-top lefty politics ("L'Internationale"). And while the aforementioned examples are used for quick reference, virtually all of what Area does, especially in these live settings, occurs in each and every song. On this set it becomes very obvious just how special vocalist Demetrio Stratos was. Many credit his importance in the development of vocal strategies and approaches to improvisational and compositional work to his work after leaving the band, but virtually all of it is in evidence here: cascading sounds stretched across three octaves, ululating inconstant and vowel sounds through blurs, and gathering sonic vibrations from the wells and caverns of the body itself for expression. This is as good a place as any to start with Area, and in some ways tells the Area story even better than the band's studio albums.

by Thom Jurek
Tracklist:

01.Luglio, agosto, settembre (nero) 5:40
02. La mela di Odessa 11:06
03. Cometa rossa 5:58
04. Are(A)zione 15:00
05. L'Internazionale 4:00

Exact Audio Copy V1.0 beta 3 from 29. August 2011

Отчёт EAC об извлечении, выполненном 27. мая 2013, 16:36

Area / Are(A)zione

Дисковод: ASUS SDRW-08D1S-U Adapter: 1 ID: 0

Режим чтения : Достоверность
Использование точного потока : Да
Отключение кэша аудио : Да
Использование указателей C2 : Нет

Коррекция смещения при чтении : 103
Способность читать области Lead-in и Lead-out : Нет
Заполнение пропущенных сэмплов тишиной : Да
Удаление блоков с тишиной в начале и конце : Нет
При вычислениях CRC использовались нулевые сэмплы : Да
Интерфейс : Встроенный Win32-интерфейс для Win NT/2000

Выходной формат : Пользовательский кодировщик
Выбранный битрейт : 1024 kBit/s
Качество : Высокий
Добавление ID3-тега : Нет
Утилита сжатия : C:\Program Files\Exact Audio Copy\Monkey's Audio\MAC.exe
Дополнительные параметры : %source% %dest% -c3000


TOC извлечённого CD

Трек | Старт | Длительность | Начальный сектор | Конечный сектор
––––––––––––––––––––––––––––––––––-
1 | 0:00.00 | 5:40.27 | 0 | 25526
2 | 5:40.27 | 11:05.58 | 25527 | 75459
3 | 16:46.10 | 5:58.17 | 75460 | 102326
4 | 22:44.27 | 15:00.20 | 102327 | 169846
5 | 37:44.47 | 4:00.32 | 169847 | 187878


Характеристики диапазона извлечения и сообщения об ошибках

Выбранный диапазон

Имя файла D:\CD\Area (2010) - The Essential Box Set Collection 6CD\CD-3 (Crac!)\Area - Are(A)zione.wav

Пиковый уровень 100.0 %
Скорость извлечения 1.9 X
Качество диапазона 100.0 %
CRC теста 46A08E3C
CRC копии 46A08E3C
Копирование… OK

Ошибок не произошло

Конец отчёта

foobar2000 1.2.4 / Dynamic Range Meter 1.1.1
log date: 2013-06-28 11:58:59

––––––––––––––––––––––––––––––––––––––––
Analyzed: Area / Are(A)zione
––––––––––––––––––––––––––––––––––––––––

DR Peak RMS Duration Track
––––––––––––––––––––––––––––––––––––––––
DR8 -0.03 dB -10.97 dB 5:40 01-Luglio, agosto, settembre (nero)
DR9 0.00 dB -10.46 dB 11:06 02-La mela di Odessa
DR9 0.00 dB -12.38 dB 5:58 03-Cometa rossa
DR9 0.00 dB -12.78 dB 15:00 04-Are(A)zione
DR8 0.00 dB -10.50 dB 4:00 05-L'Internazionale
––––––––––––––––––––––––––––––––––––––––

Number of tracks: 5
Official DR value: DR9

Samplerate: 44100 Hz
Channels: 2
Bits per sample: 16
Bitrate: 862 kbps
Codec: FLAC

Musicians:

- Giulio Capiozzo / drums and percussion
- Patrizio Fariselli / electric & acoustic pianos, bass clarinet, percussion, synths
- Demetrio Stratos / vocals, organ, percussion
- Ares Tavolazzi / electric & acoustic basses, trombone, pocket trumpet
- Paolo Tofani / electric guitar, synths

==================================

Area (Area International POPular Group) - The Essential Box Set Collection (2010)

CD5: Area (Area International POPular Group) - Maledetti (1976)
EAC | Flac(Image) + Cue + Log & iPod M4A(Tracks) & MP3 CBR 320Kbps
Cramps Music, CRSBOX0210 | ~ 220 or 223 or 95 Mb
Progressive Rock / Rock Progressivo Italiano

Italy's premiere progressive rock outfit produced five albums of peculiar and outlandish music in the '70s. Fronted by madcap vocalist Demitrio Stratos, Area provided backing to the John Cage collaborator's extended vocal techniques and bizarre verbal utterances. The ensemble arrangements drew on progressive rock, jazz, and improvisation, and coalesced into a sound akin to Soft Machine, National Health, or Caravan. Maledetti is a critically acclaimed Italian progressive album, yet the group bridges many genres, including jazz and avant-garde. The free jazz influence of this 1976 recording is made evident by the appearance of two of the genre's most powerful practitioners, Steve Lacy and Paul Lytton, whose contributions put this album in more of an experimental/avant-garde mode than previous outings.

by Dean McFarlane
Tracklist:

01. Evaporazione 1:53
02. Diforisma urbano 6:28
03. Gerontocrazia 7:41
04. Scum 6:41
05. Il massacro di Brandeburgo, nВ° 3 in Sol maggiore 2:31
06. Giro, giro, tondo 6:04
07. Caos (seconda parte) 9:15

Exact Audio Copy V1.0 beta 3 from 29. August 2011

Отчёт EAC об извлечении, выполненном 27. мая 2013, 18:09

Area / Maledetti

Дисковод: ASUS SDRW-08D1S-U Adapter: 1 ID: 0

Режим чтения : Достоверность
Использование точного потока : Да
Отключение кэша аудио : Да
Использование указателей C2 : Нет

Коррекция смещения при чтении : 103
Способность читать области Lead-in и Lead-out : Нет
Заполнение пропущенных сэмплов тишиной : Да
Удаление блоков с тишиной в начале и конце : Нет
При вычислениях CRC использовались нулевые сэмплы : Да
Интерфейс : Встроенный Win32-интерфейс для Win NT/2000

Выходной формат : Пользовательский кодировщик
Выбранный битрейт : 1024 kBit/s
Качество : Высокий
Добавление ID3-тега : Нет
Утилита сжатия : C:\Program Files\Exact Audio Copy\Monkey's Audio\MAC.exe
Дополнительные параметры : %source% %dest% -c3000


TOC извлечённого CD

Трек | Старт | Длительность | Начальный сектор | Конечный сектор
––––––––––––––––––––––––––––––––––-
1 | 0:00.00 | 1:52.47 | 0 | 8446
2 | 1:52.47 | 6:28.18 | 8447 | 37564
3 | 8:20.65 | 7:41.05 | 37565 | 72144
4 | 16:01.70 | 6:41.37 | 72145 | 102256
5 | 22:43.32 | 2:31.15 | 102257 | 113596
6 | 25:14.47 | 6:04.35 | 113597 | 140931
7 | 31:19.07 | 9:15.18 | 140932 | 182574


Характеристики диапазона извлечения и сообщения об ошибках

Выбранный диапазон

Имя файла D:\CD\Area (2010) - The Essential Box Set Collection 6CD\CD-5 (Maledetti)\Area - Maledetti.wav

Пиковый уровень 96.9 %
Скорость извлечения 1.9 X
Качество диапазона 100.0 %
CRC теста F361D8CA
CRC копии F361D8CA
Копирование… OK

Ошибок не произошло

Конец отчёта

foobar2000 1.2.4 / Dynamic Range Meter 1.1.1
log date: 2013-06-28 11:57:30

––––––––––––––––––––––––––––––––––––––––
Analyzed: Area / Maledetti
––––––––––––––––––––––––––––––––––––––––

DR Peak RMS Duration Track
––––––––––––––––––––––––––––––––––––––––
DR13 -2.48 dB -23.51 dB 1:53 01-Evaporazione
DR12 -1.05 dB -14.96 dB 6:28 02-Diforisma urbano
DR12 -1.75 dB -16.51 dB 7:41 03-Gerontocrazia
DR12 -1.22 dB -16.24 dB 6:41 04-Scum
DR11 -3.73 dB -18.74 dB 2:31 05-Il massacro di Brandeburgo, nВ° 3 in Sol maggiore
DR13 -0.27 dB -15.94 dB 6:04 06-Giro, giro, tondo
DR15 -2.81 dB -21.97 dB 9:15 07-Caos (seconda parte)
––––––––––––––––––––––––––––––––––––––––

Number of tracks: 7
Official DR value: DR13

Samplerate: 44100 Hz
Channels: 2
Bits per sample: 16
Bitrate: 739 kbps
Codec: FLAC

Musicians:

- Giulio Capiozzo / drums, percussion
- Patrizio Fariselli / piano, electric piano, bass clarinett, synthesizer, percussion
- Ares Tavolazzi / electric & acoustic bass, trombone
- Paolo Tofani / guitar, synthesizer, flute, tcherepnin
- Demetrio Stratos / vocal, organ, cembalo, steel drum, percussion

Guests:

- Eugenio Colombo / kazumba
- Hugh Bullen / bass
- Walter Calloni / drums
- Steve Lacy / soprano sax
- Anton Arze & Jose Arze / txalaparta
- Paul Lytton / percussion
- Paolo Salvi / cello
- Giorgio Garulli / contrabass

==================================

Area (Area International POPular Group) - The Essential Box Set Collection (2010)

CD6: Area (Area International POPular Group) - Event '76 (19)
EAC | Flac(Image) + Cue + Log & iPod M4A(Tracks) & MP3 CBR 320Kbps
Cramps Music, CRSBOX0210 | ~ 217 or 220 or 93 Mb
Progressive Rock / Rock Progressivo Italiano

Tracklist:

01. Caos II Parte (1) 20:39
02. Caos II Parte (2) 9:26
03. Event '76 9:32

Exact Audio Copy V1.0 beta 3 from 29. August 2011

Отчёт EAC об извлечении, выполненном 27. мая 2013, 18:54

Area (6) / Event '76

Дисковод: ASUS SDRW-08D1S-U Adapter: 1 ID: 0

Режим чтения : Достоверность
Использование точного потока : Да
Отключение кэша аудио : Да
Использование указателей C2 : Нет

Коррекция смещения при чтении : 103
Способность читать области Lead-in и Lead-out : Нет
Заполнение пропущенных сэмплов тишиной : Да
Удаление блоков с тишиной в начале и конце : Нет
При вычислениях CRC использовались нулевые сэмплы : Да
Интерфейс : Встроенный Win32-интерфейс для Win NT/2000

Выходной формат : Пользовательский кодировщик
Выбранный битрейт : 1024 kBit/s
Качество : Высокий
Добавление ID3-тега : Нет
Утилита сжатия : C:\Program Files\Exact Audio Copy\Monkey's Audio\MAC.exe
Дополнительные параметры : %source% %dest% -c3000


TOC извлечённого CD

Трек | Старт | Длительность | Начальный сектор | Конечный сектор
––––––––––––––––––––––––––––––––––-
1 | 0:00.00 | 20:39.00 | 0 | 92924
2 | 20:39.00 | 9:26.00 | 92925 | 135374
3 | 30:05.00 | 9:32.00 | 135375 | 178274


Характеристики диапазона извлечения и сообщения об ошибках

Выбранный диапазон

Имя файла D:\CD\Area (2010) - The Essential Box Set Collection 6CD\CD-6 (Event '76)\Area (6) - Event '76.wav

Пиковый уровень 100.0 %
Скорость извлечения 1.9 X
Качество диапазона 100.0 %
CRC теста 646A7817
CRC копии 646A7817
Копирование… OK

Ошибок не произошло

Конец отчёта

foobar2000 1.2.4 / Dynamic Range Meter 1.1.1
log date: 2013-06-28 11:57:53

––––––––––––––––––––––––––––––––––––––––
Analyzed: Area (6) / Event '76
––––––––––––––––––––––––––––––––––––––––

DR Peak RMS Duration Track
––––––––––––––––––––––––––––––––––––––––
DR11 0.00 dB -14.76 dB 20:39 01-Caos II Parte (1)
DR12 -2.13 dB -17.62 dB 9:26 02-Caos II Parte (2)
DR11 -2.91 dB -17.63 dB 9:32 03-Event '76
––––––––––––––––––––––––––––––––––––––––

Number of tracks: 3
Official DR value: DR11

Samplerate: 44100 Hz
Channels: 2
Bits per sample: 16
Bitrate: 746 kbps
Codec: FLAC

Musicians:

- Patrizio Fariselli / prepared piano
- Steve Lacy / soprano sax
- Paul Litton / percussions
- Demetrio Stratos / vocals
- Paolo Tofani / guitar, Tcherapnin synthesizer

Area (Area International POPular Group) - The Essential Box Set Collection (2010)

All thanks go to Pasheka-Pacheka

Download Area (Area International POPular Group) - The Essential Box Set Collection (2010):