Subcategories
Tags
Language
Tags

Arena - 6 Studio Albums (1995-2018)

Posted By: gribovar
Arena - 6 Studio Albums (1995-2018)

Arena - 6 Studio Albums (1995-2018)
EAC Rip | FLAC (image/tracks+.cue+log) - 2,31 GB | MP3 CBR 320 kbps (LAME 3.93) - 805 MB | Covers - 1 GB
Genre: Neo-Progressive Rock | RAR 3% Rec. | Label: Verglas Music

The gathering of Arena's famous musicians makes a super-group: Mick Pointer (Ex-Marillion) plays the drums, Clive Nolan (Pendragon) the keyboards, and Keith More (Asia) played the guitar until replaced by John Mitchell (Ex-Kino). Vocalist Rob Sowden has been with the band since Immortal? and the bass player is Ian Salmon. There have also been some guest appearances by Tracy Hitchings (singer of Quasar, Strangers on a Train & Landmarq) and Steve Rothery (Marillion's gifted guitarist).
"Songs From The Lion's Cage" is then a very professional Progressive rock, both close to Marillion and hard-rock. "Pride", their second opus issued in 1996 (one year after the previous one) confirmed the high musical level of this band, at a time when they added a touch IQ to their music. Curiously the band's sound gained in heaviness after their 2 first albums, and the music quality increased a lot in originality and musicianship.
Recorded in 1998, "The Visitor" alternates passages inspired by Steve Hogarth's group along with some dark instrumentation. "Contagion" (2003) follows the glorious tradition of "Immortal", although it more hard edged and multidimensional from all aspects. This powerful and evoking concept album tells about the quest for redemption, through the vision of a dark and anguishing future.
"Pepper's Ghost" from 2005 sees Arena entering the realms of a quite heavy and very symphonic sound with some metal elements, a real highlight of their career. Long-time members Rod Sowden and Ian Salmon left the band in 2010 and they were replaced by Paul Manzi and John Jowitt respectively, the latter starting his second stint with the band. "The Seventh Degree Of Separation" offers a very fresh and pounding sound, but the song structures had now become a bit conventional. Same goes for their 2015 "The Unquiet Sky", here Jowitt's place has been taken by newcomer Kylan Amos.
The ninth album from Arena, Double Vision (2018), finds the quintet on bold form with a studio album that captures the energy of their live shows. Double Vision might be the heaviest album of their career - it certainly packs more weight than its two closest predecessors, 2015’s The Unquiet Sky and The Seventh Degree Of Separation from 2011. Instead, this feels closer to Contagion and Immortal? from the early 2000s.

Arena - 6 Studio Albums (1995-2018)

Arena - Songs From The Lion's Cage (1995)
EAC Rip | FLAC (image+.cue+log) - 384 MB | MP3 CBR 320 kbps (LAME 3.93) - 137 MB | Covers - 95 MB
Genre: Neo-Progressive Rock | RAR 3% Rec. | Label: Verglas Music (VGCD001)

Tracklist:
01. Out of the Wilderness
02. Crying for Help I
03. Valley of the Kings
04. Crying for Help II
05. Jericho
06. Crying for Help III
07. Midas Vision
08. Crying for Help IV
09. Solomon

Total time: 58:24

Exact Audio Copy V1.0 beta 2 from 29. April 2011

EAC extraction logfile from 28. June 2011, 17:04

Arena / Songs from the Lions Cage

Used drive : Optiarc DVD RW AD-7260S Adapter: 0 ID: 1

Read mode : Secure
Utilize accurate stream : Yes
Defeat audio cache : Yes
Make use of C2 pointers : No

Read offset correction : 48
Overread into Lead-In and Lead-Out : No
Fill up missing offset samples with silence : Yes
Delete leading and trailing silent blocks : No
Null samples used in CRC calculations : Yes
Used interface : Native Win32 interface for Win NT & 2000

Used output format : Internal WAV Routines
Sample format : 44.100 Hz; 16 Bit; Stereo


TOC of the extracted CD

Track | Start | Length | Start sector | End sector
––––––––––––––––––––––––––––-
1 | 0:00.31 | 8:02.46 | 31 | 36226
2 | 8:03.02 | 1:22.43 | 36227 | 42419
3 | 9:25.45 | 10:11.05 | 42420 | 88249
4 | 19:36.50 | 3:09.58 | 88250 | 102482
5 | 22:46.33 | 6:50.73 | 102483 | 133305
6 | 29:37.31 | 4:24.55 | 133306 | 153160
7 | 34:02.11 | 4:36.70 | 153161 | 173930
8 | 38:39.06 | 5:06.22 | 173931 | 196902
9 | 43:45.28 | 14:38.65 | 196903 | 262817


Range status and errors

Selected range

Filename D:\Downlod Torrents\Arena - 1995 - Songs From The Lions Cage\Arena - Songs from the Lions Cage.wav

Peak level 100.0 %
Extraction speed 4.1 X
Range quality 99.9 %
Test CRC 98E5286B
Copy CRC 98E5286B
Copy OK

No errors occurred


AccurateRip summary

Track 1 accurately ripped (confidence 2) [4BD1D66E] (AR v1)
Track 2 accurately ripped (confidence 2) [BBEDE783] (AR v1)
Track 3 accurately ripped (confidence 2) [C5A48BE7] (AR v1)
Track 4 accurately ripped (confidence 2) [F3F51DB3] (AR v1)
Track 5 accurately ripped (confidence 2) [BE2DC9F1] (AR v1)
Track 6 accurately ripped (confidence 2) [F98AE8E1] (AR v1)
Track 7 accurately ripped (confidence 2) [257CE202] (AR v1)
Track 8 accurately ripped (confidence 2) [7DB9D495] (AR v1)
Track 9 accurately ripped (confidence 2) [67EBD3C3] (AR v1)

All tracks accurately ripped

End of status report

[CUETools log; Date: 27.12.2020 22:14:49; Version: 2.1.4]
Pregap length 00:00:31.
[CTDB TOCID: RhFTS3GqDfI.H502nmTypalbWig-] found.
Track | CTDB Status
1 | ( 7/187) Accurately ripped
2 | ( 7/187) Accurately ripped
3 | ( 7/187) Accurately ripped
4 | ( 8/187) Accurately ripped
5 | ( 7/187) Accurately ripped
6 | ( 8/187) Accurately ripped
7 | ( 8/187) Accurately ripped
8 | ( 8/187) Accurately ripped
9 | ( 7/187) Accurately ripped
[AccurateRip ID: 0012269a-0085312e-830db009] found.
Track [ CRC | V2 ] Status
01 [4bd1d66e|98a3b896] (003+005/148) Accurately ripped
02 [bbede783|998a955a] (003+005/149) Accurately ripped
03 [c5a48be7|736f64a8] (003+005/150) Accurately ripped
04 [f3f51db3|3d3f6c61] (003+005/149) Accurately ripped
05 [be2dc9f1|a8147681] (003+005/148) Accurately ripped
06 [f98ae8e1|47d92fa1] (003+005/149) Accurately ripped
07 [257ce202|c1babba0] (003+005/148) Accurately ripped
08 [7db9d495|5232b4c2] (003+005/148) Accurately ripped
09 [67ebd3c3|a71d675a] (003+005/146) Accurately ripped

Track Peak [ CRC32 ] [W/O NULL] [ LOG ]
– 100,0 [98E5286B] [BBE2C2A6] CRC32
01 100,0 [9D01420C] [8C5ED893]
02 76,4 [746F9121] [E61FE756]
03 100,0 [3BC97B23] [03A847EB]
04 53,0 [1CFCADA3] [767F6439]
05 100,0 [7295450C] [DBD42541]
06 66,4 [B37EC227] [738D96C5]
07 100,0 [3EDA85EB] [1C89A437]
08 100,0 [8E1DFCB4] [F17119A5]
09 100,0 [BDD6BD15] [E2B9F91C]

Arena - 6 Studio Albums (1995-2018)

Arena - The Visitor (1998)
EAC Rip | FLAC (image+.cue+log) - 400 MB | MP3 CBR 320 kbps (LAME 3.93) - 145 MB | Covers - 168 MB
Genre: Neo-Progressive Rock | RAR 3% Rec. | Label: Verglas Music (VGCD 012)

Tracklist:
01. A Crack In The Ice
02. Pins And Needles
03. Double Vision
04. Elea
05. The Hanging Tree
06. A State Of Grace
07. Blood Red Room
08. In The Blink Of An Eye
09. (Don't Forget To) Breathe
10. Serenity
11. Tears In The Rain
12. Enemy Without
13. Running From Damascus
14. The Visitor

Total time: 01:01:43

Exact Audio Copy V1.0 beta 2 from 29. April 2011

EAC extraction logfile from 1. July 2011, 16:23

Arena / The Visitor

Used drive : SONY DVD RW AD-7260S Adapter: 0 ID: 1

Read mode : Secure
Utilize accurate stream : Yes
Defeat audio cache : Yes
Make use of C2 pointers : No

Read offset correction : 48
Overread into Lead-In and Lead-Out : No
Fill up missing offset samples with silence : Yes
Delete leading and trailing silent blocks : No
Null samples used in CRC calculations : Yes
Used interface : Native Win32 interface for Win NT & 2000

Used output format : Internal WAV Routines
Sample format : 44.100 Hz; 16 Bit; Stereo


TOC of the extracted CD

Track | Start | Length | Start sector | End sector
––––––––––––––––––––––––––––-
1 | 0:00.00 | 7:25.22 | 0 | 33396
2 | 7:25.22 | 2:46.20 | 33397 | 45866
3 | 10:11.42 | 4:24.70 | 45867 | 65736
4 | 14:36.37 | 2:36.30 | 65737 | 77466
5 | 17:12.67 | 7:09.50 | 77467 | 109691
6 | 24:22.42 | 3:26.25 | 109692 | 125166
7 | 27:48.67 | 1:47.18 | 125167 | 133209
8 | 29:36.10 | 5:29.20 | 133210 | 157904
9 | 35:05.30 | 3:40.17 | 157905 | 174421
10 | 38:45.47 | 2:10.10 | 174422 | 184181
11 | 40:55.57 | 5:43.38 | 184182 | 209944
12 | 46:39.20 | 5:05.52 | 209945 | 232871
13 | 51:44.72 | 3:44.45 | 232872 | 249716
14 | 55:29.42 | 6:13.65 | 249717 | 277756


Range status and errors

Selected range

Filename D:\Downlod Torrents\Arena - 1998 - The Visitor\Arena - The Visitor.wav

Peak level 99.5 %
Extraction speed 4.1 X
Range quality 99.9 %
Test CRC AD04555C
Copy CRC AD04555C
Copy OK

No errors occurred


AccurateRip summary

Track 1 accurately ripped (confidence 4) [26504BB8] (AR v1)
Track 2 accurately ripped (confidence 4) [546086C5] (AR v1)
Track 3 accurately ripped (confidence 4) [D92EE074] (AR v1)
Track 4 accurately ripped (confidence 4) [9AA51CDC] (AR v1)
Track 5 accurately ripped (confidence 4) [DA2554D6] (AR v1)
Track 6 accurately ripped (confidence 4) [A2DBAA77] (AR v1)
Track 7 accurately ripped (confidence 4) [05135EC7] (AR v1)
Track 8 accurately ripped (confidence 4) [88F08ABB] (AR v1)
Track 9 accurately ripped (confidence 4) [A19D5265] (AR v1)
Track 10 accurately ripped (confidence 4) [17AF5F6B] (AR v1)
Track 11 accurately ripped (confidence 4) [46AC7DDA] (AR v1)
Track 12 accurately ripped (confidence 4) [88031362] (AR v1)
Track 13 accurately ripped (confidence 4) [6B3E41AC] (AR v1)
Track 14 accurately ripped (confidence 4) [39D629FC] (AR v1)

All tracks accurately ripped

End of status report

[CUETools log; Date: 27.12.2020 22:15:27; Version: 2.1.4]
[CTDB TOCID: rlt8Y66ldltwJ34jEfkCNu_Zb4c-] found.
Track | CTDB Status
1 | (200/244) Accurately ripped, or (38/244) differs in 5 samples @07:20:40
2 | (200/244) Accurately ripped, or (38/244) differs in 4 samples @00:05:46
3 | (239/244) Accurately ripped
4 | (199/244) Accurately ripped, or (38/244) differs in 19 samples @01:44:52-01:44:53
5 | (200/244) Accurately ripped, or (38/244) differs in 12 samples @00:21:70,03:56:01
6 | (200/244) Accurately ripped, or (38/244) differs in 275 samples @01:16:15,01:18:68,01:22:03,01:25:29-01:25:30,01:26:01,01:27:52,01:32:53,01:32:69,01:33:10,01:33:26,01:33:41-01:33:42,01:34:13-01:34:14,01:34:29-01:34:30,01:35:32-01:35:33,01:36:68,01:37:24-01:37:25,01:38:59,01:39:00,01:40:35,01:40:66-01:40:68,01:43:00
7 | (240/244) Accurately ripped
8 | (240/244) Accurately ripped
9 | (241/244) Accurately ripped
10 | (241/244) Accurately ripped
11 | (238/244) Accurately ripped
12 | (235/244) Accurately ripped
13 | (235/244) Accurately ripped
14 | (237/244) Accurately ripped
[AccurateRip ID: 001fb299-014d7b8c-b70e770e] found.
Track [ CRC | V2 ] Status
01 [26504bb8|a7a9e3c9] (006+007/196) Accurately ripped
02 [546086c5|31c0748b] (006+007/196) Accurately ripped
03 [d92ee074|271f97ed] (006+007/196) Accurately ripped
04 [9aa51cdc|e64ac269] (006+007/196) Accurately ripped
05 [da2554d6|8c58f7ce] (006+007/197) Accurately ripped
06 [a2dbaa77|267a6b3b] (006+007/195) Accurately ripped
07 [05135ec7|5277de6c] (006+007/196) Accurately ripped
08 [88f08abb|6255daa6] (006+007/195) Accurately ripped
09 [a19d5265|649384a5] (006+007/195) Accurately ripped
10 [17af5f6b|4d345d98] (006+007/196) Accurately ripped
11 [46ac7dda|09bb0bce] (006+007/195) Accurately ripped
12 [88031362|49119d22] (006+007/192) Accurately ripped
13 [6b3e41ac|9befea79] (006+007/194) Accurately ripped
14 [39d629fc|868f319d] (006+006/189) Accurately ripped
Offsetted by -679:
01 [2fcc02c5] (002/196) Accurately ripped
02 [8ace7d69] (002/196) Accurately ripped
03 [5c6be82a] (002/196) Accurately ripped
04 [58a8c857] (002/196) Accurately ripped
05 [43fc7520] (002/197) Accurately ripped
06 [e392c64c] (002/195) Accurately ripped
07 [965f064a] (002/196) Accurately ripped
08 [60278924] (002/195) Accurately ripped
09 [71cc6b6a] (002/195) Accurately ripped
10 [3e37c682] (002/196) Accurately ripped
11 [e7cbf275] (002/195) Accurately ripped
12 [79e47487] (002/192) Accurately ripped
13 [31e8361e] (002/194) Accurately ripped
14 [92422f89] (002/189) Accurately ripped
Offsetted by -71:
01 [50a090c1] (006/196) Accurately ripped
02 [892ac412] (006/196) Accurately ripped
03 [7d4ad28c] (006/196) Accurately ripped
04 [54ff53b4] (006/196) Accurately ripped
05 [d067d363] (006/197) Accurately ripped
06 [f039136d] (006/195) Accurately ripped
07 [aadc1982] (006/196) Accurately ripped
08 [f5dd491f] (006/195) Accurately ripped
09 [032a5a4a] (006/195) Accurately ripped
10 [1854c399] (006/196) Accurately ripped
11 [3b9358c6] (006/195) Accurately ripped
12 [d4152f1d] (006/192) Accurately ripped
13 [569c863c] (006/194) Accurately ripped
14 [82a89969] (005/189) Accurately ripped
Offsetted by 1075:
01 [83d32e9b] (003/196) Accurately ripped
02 [1f2d973b] (003/196) Accurately ripped
03 [cde81695] (003/196) Accurately ripped
04 [59cd993a] (003/196) Accurately ripped
05 [d9bde3b4] (003/197) Accurately ripped
06 [5ecc70da] (003/195) Accurately ripped
07 [e5965563] (003/196) Accurately ripped
08 [9c9d6c12] (003/195) Accurately ripped
09 [d1cb677c] (003/195) Accurately ripped
10 [1bc89560] (003/196) Accurately ripped
11 [099e41ff] (003/195) Accurately ripped
12 [c10a6b90] (003/192) Accurately ripped
13 [5c926223] (003/194) Accurately ripped
14 [93851beb] (003/189) Accurately ripped
Offsetted by 2403:
01 [1b7f79bd] (003/196) Accurately ripped
02 [f6a85f0a] (003/196) Accurately ripped
03 [32be8cf4] (003/196) Accurately ripped
04 [7c140aeb] (003/196) Accurately ripped
05 [9b24482e] (003/197) Accurately ripped
06 [ff6d492f] (003/195) Accurately ripped
07 [bc1db3f0] (003/196) Accurately ripped
08 [285b09c9] (003/195) Accurately ripped
09 [7b1892ec] (003/195) Accurately ripped
10 [eda23637] (003/196) Accurately ripped
11 [ce24dd53] (003/195) Accurately ripped
12 [bf12aa79] (003/192) Accurately ripped
13 [f2527e07] (003/194) Accurately ripped
14 [9455a4db] (003/189) Accurately ripped
Offsetted by 2447:
01 [069516a5] (008/196) Accurately ripped
02 [231ed0a4] (008/196) Accurately ripped
03 [bb234aea] (008/196) Accurately ripped
04 [d1bf5582] (008/196) Accurately ripped
05 [8b6e744d] (008/197) Accurately ripped
06 [e48fccd2] (008/195) Accurately ripped
07 [1438b7cc] (008/196) Accurately ripped
08 [bd4ba5d8] (008/195) Accurately ripped
09 [423f5f28] (008/195) Accurately ripped
10 [30dc8d94] (008/196) Accurately ripped
11 [6646474a] (008/195) Accurately ripped
12 [b1f3ae16] (008/192) Accurately ripped
13 [a3fa5b7a] (008/194) Accurately ripped
14 [662a8777] (008/189) Accurately ripped
Offsetted by -826:
01 [b8bd4286] (000/196) No match (V2 was not tested)
02 [921637a7] (000/196) No match (V2 was not tested)
03 [d7e9e7b5] (000/196) No match (V2 was not tested)
04 [8d42ecbe] (000/196) No match (V2 was not tested)
05 [b2c8f2d5] (000/197) No match (V2 was not tested)
06 [bb14d3ac] (000/195) No match (V2 was not tested)
07 [03e6bf80] (000/196) No match (V2 was not tested)
08 [325cced8] (000/195) No match (V2 was not tested)
09 [c12db573] (000/195) No match (V2 was not tested)
10 [79961182] (000/196) No match (V2 was not tested)
11 [3eb479a9] (000/195) No match (V2 was not tested)
12 [c8dd749e] (000/192) No match (V2 was not tested)
13 [e6db9d0c] (000/194) No match (V2 was not tested)
14 [861ad1ba] (000/189) No match (V2 was not tested)
Offsetted by -820:
01 [d0fde2ec] (000/196) No match (V2 was not tested)
02 [84c3fa85] (000/196) No match (V2 was not tested)
03 [cb54e25a] (000/196) No match (V2 was not tested)
04 [8030bfe4] (000/196) No match (V2 was not tested)
05 [1b0cc9c7] (000/197) No match (V2 was not tested)
06 [0f8a64f6] (000/195) No match (V2 was not tested)
07 [c7227c01] (000/196) No match (V2 was not tested)
08 [2f2de0a1] (000/195) No match (V2 was not tested)
09 [7f3ea2c1] (000/195) No match (V2 was not tested)
10 [a47c02ed] (000/196) No match (V2 was not tested)
11 [43f70a27] (000/195) No match (V2 was not tested)
12 [0dcb22fc] (000/192) No match (V2 was not tested)
13 [394abda3] (000/194) No match (V2 was not tested)
14 [34a94db8] (000/189) No match (V2 was not tested)
Offsetted by -730:
01 [c29d1c4c] (000/196) No match (V2 was not tested)
02 [cf696cde] (000/196) No match (V2 was not tested)
03 [16c53424] (000/196) No match (V2 was not tested)
04 [1a8361db] (000/196) No match (V2 was not tested)
05 [8f42f6bd] (000/197) No match (V2 was not tested)
06 [b50a98cf] (000/195) No match (V2 was not tested)
07 [7ce40f57] (000/196) No match (V2 was not tested)
08 [9763c1a5] (000/195) No match (V2 was not tested)
09 [a23c8a53] (000/195) No match (V2 was not tested)
10 [2863e2b7] (000/196) No match (V2 was not tested)
11 [fc8d409d] (000/195) No match (V2 was not tested)
12 [c270e665] (000/192) No match (V2 was not tested)
13 [c5efc614] (000/194) No match (V2 was not tested)
14 [5e22919a] (000/189) No match (V2 was not tested)
Offsetted by -119:
01 [db5b986d] (000/196) No match (V2 was not tested)
02 [44ece46f] (000/196) No match (V2 was not tested)
03 [4f81d04f] (000/196) No match (V2 was not tested)
04 [fc37ab90] (000/196) No match (V2 was not tested)
05 [cc0cb1b2] (000/197) No match (V2 was not tested)
06 [2b6e960d] (000/195) No match (V2 was not tested)
07 [1f5eb8ab] (000/196) No match (V2 was not tested)
08 [1f47cc6b] (000/195) No match (V2 was not tested)
09 [12a2efda] (000/195) No match (V2 was not tested)
10 [fa31a312] (000/196) No match (V2 was not tested)
11 [45e07f6b] (000/195) No match (V2 was not tested)
12 [d069af10] (000/192) No match (V2 was not tested)
13 [949e629f] (000/194) No match (V2 was not tested)
14 [96b4b979] (000/189) No match (V2 was not tested)

Track Peak [ CRC32 ] [W/O NULL] [ LOG ]
– 99,5 [AD04555C] [948F2A18] CRC32
01 99,5 [EDCB9F5A] [3FAAB88F]
02 74,8 [002FAD0A] [60E8FAAA]
03 92,4 [FCB33BD9] [7E63E2AA]
04 81,5 [A44265E5] [DAB35F45]
05 86,7 [251EAA35] [B56F8F4F]
06 98,4 [455B3172] [9853138D]
07 48,0 [417205DD] [D6F5EBED]
08 95,4 [33ED1FAE] [792FDBE4]
09 90,1 [85A9F432] [08FD8B83]
10 75,8 [C12461E3] [4E9A0786]
11 98,2 [2B118A20] [D6CC2B78]
12 99,4 [F0DBABDB] [E3A22E7D]
13 98,7 [6EBBC899] [53B98796]
14 99,5 [A432CDF5] [196E8C54]

Arena - 6 Studio Albums (1995-2018)

Arena - Immortal? (2000)
EAC Rip | FLAC (image+.cue+log) - 367 MB | MP3 CBR 320 kbps (LAME 3.93) - 130 MB | Covers - 145 MB
Genre: Neo-Progressive Rock | RAR 3% Rec. | Label: Verglas Music (VGCD019)

Tracklist:
01. Chosen
02. Waiting For The Flood
03. The Butterfly Man
04. Ghost In The Firewall
05. Climbing The Net
06. Moviedrome
07. Friday's Dream

Total time: 55:19

Exact Audio Copy V1.0 beta 2 from 29. April 2011

EAC extraction logfile from 1. July 2011, 17:22

Arena / Immortal?

Used drive : SONY DVD RW AD-7260S Adapter: 0 ID: 1

Read mode : Secure
Utilize accurate stream : Yes
Defeat audio cache : Yes
Make use of C2 pointers : No

Read offset correction : 48
Overread into Lead-In and Lead-Out : No
Fill up missing offset samples with silence : Yes
Delete leading and trailing silent blocks : No
Null samples used in CRC calculations : Yes
Used interface : Native Win32 interface for Win NT & 2000

Used output format : Internal WAV Routines
Sample format : 44.100 Hz; 16 Bit; Stereo


TOC of the extracted CD

Track | Start | Length | Start sector | End sector
––––––––––––––––––––––––––––-
1 | 0:00.00 | 6:21.70 | 0 | 28644
2 | 6:21.70 | 5:54.05 | 28645 | 55199
3 | 12:16.00 | 8:56.10 | 55200 | 95409
4 | 21:12.10 | 4:55.25 | 95410 | 117559
5 | 26:07.35 | 4:40.27 | 117560 | 138586
6 | 30:47.62 | 19:46.28 | 138587 | 227564
7 | 50:34.15 | 4:44.37 | 227565 | 248901


Range status and errors

Selected range

Filename D:\Downlod Torrents\Arena - 2000 - Immortal\Arena - Immortal.wav

Peak level 99.5 %
Extraction speed 3.9 X
Range quality 99.9 %
Test CRC 7AFE2E75
Copy CRC 7AFE2E75
Copy OK

No errors occurred


AccurateRip summary

Track 1 accurately ripped (confidence 4) [530AA180] (AR v2)
Track 2 accurately ripped (confidence 4) [EC5F2CD1] (AR v2)
Track 3 accurately ripped (confidence 4) [F48118C1] (AR v2)
Track 4 accurately ripped (confidence 4) [C54FADA0] (AR v2)
Track 5 accurately ripped (confidence 4) [CCBA4813] (AR v2)
Track 6 accurately ripped (confidence 4) [16D2D3D7] (AR v2)
Track 7 accurately ripped (confidence 4) [B137FAC2] (AR v2)

All tracks accurately ripped

End of status report

[CUETools log; Date: 27.12.2020 22:16:05; Version: 2.1.4]
[CTDB TOCID: NZ2nUHsr0IxqiXRo20uXLRLGxC0-] found.
Track | CTDB Status
1 | (205/223) Accurately ripped, or (17/223) differs in 12 samples @02:11:52,02:12:49,02:33:16
2 | (221/223) Accurately ripped
3 | (221/223) Accurately ripped
4 | (221/223) Accurately ripped
5 | (221/223) Accurately ripped
6 | (218/223) Accurately ripped
7 | (216/223) Accurately ripped
[AccurateRip ID: 000de9fd-00559258-670cf607] found.
Track [ CRC | V2 ] Status
01 [42e309cd|530aa180] (042+061/155) Accurately ripped
02 [5a453176|ec5f2cd1] (042+061/155) Accurately ripped
03 [040e2ec0|f48118c1] (042+061/156) Accurately ripped
04 [f08177a7|c54fada0] (042+061/156) Accurately ripped
05 [57a4df81|ccba4813] (041+061/153) Accurately ripped
06 [10e59850|16d2d3d7] (041+061/154) Accurately ripped
07 [f1298fbc|b137fac2] (040+058/149) Accurately ripped
Offsetted by -1328:
01 [5ad4634d] (005/155) Accurately ripped
02 [1b7fa686] (005/155) Accurately ripped
03 [ee491134] (005/156) Accurately ripped
04 [6c3ba77b] (005/156) Accurately ripped
05 [72c83d1e] (005/153) Accurately ripped
06 [46007f7f] (005/154) Accurately ripped
07 [ff3e62af] (005/149) Accurately ripped
Offsetted by -669:
01 [8142fbb5] (011/155) Accurately ripped
02 [34ac1675] (011/155) Accurately ripped
03 [a8da63ad] (011/156) Accurately ripped
04 [267f9400] (011/156) Accurately ripped
05 [fbb6fc19] (011/153) Accurately ripped
06 [257f8eb2] (011/154) Accurately ripped
07 [ba2f5a08] (011/149) Accurately ripped
Offsetted by -98:
01 [eb97eedd] (004/155) Accurately ripped
02 [13b5d82c] (004/155) Accurately ripped
03 [8a12aa5c] (004/156) Accurately ripped
04 [5c2679ff] (004/156) Accurately ripped
05 [c6f1aa5d] (004/153) Accurately ripped
06 [5fe3ab30] (003/154) Accurately ripped
07 [fd14f755] (003/149) Accurately ripped
Offsetted by -71:
01 [28371305] (004/155) Accurately ripped
02 [e874d943] (004/155) Accurately ripped
03 [20c75767] (004/156) Accurately ripped
04 [3f3b76c2] (004/156) Accurately ripped
05 [db63a72c] (003/153) Accurately ripped
06 [06ef86ff] (004/154) Accurately ripped
07 [af7a0fc2] (004/149) Accurately ripped
Offsetted by -114:
01 [267bff5d] (000/155) No match (V2 was not tested)
02 [663b2cdc] (000/155) No match (V2 was not tested)
03 [baa896a2] (000/156) No match (V2 was not tested)
04 [2b92be51] (000/156) No match (V2 was not tested)
05 [ce807784] (000/153) No match (V2 was not tested)
06 [8cabe3b9] (000/154) No match (V2 was not tested)
07 [63474bc2] (000/149) No match (V2 was not tested)
Offsetted by -30:
01 [714ea8bd] (000/155) No match (V2 was not tested)
02 [34ff3040] (000/155) No match (V2 was not tested)
03 [22c7b502] (000/156) No match (V2 was not tested)
04 [f00f97c1] (000/156) No match (V2 was not tested)
05 [1f8dbdf8] (000/153) No match (V2 was not tested)
06 [707510b9] (000/154) No match (V2 was not tested)
07 [271753c6] (000/149) No match (V2 was not tested)

Track Peak [ CRC32 ] [W/O NULL] [ LOG ]
– 99,5 [7AFE2E75] [E2F95BEA] CRC32
01 98,8 [92B29FC2] [042A69F2]
02 98,7 [74F67320] [5FF4BF1F]
03 99,1 [6B8E463B] [C9C298D4]
04 99,5 [3C92966B] [97FC00E2]
05 98,2 [9DA6C981] [1B227736]
06 99,0 [2ADA03E7] [B7487F7C]
07 98,8 [CE5731DD] [C54C4C2F]

Arena - 6 Studio Albums (1995-2018)

Arena - Contagion (2003)
EAC Rip | FLAC (image+.cue+log) - 392 MB | MP3 CBR 320 kbps (LAME 3.93) - 138 MB | Covers - 158 MB
Genre: Neo-Progressive Rock | RAR 3% Rec. | Label: Verglas Music (VGCD024)

Tracklist:
01. Witch Hunt
02. An Angel Falls
03. Painted Man
04. This Way Madness Lies
05. Spectre at the Feast
06. Never Ending Night
07. Skin Game
08. Salamander
09. On the Box
10. Tsunami
11. Bitter Harvest
12. The City of Lanterns
13. Riding the Tide
14. Mea Culpa
15. Cutting the Cards
16. Ascension

Total time: 58:49

Exact Audio Copy V1.0 beta 2 from 29. April 2011

EAC extraction logfile from 1. July 2011, 20:48

Arena / Contagion

Used drive : SONY DVD RW AD-7260S Adapter: 0 ID: 2

Read mode : Secure
Utilize accurate stream : Yes
Defeat audio cache : Yes
Make use of C2 pointers : No

Read offset correction : 48
Overread into Lead-In and Lead-Out : No
Fill up missing offset samples with silence : Yes
Delete leading and trailing silent blocks : No
Null samples used in CRC calculations : Yes
Used interface : Native Win32 interface for Win NT & 2000

Used output format : Internal WAV Routines
Sample format : 44.100 Hz; 16 Bit; Stereo


TOC of the extracted CD

Track | Start | Length | Start sector | End sector
––––––––––––––––––––––––––––-
1 | 0:00.00 | 4:17.00 | 0 | 19274
2 | 4:17.00 | 1:13.42 | 19275 | 24791
3 | 5:30.42 | 4:41.33 | 24792 | 45899
4 | 10:12.00 | 3:35.72 | 45900 | 62096
5 | 13:47.72 | 5:34.33 | 62097 | 87179
6 | 19:22.30 | 3:23.52 | 87180 | 102456
7 | 22:46.07 | 4:43.33 | 102457 | 123714
8 | 27:29.40 | 3:59.45 | 123715 | 141684
9 | 31:29.10 | 2:40.02 | 141685 | 153686
10 | 34:09.12 | 2:38.00 | 153687 | 165536
11 | 36:47.12 | 2:52.35 | 165537 | 178471
12 | 39:39.47 | 1:22.38 | 178472 | 184659
13 | 41:02.10 | 4:28.52 | 184660 | 204811
14 | 45:30.62 | 3:46.00 | 204812 | 221761
15 | 49:16.62 | 4:57.30 | 221762 | 244066
16 | 54:14.17 | 4:34.28 | 244067 | 264644


Range status and errors

Selected range

Filename D:\Downlod Torrents\Arena - 2003 - Contagion\Arena - Contagion.wav

Peak level 98.4 %
Extraction speed 4.0 X
Range quality 100.0 %
Test CRC F13B26D2
Copy CRC F13B26D2
Copy OK

No errors occurred


AccurateRip summary

Track 1 accurately ripped (confidence 6) [954BFE4B] (AR v2)
Track 2 accurately ripped (confidence 6) [A87B6D2F] (AR v2)
Track 3 accurately ripped (confidence 6) [830B1D3B] (AR v2)
Track 4 accurately ripped (confidence 6) [A3E695BE] (AR v2)
Track 5 accurately ripped (confidence 6) [6EEFAC76] (AR v2)
Track 6 accurately ripped (confidence 6) [A788CB05] (AR v2)
Track 7 accurately ripped (confidence 6) [E2E0FF45] (AR v2)
Track 8 accurately ripped (confidence 6) [D76C83A6] (AR v2)
Track 9 accurately ripped (confidence 6) [BC07C6AD] (AR v2)
Track 10 accurately ripped (confidence 6) [380020E3] (AR v2)
Track 11 accurately ripped (confidence 6) [9EAB6313] (AR v2)
Track 12 accurately ripped (confidence 6) [DB01C52A] (AR v2)
Track 13 accurately ripped (confidence 6) [DE54466C] (AR v2)
Track 14 accurately ripped (confidence 6) [D390C84D] (AR v2)
Track 15 accurately ripped (confidence 6) [786A6C52] (AR v2)
Track 16 accurately ripped (confidence 6) [DD533893] (AR v2)

All tracks accurately ripped

End of status report

[CUETools log; Date: 27.12.2020 22:16:38; Version: 2.1.4]
[CTDB TOCID: avmG2XffvA7gKs7J.B.Em45nVsQ-] found.
Track | CTDB Status
1 | (192/194) Accurately ripped
2 | (193/194) Accurately ripped
3 | (193/194) Accurately ripped
4 | (192/194) Accurately ripped
5 | (193/194) Accurately ripped
6 | (192/194) Accurately ripped
7 | (193/194) Accurately ripped
8 | (193/194) Accurately ripped
9 | (192/194) Accurately ripped
10 | (192/194) Accurately ripped
11 | (191/194) Accurately ripped
12 | (192/194) Accurately ripped
13 | (181/194) Accurately ripped
14 | (193/194) Accurately ripped
15 | (187/194) Accurately ripped
16 | (184/194) Accurately ripped
[AccurateRip ID: 0021f267-01960970-df0dc810] found.
Track [ CRC | V2 ] Status
01 [93029946|954bfe4b] (035+056/124) Accurately ripped
02 [7d0d8c95|a87b6d2f] (034+057/127) Accurately ripped
03 [7da7b5a6|830b1d3b] (035+056/127) Accurately ripped
04 [e90f1544|a3e695be] (035+056/127) Accurately ripped
05 [6e4fb32e|6eefac76] (035+056/127) Accurately ripped
06 [b526eb88|a788cb05] (035+056/127) Accurately ripped
07 [db6b1497|e2e0ff45] (035+056/127) Accurately ripped
08 [9205e1dd|d76c83a6] (035+056/127) Accurately ripped
09 [ea4ed17d|bc07c6ad] (035+056/127) Accurately ripped
10 [260f7438|380020e3] (035+056/127) Accurately ripped
11 [cde22848|9eab6313] (034+056/126) Accurately ripped
12 [a2d69e3b|db01c52a] (034+056/126) Accurately ripped
13 [46a87b4f|de54466c] (032+053/123) Accurately ripped
14 [ef89e6ce|d390c84d] (034+055/125) Accurately ripped
15 [889c2900|786a6c52] (033+054/123) Accurately ripped
16 [dc4e6ae3|dd533893] (032+054/122) Accurately ripped
Offsetted by -681:
01 [66a64b02] (007/124) Accurately ripped
02 [aec67724] (007/127) Accurately ripped
03 [51b82fb3] (007/127) Accurately ripped
04 [3c04086b] (007/127) Accurately ripped
05 [c2645fcc] (007/127) Accurately ripped
06 [16bd1d03] (007/127) Accurately ripped
07 [8f54d0e5] (007/127) Accurately ripped
08 [accde398] (007/127) Accurately ripped
09 [4ef413f3] (007/127) Accurately ripped
10 [0ddef109] (007/127) Accurately ripped
11 [73d4dd63] (007/126) Accurately ripped
12 [c1ff278a] (007/126) Accurately ripped
13 [a751e7bc] (007/123) Accurately ripped
14 [ae25a502] (007/125) Accurately ripped
15 [f90328d0] (007/123) Accurately ripped
16 [ac136c66] (007/122) Accurately ripped
Offsetted by -676:
01 [2c0bee2a] (002/124) Accurately ripped
02 [37f1f1b2] (003/127) Accurately ripped
03 [80c271c6] (003/127) Accurately ripped
04 [485058a3] (003/127) Accurately ripped
05 [be8d312b] (003/127) Accurately ripped
06 [8cdc9cd9] (003/127) Accurately ripped
07 [7ec435ce] (003/127) Accurately ripped
08 [8274b5f0] (003/127) Accurately ripped
09 [c18af4d7] (003/127) Accurately ripped
10 [436bb2e5] (003/127) Accurately ripped
11 [2a3abe75] (003/126) Accurately ripped
12 [bdf3c736] (003/126) Accurately ripped
13 [6f23f2c4] (003/123) Accurately ripped
14 [faf03f9e] (003/125) Accurately ripped
15 [71f5edf8] (003/123) Accurately ripped
16 [74b62cef] (003/122) Accurately ripped
Offsetted by -18:
01 [02a46fde] (006/124) Accurately ripped
02 [446f6a6b] (006/127) Accurately ripped
03 [c1eac63b] (006/127) Accurately ripped
04 [1b234ce7] (006/127) Accurately ripped
05 [f056d1e2] (006/127) Accurately ripped
06 [6c4928bd] (006/127) Accurately ripped
07 [533acbe9] (006/127) Accurately ripped
08 [d64f7d25] (006/127) Accurately ripped
09 [1ac78f61] (006/127) Accurately ripped
10 [0e1f0937] (006/127) Accurately ripped
11 [0f8726fe] (006/126) Accurately ripped
12 [01c10fa8] (006/126) Accurately ripped
13 [863ab52e] (006/123) Accurately ripped
14 [a7e3ba36] (006/125) Accurately ripped
15 [6cbd70cc] (006/123) Accurately ripped
16 [aa8383c5] (006/122) Accurately ripped
Offsetted by -116:
01 [cd2f684a] (000/124) No match (V2 was not tested)
02 [2e67e659] (000/127) No match (V2 was not tested)
03 [80b70848] (000/127) No match (V2 was not tested)
04 [4b164256] (000/127) No match (V2 was not tested)
05 [8e760e94] (000/127) No match (V2 was not tested)
06 [7602af91] (000/127) No match (V2 was not tested)
07 [1f19d2a9] (000/127) No match (V2 was not tested)
08 [f3001997] (000/127) No match (V2 was not tested)
09 [1d64e587] (000/127) No match (V2 was not tested)
10 [6d7818a9] (000/127) No match (V2 was not tested)
11 [8bd77f25] (000/126) No match (V2 was not tested)
12 [8140722d] (000/126) No match (V2 was not tested)
13 [9a3c7946] (000/123) No match (V2 was not tested)
14 [9393e3de] (000/125) No match (V2 was not tested)
15 [d980a674] (000/123) No match (V2 was not tested)
16 [19d4c13b] (000/122) No match (V2 was not tested)
Offsetted by -110:
01 [8a10dafa] (000/124) No match (V2 was not tested)
02 [f36384e7] (000/127) No match (V2 was not tested)
03 [3f5c3e5f] (000/127) No match (V2 was not tested)
04 [84cfd133] (000/127) No match (V2 was not tested)
05 [df18562b] (000/127) No match (V2 was not tested)
06 [00c201fb] (000/127) No match (V2 was not tested)
07 [bbd1451c] (000/127) No match (V2 was not tested)
08 [ddec28e9] (000/127) No match (V2 was not tested)
09 [bab35e3a] (000/127) No match (V2 was not tested)
10 [edb66290] (000/127) No match (V2 was not tested)
11 [ff1eeca0] (000/126) No match (V2 was not tested)
12 [db9f62ce] (000/126) No match (V2 was not tested)
13 [c3d2b8fe] (000/123) No match (V2 was not tested)
14 [56209d66] (000/125) No match (V2 was not tested)
15 [2861a378] (000/123) No match (V2 was not tested)
16 [2c1bd481] (000/122) No match (V2 was not tested)
Offsetted by -48:
01 [a1a5ce0a] (000/124) No match (V2 was not tested)
02 [14ac3302] (000/127) No match (V2 was not tested)
03 [f7e1b24f] (000/127) No match (V2 was not tested)
04 [aec14fde] (000/127) No match (V2 was not tested)
05 [1932b2f7] (000/127) No match (V2 was not tested)
06 [0dbf5c46] (000/127) No match (V2 was not tested)
07 [db88cc80] (000/127) No match (V2 was not tested)
08 [3addec39] (000/127) No match (V2 was not tested)
09 [bd921f64] (000/127) No match (V2 was not tested)
10 [4d83e6ca] (000/127) No match (V2 was not tested)
11 [186a7b76] (000/126) No match (V2 was not tested)
12 [f0203b59] (000/126) No match (V2 was not tested)
13 [61cd8d92] (000/123) No match (V2 was not tested)
14 [db241a8e] (000/125) No match (V2 was not tested)
15 [603922f9] (000/123) No match (V2 was not tested)
16 [fa1091aa] (000/122) No match (V2 was not tested)

Track Peak [ CRC32 ] [W/O NULL] [ LOG ]
– 98,4 [F13B26D2] [B1A7112A] CRC32
01 98,2 [2954EB7B] [A32A63F4]
02 94,6 [7B319DAE] [7FB42CDB]
03 98,0 [E8BE51BE] [5EF4F9B2]
04 98,0 [E3742882] [F6FA9A6A]
05 98,0 [07232C78] [B4E0E49C]
06 98,0 [1C1261CF] [8B50A2B4]
07 98,4 [58D72EC4] [C0AB6B8D]
08 98,1 [4782224E] [DB4A63F1]
09 98,0 [92E1A172] [207BD958]
10 98,0 [F1623B57] [E12403B8]
11 97,0 [2B5028E1] [F58FF829]
12 70,8 [8A780134] [FFB9116E]
13 98,0 [CE17F0F7] [8DB0DB77]
14 90,6 [30A83CDF] [E1A49D31]
15 98,0 [DED10C58] [1069EDD1]
16 98,2 [C6D3A323] [2CD8C4F7]

Arena - 6 Studio Albums (1995-2018)

Arena - Pepper's Ghost (2005)
EAC Rip | FLAC (image+.cue+log) - 384 MB | MP3 CBR 320 kbps (LAME 3.93) - 123 MB | Covers - 334 MB
Genre: Neo-Progressive Rock | RAR 3% Rec. | Label: Verglas Music (VGCD028)

Tracklist:
01. Bedlam Fayre
02. Smoke and Mirrors
03. The Shattered Room
04. The Eyes Of Lara Moon
05. Tantalus
06. Purgatory Road
07. Opera Fanatica

Total time: 52:35

Exact Audio Copy V1.0 beta 2 from 29. April 2011

EAC extraction logfile from 5. July 2011, 8:31

Arena / Pepper's Ghost

Used drive : SONY DVD RW AD-7260S Adapter: 0 ID: 1

Read mode : Secure
Utilize accurate stream : Yes
Defeat audio cache : Yes
Make use of C2 pointers : No

Read offset correction : 48
Overread into Lead-In and Lead-Out : No
Fill up missing offset samples with silence : Yes
Delete leading and trailing silent blocks : No
Null samples used in CRC calculations : Yes
Used interface : Native Win32 interface for Win NT & 2000

Used output format : Internal WAV Routines
Sample format : 44.100 Hz; 16 Bit; Stereo


TOC of the extracted CD

Track | Start | Length | Start sector | End sector
––––––––––––––––––––––––––––-
1 | 0:00.00 | 6:06.37 | 0 | 27486
2 | 6:06.37 | 4:44.30 | 27487 | 48816
3 | 10:50.67 | 9:46.28 | 48817 | 92794
4 | 20:37.20 | 4:31.42 | 92795 | 113161
5 | 25:08.62 | 6:51.65 | 113162 | 144051
6 | 32:00.52 | 7:26.73 | 144052 | 177574
7 | 39:27.50 | 13:07.17 | 177575 | 236616


Range status and errors

Selected range

Filename D:\Downlod Torrents\Arena - 2005 - Pepper's Ghost\Arena - Pepper's Ghost.wav

Peak level 98.8 %
Extraction speed 3.8 X
Range quality 100.0 %
Test CRC FA0AA9D9
Copy CRC FA0AA9D9
Copy OK

No errors occurred


AccurateRip summary

Track 1 accurately ripped (confidence 2) [9ED4E9EE] (AR v2)
Track 2 accurately ripped (confidence 2) [8BAE7789] (AR v2)
Track 3 accurately ripped (confidence 2) [C3934EF4] (AR v2)
Track 4 accurately ripped (confidence 2) [0D36AE56] (AR v2)
Track 5 accurately ripped (confidence 2) [3CC1980D] (AR v2)
Track 6 accurately ripped (confidence 2) [64A26E2C] (AR v2)
Track 7 accurately ripped (confidence 2) [087499EB] (AR v2)

All tracks accurately ripped

End of status report

[CUETools log; Date: 27.12.2020 22:17:46; Version: 2.1.4]
[CTDB TOCID: 5SboVeTVsJllD5h3PtUTmObZV0M-] found.
Track | CTDB Status
1 | (211/213) Accurately ripped
2 | (211/213) Accurately ripped
3 | (211/213) Accurately ripped
4 | (210/213) Accurately ripped
5 | (208/213) Accurately ripped
6 | (193/213) Accurately ripped, or (16/213) differs in 9 samples @02:13:67,05:02:27
7 | (179/213) Accurately ripped, or (16/213) differs in 1759 samples @00:35:23,03:53:28-03:53:29,05:30:44-05:30:45,05:44:37-05:44:38,05:45:14,05:49:62,06:00:73,06:14:52-06:14:53,06:24:37,06:25:14,06:28:34,06:31:36-06:31:37,06:33:09,06:45:38,07:03:58,08:06:31,08:18:19,09:48:61-09:48:62,09:49:04-09:49:05,09:49:58-09:49:59,09:50:01-09:50:02,09:54:07-09:54:08,09:56:55-09:56:56,09:57:34-09:57:35,10:02:56,10:04:14-10:04:15,10:15:00-10:15:01,10:15:18-10:15:19,11:08:46,11:09:07-11:09:08,11:13:71,11:27:04-11:27:05,11:27:22-11:27:23,11:28:20,11:51:28-11:51:29,11:51:47
[AccurateRip ID: 000cd339-004e6901-580c5207] found.
Track [ CRC | V2 ] Status
01 [7736a389|9ed4e9ee] (039+054/142) Accurately ripped
02 [c25b4e14|8bae7789] (039+054/142) Accurately ripped
03 [05cceeb2|c3934ef4] (039+054/142) Accurately ripped
04 [222fbc05|0d36ae56] (039+053/141) Accurately ripped
05 [294b610c|3cc1980d] (039+053/141) Accurately ripped
06 [2ae883f4|64a26e2c] (039+053/140) Accurately ripped
07 [7fecbbca|087499eb] (037+051/131) Accurately ripped
Offsetted by -774:
01 [260bd827] (002/142) Accurately ripped
02 [04a02792] (002/142) Accurately ripped
03 [705da4ca] (002/142) Accurately ripped
04 [c89d8483] (002/141) Accurately ripped
05 [acbe25b8] (002/141) Accurately ripped
06 [3ae2136a] (002/140) Accurately ripped
07 [eb04d6b7] (002/131) Accurately ripped
Offsetted by -679:
01 [70d5e48c] (010/142) Accurately ripped
02 [1e3a6ec7] (010/142) Accurately ripped
03 [26c24a4e] (010/142) Accurately ripped
04 [f25e6e38] (010/141) Accurately ripped
05 [4f2e4734] (010/141) Accurately ripped
06 [0d1f5285] (010/140) Accurately ripped
07 [911d08f9] (010/131) Accurately ripped
Offsetted by -667:
01 [b5911950] (002/142) Accurately ripped
02 [114b39cb] (002/142) Accurately ripped
03 [0d4af61e] (002/142) Accurately ripped
04 [8e8c5b3c] (002/141) Accurately ripped
05 [5660761d] (002/141) Accurately ripped
06 [627e8a80] (002/140) Accurately ripped
07 [035cfc4f] (002/131) Accurately ripped
Offsetted by -664:
01 [46bfe681] (006/142) Accurately ripped
02 [8e0f6c8c] (006/142) Accurately ripped
03 [86ed2112] (006/142) Accurately ripped
04 [b597d67d] (006/141) Accurately ripped
05 [368cabe7] (006/141) Accurately ripped
06 [37b89891] (006/140) Accurately ripped
07 [b33f4cfd] (006/131) Accurately ripped
Offsetted by -872:
01 [4a12fe91] (000/142) No match (V2 was not tested)
02 [6e41ad9c] (000/142) No match (V2 was not tested)
03 [4056d452] (000/142) No match (V2 was not tested)
04 [77d11f8d] (000/141) No match (V2 was not tested)
05 [9cc09d90] (000/141) No match (V2 was not tested)
06 [8f43e278] (000/140) No match (V2 was not tested)
07 [2ee41e11] (000/131) No match (V2 was not tested)
Offsetted by -866:
01 [6c7098f3] (000/142) No match (V2 was not tested)
02 [67ca131e] (000/142) No match (V2 was not tested)
03 [339b2a3a] (000/142) No match (V2 was not tested)
04 [c5e8160f] (000/141) No match (V2 was not tested)
05 [4b29b567] (000/141) No match (V2 was not tested)
06 [36960407] (000/140) No match (V2 was not tested)
07 [3db30ed5] (000/131) No match (V2 was not tested)
Offsetted by -712:
01 [33d31371] (000/142) No match (V2 was not tested)
02 [c1cc407c] (000/142) No match (V2 was not tested)
03 [ecca71d2] (000/142) No match (V2 was not tested)
04 [44e0226d] (000/141) No match (V2 was not tested)
05 [2001af10] (000/141) No match (V2 was not tested)
06 [e424aec0] (000/140) No match (V2 was not tested)
07 [8cf5e08e] (000/131) No match (V2 was not tested)
Offsetted by -676:
01 [0204b1bd] (002/142) Accurately ripped
02 [9afea188] (002/142) Accurately ripped
03 [a0647542] (002/142) Accurately ripped
04 [1969e979] (002/141) Accurately ripped
05 [a3fdd5e3] (002/141) Accurately ripped
06 [e27d6089] (002/140) Accurately ripped
07 [927a0a44] (000/131) No match (V2 was not tested)

Track Peak [ CRC32 ] [W/O NULL] [ LOG ]
– 98,7 [FA0AA9D9] [14783DB2] CRC32
01 98,6 [CB8CA455] [40E3D291]
02 98,7 [97839723] [E12C8C14]
03 98,7 [7F39AEC1] [6B0ACEC2]
04 98,7 [090DD148] [2C180AC7]
05 98,6 [282626F7] [4D8853FB]
06 98,7 [50A673E0] [DBE15BBB]
07 98,7 [D5C97D94] [F9E89A82]

Arena - 6 Studio Albums (1995-2018)

Arena - Double Vision (2018)
EAC Rip | FLAC (tracks+.cue+log) - 389 MB | MP3 CBR 320 kbps (LAME 3.93) - 132 MB | Covers - 100 MB
Genre: Neo-Progressive Rock | RAR 3% Rec. | Label: Verglas Music ‎(VGCD042)

Tracklist:
01. Zhivago Wolf
02. The Mirror Lies
03. Scars
04. Paradise Of Thieves
05. Red Eyes
06. Poisoned
07. The Legend Of Elijah Shade

Total time: 56:00

Exact Audio Copy V1.0 beta 3 from 29. August 2011

EAC extraction logfile from 17. August 2018, 16:49

Arena / Double Vision

Used drive : HL-DT-STDVDRAM GH24NSB0 Adapter: 3 ID: 0

Read mode : Secure
Utilize accurate stream : Yes
Defeat audio cache : Yes
Make use of C2 pointers : No

Read offset correction : 6
Overread into Lead-In and Lead-Out : No
Fill up missing offset samples with silence : Yes
Delete leading and trailing silent blocks : No
Null samples used in CRC calculations : Yes
Used interface : Native Win32 interface for Win NT & 2000
Gap handling : Appended to previous track

Used output format : User Defined Encoder
Selected bitrate : 128 kBit/s
Quality : High
Add ID3 tag : No
Command line compressor : C:\Program Files\Exact Audio Copy\FLAC\FLAC.EXE
Additional command line options : -8 -V -T "ARTIST=%artist%" -T "TITLE=%title%" -T "ALBUM=%albumtitle%" -T "DATE=%year%" -T "TRACKNUMBER=%tracknr%" -T "TOTALTRACKS=%numtracks%" -T "GENRE=%genre%" -T "ALBUMARTIST=%albumartist%" -T "ALBUM ARTIST=%albumartist%" -T "COMMENT=EAC Secure Mode, Test & Copy, AccurateRip, FLAC -8" %source%


TOC of the extracted CD

Track | Start | Length | Start sector | End sector
––––––––––––––––––––––––––––-
1 | 0:00.00 | 4:47.70 | 0 | 21594
2 | 4:47.70 | 6:57.38 | 21595 | 52907
3 | 11:45.33 | 5:16.57 | 52908 | 76664
4 | 17:02.15 | 5:10.08 | 76665 | 99922
5 | 22:12.23 | 6:40.46 | 99923 | 129968
6 | 28:52.69 | 4:27.51 | 129969 | 150044
7 | 33:20.45 | 22:39.30 | 150045 | 251999


Track 1

Filename F:\Veushka\Arena - Double Vision (2018)\01 - Zhivago Wolf.wav

Pre-gap length 0:00:02.00

Peak level 98.8 %
Extraction speed 1.2 X
Track quality 100.0 %
Test CRC EBCD48C2
Copy CRC EBCD48C2
Cannot be verified as accurate (confidence 9) [3D711ACF], AccurateRip returned [B46A4E43] (AR v2)
Copy OK

Track 2

Filename F:\Veushka\Arena - Double Vision (2018)\02 - The Mirror Lies.wav

Peak level 98.8 %
Extraction speed 1.4 X
Track quality 100.0 %
Test CRC 02E5ED41
Copy CRC 02E5ED41
Cannot be verified as accurate (confidence 9) [285BBE76], AccurateRip returned [B585F754] (AR v2)
Copy OK

Track 3

Filename F:\Veushka\Arena - Double Vision (2018)\03 - Scars.wav

Peak level 98.8 %
Extraction speed 1.5 X
Track quality 100.0 %
Test CRC 6F6BA2AC
Copy CRC 6F6BA2AC
Cannot be verified as accurate (confidence 9) [25E06B5D], AccurateRip returned [AE5F31DC] (AR v2)
Copy OK

Track 4

Filename F:\Veushka\Arena - Double Vision (2018)\04 - Paradise Of Thieves.wav

Peak level 98.8 %
Extraction speed 1.5 X
Track quality 99.9 %
Test CRC 4231D93E
Copy CRC 4231D93E
Cannot be verified as accurate (confidence 9) [C616480A], AccurateRip returned [310C8B3D] (AR v2)
Copy OK

Track 5

Filename F:\Veushka\Arena - Double Vision (2018)\05 - Red Eyes.wav

Peak level 98.8 %
Extraction speed 1.8 X
Track quality 100.0 %
Test CRC BF479673
Copy CRC BF479673
Cannot be verified as accurate (confidence 9) [22BDA500], AccurateRip returned [A7E25168] (AR v2)
Copy OK

Track 6

Filename F:\Veushka\Arena - Double Vision (2018)\06 - Poisoned.wav

Peak level 98.8 %
Extraction speed 1.8 X
Track quality 100.0 %
Test CRC C1B59C6B
Copy CRC C1B59C6B
Cannot be verified as accurate (confidence 9) [F9B57481], AccurateRip returned [020089D3] (AR v2)
Copy OK

Track 7

Filename F:\Veushka\Arena - Double Vision (2018)\07 - The Legend Of Elijah Shade.wav

Peak level 98.8 %
Extraction speed 2.3 X
Track quality 100.0 %
Test CRC 2432A9F5
Copy CRC 2432A9F5
Cannot be verified as accurate (confidence 9) [691528D5], AccurateRip returned [2869B3F0] (AR v2)
Copy OK


No tracks could be verified as accurate
You may have a different pressing from the one(s) in the database

No errors occurred

End of status report

–– CUETools DB Plugin V2.1.3

[CTDB TOCID: Wx2WYknxpWNS5tlclusG3k9.7DI-] found, Submit result: already submitted
[7526fb3b] (84/85) Accurately ripped
[d3b84e1b] (01/85) No match


==== Log checksum 6EAAA0D5310429C8F0B7380645EDCC14CFEBB94CC9AC59AE4C780D86D446F9C4 ====

[CUETools log; Date: 27.12.2020 22:19:03; Version: 2.1.4]
[CTDB TOCID: Wx2WYknxpWNS5tlclusG3k9.7DI-] found.
Track | CTDB Status
1 | (153/154) Accurately ripped
2 | (153/154) Accurately ripped
3 | (153/154) Accurately ripped
4 | (153/154) Accurately ripped
5 | (153/154) Accurately ripped
6 | (153/154) Accurately ripped
7 | (153/154) Accurately ripped
[AccurateRip ID: 000bf301-004a122f-480d2007] found.
Track [ CRC | V2 ] Status
01 [42c4562b|3d711acf] (00+00/32) No match
02 [39a68b6c|285bbe76] (00+00/32) No match
03 [55835141|25e06b5d] (00+00/32) No match
04 [33b8ef7e|c616480a] (00+00/32) No match
05 [6b8f3587|22bda500] (00+00/32) No match
06 [e5b57641|f9b57481] (00+00/32) No match
07 [4b6c715a|691528d5] (00+00/32) No match
Offsetted by 48:
01 [cbd87c5b] (00/32) No match (V2 was not tested)
02 [e125f69c] (00/32) No match (V2 was not tested)
03 [f1faa631] (00/32) No match (V2 was not tested)
04 [b2243e2e] (00/32) No match (V2 was not tested)
05 [09ec69a7] (00/32) No match (V2 was not tested)
06 [fec313a1] (00/32) No match (V2 was not tested)
07 [5f9f599a] (00/32) No match (V2 was not tested)

Track Peak [ CRC32 ] [W/O NULL] [ LOG ]
– 98,8 [3A0694D3] [53B8AD06]
01 98,8 [EBCD48C2] [568153B6] CRC32
02 98,8 [02E5ED41] [4F112B80] CRC32
03 98,8 [6F6BA2AC] [132145AE] CRC32
04 98,8 [4231D93E] [A4FE2C4C] CRC32
05 98,8 [BF479673] [73D59A45] CRC32
06 98,8 [C1B59C6B] [E7D6CED2] CRC32
07 98,8 [2432A9F5] [69A2B1EC] CRC32

Thanks to Vladimir Merzlov & veushka

See also:
Arena - Unlocking the Cage 1995-2000 (2001)
Arena - Live & Life (2004)