Subcategories
Tags
Language
Tags

Arena - Unlocking the Cage 1995-2000 (2001)

Posted By: gribovar
Arena - Unlocking the Cage 1995-2000 (2001)

Arena - Unlocking the Cage 1995-2000 (2001)
EAC Rip | FLAC (image+.cue+log) - 270 MB | MP3 CBR 320 kbps (LAME 3.93) - 113 MB | Covers - 19 MB
Genre: Neo-Progressive Rock | RAR 3% Rec. | Label: Verglas Music (VGCD030)

Arena, a band who knows what it means to satisfy their fans. Arena has a fanatic fanclub: The Cage. Arena makes regular CD's just to be had for their members. "Unlocking the Cage" is the third one in this tradition. This disc gives a good view of the evolution of Arena over the five years.
The album opens with “Enter”, an instrumental atmospheric piece written by Clive to be used as the intro for “Moviedrome”, the track with which Arena would start it’s show. Deadcertain to be asked back on stage the band rehearsed “Encore medley” which contains loads of big immortal riffs. The nice thing about this release is the fact that it contains tracks from well over five years thus also from a period in time where very few people knew about their existence. Take “Crying for help IV” recorded in an acoustic way with John Carson on vocals, Clive on piano and Keith More on acoustic guitar. The version included here was recorded at the Marillion fanclub convention way back in 1995. Over 1000 people were present and judging from the crowd’s reaction they were pretty much impressed. Carson admits that the band had been rehearsing three times a day for the last three days when he introduces “Jericho” wich once again is delivered in “unplugged” fashion. The harmonies are not your everyday C, S, N & Y but they try their best.
With Clive also being the vocalist in Shadowland and writing a great deal of Arena’s compositions it will not be strange to hear that some of the Arena ideas sport Clive’s vocals. Recorded at night when everyone else was fast asleep “The visitor” sung by Clive was recorded as a form of help for vocalist Paul Wrightson. Great “Journey to the centre of the earth” era Moog syntheszier as well. With a brandnew live album out called “Breakfast at Biarritz”, the live rendition of “Don’t forget to breathe” which was also recorded at Paradiso, does not feature on the official release. Fans will of course be delighted to finally get hold of this recording here to complete their collection. Great fat guitarsound from John Mitchell as well. During the period that Paul Wrightson fronted the band Arena recorded three songs as acoustic versions for radio play. Two are featured here in the form of “State of grace” and “Tears in the rain”. The disc closes with another Rob Sowden sung classic in the form of an acoustic version of “Friday’s dream”. It was recorded at the beginning of the “Immortal” tour in Holland during the band’s ‘bonus acoustic gig’ which followed the regular set.

Tracklist:
01. Enter (The Moviedrome)
02. Encore Medley
03. Crying For Help IV (Acoustic with John Carson)
04. Jericho (Acoustic with John Carson)
05. The Visitor (Clive Nolan Ghost Vocal)
06. Don't Forget to Breathe (Live with Rob Sowden)
07. State of Grace (Acoustic with Paul Wrightson)
08. Tears in the Rain (Acoustic with Paul Wrightson)
09. Friday's Dream (Acoustic with Rob Sowden)

Total time: 48:14

Exact Audio Copy V1.0 beta 3 from 29. August 2011

Отчёт EAC об извлечении, выполненном 7. февраля 2013, 20:56

Arena / Unlocking the Cage 1995 - 2000

Дисковод: TSSTcorpCDDVDW TS-L633J Adapter: 0 ID: 1

Режим чтения : Достоверность
Использование точного потока : Да
Отключение кэша аудио : Да
Использование указателей C2 : Нет

Коррекция смещения при чтении : 6
Способность читать области Lead-in и Lead-out : Нет
Заполнение пропущенных сэмплов тишиной : Да
Удаление блоков с тишиной в начале и конце : Нет
При вычислениях CRC использовались нулевые сэмплы : Да
Интерфейс : Установленный внешний ASPI-интерфейс

Выходной формат : Пользовательский кодировщик
Выбранный битрейт : 128 kBit/s
Качество : Высокий
Добавление ID3-тега : Нет
Утилита сжатия : C:\Program Files\Exact Audio Copy\FLAC\FLAC.EXE
Дополнительные параметры : -6 -V -T "ARTIST=%artist%" -T "TITLE=%title%" -T "ALBUM=%albumtitle%" -T "DATE=%year%" -T "TRACKNUMBER=%tracknr%" -T "GENRE=%genre%" -T "COMMENT=%comment%" -T "BAND=%albuminterpret%" -T "ALBUMARTIST=%albuminterpret%" -T "COMPOSER=%composer%" %haslyrics%–tag-from-file=LYRICS="%lyricsfile%"%haslyrics% -T "DISCNUMBER=%cdnumber%" -T "TOTALDISCS=%totalcds%" -T "TOTALTRACKS=%numtracks%" %hascover%–picture="%coverfile%"%hascover% %source% -o %dest%


TOC извлечённого CD

Трек | Старт | Длительность | Начальный сектор | Конечный сектор
––––––––––––––––––––––––––––––––––-
1 | 0:00.00 | 4:23.13 | 0 | 19737
2 | 4:23.13 | 7:09.68 | 19738 | 51980
3 | 11:33.06 | 5:18.50 | 51981 | 75880
4 | 16:51.56 | 7:26.35 | 75881 | 109365
5 | 24:18.16 | 6:10.29 | 109366 | 137144
6 | 30:28.45 | 5:53.15 | 137145 | 163634
7 | 36:21.60 | 3:05.58 | 163635 | 177567
8 | 39:27.43 | 3:59.37 | 177568 | 195529
9 | 43:27.05 | 4:46.67 | 195530 | 217046


Характеристики диапазона извлечения и сообщения об ошибках

Выбранный диапазон

Имя файла D:\РИПЫ\ARENA\Arena - Unlocking the Cage 1995 - 2000.wav

Пиковый уровень 100.0 %
Скорость извлечения 2.8 X
Качество диапазона 100.0 %
CRC теста 8267CE84
CRC копии 8267CE84
Копирование… OK

Ошибок не произошло


AccurateRip: сводка

Трек 1 отсутствует в базе данных
Трек 2 отсутствует в базе данных
Трек 3 отсутствует в базе данных
Трек 4 отсутствует в базе данных
Трек 5 отсутствует в базе данных
Трек 6 отсутствует в базе данных
Трек 7 отсутствует в базе данных
Трек 8 отсутствует в базе данных
Трек 9 отсутствует в базе данных

Ни одного трека нет в базе AccurateRip

Конец отчёта

–– CUETools DB Plugin V2.1.3

[CTDB TOCID: X7z7toFG.Jdvfn_qQkT3Rg4vZyU-] found, Submit result: X7z7toFG.Jdvfn_qQkT3Rg4vZyU- has been confirmed
[2eaae145] (3/3) Accurately ripped


==== Контрольная сумма отчёта 24863E00CA56A474070AA8CC5A78A3466B40113986299140E0EF7F41C999D736 ====

[CUETools log; Date: 11.06.2017 13:51:10; Version: 2.1.4]
[CTDB TOCID: X7z7toFG.Jdvfn_qQkT3Rg4vZyU-] found.
Track | CTDB Status
1 | (6/6) Accurately ripped
2 | (6/6) Accurately ripped
3 | (6/6) Accurately ripped
4 | (6/6) Accurately ripped
5 | (6/6) Accurately ripped
6 | (6/6) Accurately ripped
7 | (6/6) Accurately ripped
8 | (6/6) Accurately ripped
9 | (6/6) Accurately ripped
[AccurateRip ID: 001183f3-007fa349-720b4d09] found.
Track [ CRC | V2 ] Status
01 [dd8720b1|ac820187] (0+2/6) Accurately ripped
02 [8c04d960|9694a3cf] (0+2/6) Accurately ripped
03 [7c12fa7b|6f642bb1] (0+2/6) Accurately ripped
04 [ae26bc2c|ff908d3e] (0+2/6) Accurately ripped
05 [eef3dd48|02b05b37] (0+2/6) Accurately ripped
06 [17610cd9|7397cbdf] (0+2/6) Accurately ripped
07 [63c65781|d185a2fc] (0+2/6) Accurately ripped
08 [dcd5a3bf|44ce1208] (0+2/6) Accurately ripped
09 [f4f98985|94a5ab75] (0+2/6) Accurately ripped
Offsetted by 30:
01 [7a27d6e7] (2/6) Accurately ripped
02 [9321d764] (2/6) Accurately ripped
03 [8485f867] (2/6) Accurately ripped
04 [10a3ee60] (2/6) Accurately ripped
05 [60671fae] (2/6) Accurately ripped
06 [56e0598b] (2/6) Accurately ripped
07 [c7f10913] (2/6) Accurately ripped
08 [6d987d13] (2/6) Accurately ripped
09 [ed759c37] (2/6) Accurately ripped

Track Peak [ CRC32 ] [W/O NULL] [ LOG ]
– 100,0 [8267CE84] [D43A0B01] CRC32
01 68,3 [6E86A73E] [129B000D]
02 89,0 [A17E0B3D] [60DBE339]
03 84,0 [60237870] [1090D3EB]
04 84,0 [0AAF6224] [D063E1BC]
05 99,9 [6E0C5A58] [12791627]
06 100,0 [C7C1DF45] [2D89DEA0]
07 70,8 [10CC4F24] [40F5139C]
08 70,7 [E6E79095] [91318D00]
09 99,9 [3F966E48] [10C4FBFC]

Thanks to reverse77777