Subcategories

Aretha Franklin - This Christmas (2008) (Repost)

Posted By: BlondStyle
Aretha Franklin - This Christmas (2008) (Repost)

Aretha Franklin - This Christmas (2008)
R&B, Holiday, Soul | EAC Rip | APE + CUE + LOG + Covers | 51:09 Min | 335,04 Mb
MP3 | 320 Kbps | Covers | 130,71 Mb
Label: DMI | Released: October 14, 2008

This Christmas, Aretha is the 2008 Christmas album by Aretha Franklin on DMI Records. It is her first ever Christmas album in her 52 year career of releasing albums. Though she has started her own label, Aretha Records, she chose to release this album on DMI Records. It debuted at #103 on the US Top 200.

TrackList:

01. "Angels We Have Heard On High" (James Chadwick) (5:26)
02. "This Christmas (with Edward Franklin)" (Donny Hathaway & Nadine McKinnor) (5:23)
03. "My Grown-Up Christmas List" (David Foster & Linda Thompson Jenner) (5:15)
04. "The Lord Will Make A Way" (Traditional, Arranged by Aretha Franklin) (5:43)
05. "Silent Night" (Franz Gruber & Josef Mohr) (5:06)
06. "Ave Maria" (Johann Sebastian Bach & Charles Gounod) (4:57)
07. "Christmas Ain't Christmas (Without The One You Love)" (Kenneth Gamble & Leon Huff) (3:53)
08. "14 Angels" (Engelbert Humperdinck, Arranged by Aretha Franklin) (2:08)
09. "One Night With The King" (Jeannie Tenney) (6:09)
10. "Hark! The Herald Angels Sing" (Charles Wesley & Felix Mendelssohn) (5:24)
11. "'Twas the Night Before Christmas" (Clement C. Moore; Adaptation by Aretha Franklin) (1:52)

Exact Audio Copy V0.99 prebeta 4 from 23. January 2008

Отчёт EAC об извлечении, выполненном 27. декабря 2009, 18:32

Aretha Franklin / This Christmas

Дисковод: ATAPI DVD DW 8X16X8X16 Adapter: 0 ID: 2

Режим чтения : Достоверность
Использование точного потока : Да
Отключение кэша аудио : Да
Использование указателей C2 : Нет

Коррекция смещения при чтении : 618
Способность читать области Lead-in и Lead-out : Нет
Заполнение пропущенных сэмплов тишиной : Да
Удаление блоков с тишиной в начале и конце : Нет
При вычислениях CRC использовались нулевые сэмплы : Да
Интерфейс : Встроенный Win32-интерфейс для Win NT/2000

Выходной формат : Внутренние WAV-операции
Формат сэмплов : 44.100 Гц; 16 бит; стерео


TOC извлечённого CD

Трек | Старт | Длительность | Начальный сектор | Конечный сектор
––––––––––––––––––––––––––––––––––-
1 | 0:00.00 | 5:25.69 | 0 | 24443
2 | 5:25.69 | 5:22.42 | 24444 | 48635
3 | 10:48.36 | 5:14.52 | 48636 | 72237
4 | 16:03.13 | 5:43.02 | 72238 | 97964
5 | 21:46.15 | 5:06.28 | 97965 | 120942
6 | 26:52.43 | 4:56.45 | 120943 | 143187
7 | 31:49.13 | 3:52.54 | 143188 | 160641
8 | 35:41.67 | 2:08.08 | 160642 | 170249
9 | 37:50.00 | 6:08.60 | 170250 | 197909
10 | 43:58.60 | 5:24.14 | 197910 | 222223
11 | 49:22.74 | 1:51.55 | 222224 | 230603


Характеристики диапазона извлечения и сообщения об ошибках

Выбранный диапазон

Имя файла C:\Documents and Settings\OEM\Мои документы\Мои аудиозаписи\Aretha Franklin - This Christmas.wav

Пиковый уровень 99.7 %
Качество диапазона 100.0 %
CRC копии 3D86C930
Копирование… OK

Ошибок не произошло


AccurateRip: сводка

Трек 1 точное извлечение (доверие 4) [B98436ED]
Трек 2 точное извлечение (доверие 4) [CF270EE3]
Трек 3 точное извлечение (доверие 4) [1C4A5E7C]
Трек 4 точное извлечение (доверие 4) [340110C0]
Трек 5 точное извлечение (доверие 4) [3ECA28C0]
Трек 6 точное извлечение (доверие 4) [3FFE88D0]
Трек 7 точное извлечение (доверие 4) [4F36D371]
Трек 8 точное извлечение (доверие 4) [643BE979]
Трек 9 точное извлечение (доверие 4) [1D300372]
Трек 10 точное извлечение (доверие 4) [BC6466A4]
Трек 11 точное извлечение (доверие 4) [0FF09BC3]

Все треки извлечены точно

Конец отчёта


All Download Links
are Here


Password: www.AvaxHome.ru

P.S.
Sorry guys for this secrecy but such way will help to save the links from deleting
and it much more better than crappy and greedy so called "linkprotectors".

No Mirror Please