Tags
Language
Tags

Aretha Franklin - Aretha (1961) [2008, Remastered with Bonus Tracks]

Posted By: BlondStyle
Aretha Franklin - Aretha (1961) [2008, Remastered with Bonus Tracks]

Aretha Franklin - Aretha (1961) [2008, Remastered with Bonus Tracks]
R&B, Soul, Jazz, Blues, Vocal | EAC Rip | FLAC, Img+CUE+LOG+Scans (PNG) | 45:12 Min | 686,51 Mb
Label: Blue Label/SPV GmbH (Germany) | Cat.# SPV 42892 CD | Released: 2008-09-08 (1961-02-27)
Aretha Franklin - Aretha (1961) [2008, Remastered with Bonus Tracks]

"Aretha: With The Ray Bryant Combo" is the second studio album by American singer songwriter, Aretha Franklin, released on February 27, 1961 by Columbia Records. The album is Aretha's first release for Columbia, and is also known under its working title "Right Now It's Aretha" and sometimes simply as "Aretha". Following in the footsteps of her close friend Sam Cooke, Aretha was "discovered" by famed Columbia Records producer John H. Hammond, who on the cover notes of the 1973 edition of "The Great Aretha Franklin: The First 12 Sides" mentions, that she was in fact recommended by the composer Curtis Reginald Lewis. With the support of her father, Reverend C.L. Franklin, Aretha ventured out to New York City's Columbia Record Studios to record her debut album for the label. Hammond paired Aretha Franklin with Ray Bryant, and combo and arranger J. Leslie McFarland, while taking charge of the album's production, which was received to mixed reviews. The album showcases a young Aretha Franklin (only 18 nearly 19 years old, at the time of these recordings), covering a range of jazz and pop standards. Columbia Records couldn't clearly classify Aretha's sound, as either jazz or R&B. Aretha's subsequent albums would show her moving from the realms of both sounds, and audiences as she tries to define her "own soulful sound".
~Wikipedia

Aretha Franklin - Aretha (1961) [2008, Remastered with Bonus Tracks]

"The word is out. A magnetic new artist, Aretha Franklin, only a short while away from her father's gospel church in Detroit, has been breaking up audience in theatres and nightclubs throughout the country and on Columbia single records. Combining a completely natural and uninhibited vocal style with an irresistible rhythmic sense, Aretha Franklin has established herself as one of the hottest new performers in show business and one likely to set new standards in the entertainment industry..."She doesn't just open the door - she breaks it down."
~From the original LP's liner notes by Frank Driggs

Aretha Franklin - Aretha (1961) [2008, Remastered with Bonus Tracks]

Aretha Franklin - Aretha (1961) [2008, Remastered with Bonus Tracks]




Release of this album: 1961, February, 27 [LP Columbia Records, Cat.# CL 1612 (Mono) / CS 8412 (Stereo), USA]
Release of this CD: 2008, September, 8 [CD Blue Label/SPV GmbH (Germany), Cat.# SPV 42892 CD, UPC: 693723428925]
This compilation ℗ 2008 Blue Label. Original Artwork © 2008 Blue Label.
Issued under licence from Sony Music Entertainment (UK) Ltd. 2008 by Blue Label, a division of SVP GmbH.
Distributed by SVP GmbH.
Made in Germany


Credits:

Mastered By – Roger Lomas
Photography By – Mainartery


Tracklist:

01. Won't Be Long (03:21)
(J.L. McFarland)
02. Over The Rainbow (02:38)
(E. Harburg, H. Arlen)
03. Love Is The Only Thing (02:43)
(J.L. McFarland)
04. Sweet Lover (03:21)
(J.L. McFarland, S. Wyche)
05. All Night Long (03:05)
(C. Lewis)
06. Who Needs You? (02:50)
(B. Holiday, J. Burns)
07. Right Now (02:23)
(J.L. McFarland)
08. Are You Sure (02:41)
(M. Willson)
09. Maybe I'm A Fool (03:16)
(J.L. McFarland)
10. It Ain't Necessarily So (03:07)
(I. Gershwin/G. Gershwin)
11. (Blue) By Myself (02:38)
(J.L. McFarland, J. Bailey)
12. Today I Sing The Blues (02:50)
(C. Lewis)

Bonus Tracks:

13. Rock-a-bye Your Baby With A Dixie Melody (02:23)
(J. Shwartz, J. Young, S. Lewis)
14. It's So Heartbreakin' (02:39)
(J.L. McFarland)
15. Just For You (02:20)
(J.L. McFarland, J. Bailey)
16. Operation Heartbreak (02:56)
(A. Kasha, A. Thomas, C. Williams)

Exact Audio Copy V1.3 from 2. September 2016

EAC extraction logfile from 16. August 2018, 21:38

Aretha Franklin / Aretha

Used drive : PIONEER BD-RW BDR-208D Adapter: 1 ID: 0

Read mode : Secure
Utilize accurate stream : Yes
Defeat audio cache : Yes
Make use of C2 pointers : No

Read offset correction : 667
Overread into Lead-In and Lead-Out : No
Fill up missing offset samples with silence : Yes
Delete leading and trailing silent blocks : No
Null samples used in CRC calculations : Yes
Used interface : Native Win32 interface for Win NT & 2000

Used output format : Internal WAV Routines
Sample format : 44.100 Hz; 16 Bit; Stereo


TOC of the extracted CD

Track | Start | Length | Start sector | End sector
––––––––––––––––––––––––––––-
1 | 0:00.00 | 3:20.45 | 0 | 15044
2 | 3:20.45 | 2:38.37 | 15045 | 26931
3 | 5:59.07 | 2:43.05 | 26932 | 39161
4 | 8:42.12 | 3:21.17 | 39162 | 54253
5 | 12:03.29 | 3:05.26 | 54254 | 68154
6 | 15:08.55 | 2:49.50 | 68155 | 80879
7 | 17:58.30 | 2:22.72 | 80880 | 91601
8 | 20:21.27 | 2:40.40 | 91602 | 103641
9 | 23:01.67 | 3:15.68 | 103642 | 118334
10 | 26:17.60 | 3:07.11 | 118335 | 132370
11 | 29:24.71 | 2:37.74 | 132371 | 144219
12 | 32:02.70 | 2:50.04 | 144220 | 156973
13 | 34:52.74 | 2:23.25 | 156974 | 167723
14 | 37:16.24 | 2:39.30 | 167724 | 179678
15 | 39:55.54 | 2:19.44 | 179679 | 190147
16 | 42:15.23 | 2:56.22 | 190148 | 203369


Range status and errors

Selected range

Filename D:\BlondStyle\Aretha Franklin - Aretha.wav

Peak level 100.0 %
Extraction speed 6.6 X
Range quality 100.0 %
Test CRC 30B7B2A7
Copy CRC 30B7B2A7
Copy OK

No errors occurred


AccurateRip summary

Track 1 accurately ripped (confidence 2) [BD225188] (AR v1)
Track 2 accurately ripped (confidence 2) [F017768C] (AR v1)
Track 3 accurately ripped (confidence 2) [D3804E7E] (AR v1)
Track 4 accurately ripped (confidence 2) [C44B5F0A] (AR v1)
Track 5 accurately ripped (confidence 2) [344F3972] (AR v1)
Track 6 accurately ripped (confidence 2) [DBF3619F] (AR v1)
Track 7 accurately ripped (confidence 2) [BC00F35D] (AR v1)
Track 8 accurately ripped (confidence 2) [991DDB34] (AR v1)
Track 9 accurately ripped (confidence 2) [D5414103] (AR v1)
Track 10 accurately ripped (confidence 2) [AA4652C3] (AR v1)
Track 11 accurately ripped (confidence 2) [4B265F03] (AR v1)
Track 12 accurately ripped (confidence 2) [87213EC0] (AR v1)
Track 13 accurately ripped (confidence 2) [EC5D694C] (AR v1)
Track 14 accurately ripped (confidence 2) [E45B5F3B] (AR v1)
Track 15 accurately ripped (confidence 2) [49502BAD] (AR v1)
Track 16 accurately ripped (confidence 2) [95567EDC] (AR v1)

All tracks accurately ripped

End of status report

–– CUETools DB Plugin V2.1.6

[CTDB TOCID: ADjHPII3QEiCUzLiWY0VW.niobE-] found
Submit result: ADjHPII3QEiCUzLiWY0VW.niobE- has been confirmed
Track | CTDB Status
1 | (4/4) Accurately ripped
2 | (4/4) Accurately ripped
3 | (4/4) Accurately ripped
4 | (4/4) Accurately ripped
5 | (4/4) Accurately ripped
6 | (4/4) Accurately ripped
7 | (4/4) Accurately ripped
8 | (4/4) Accurately ripped
9 | (4/4) Accurately ripped
10 | (4/4) Accurately ripped
11 | (4/4) Accurately ripped
12 | (4/4) Accurately ripped
13 | (4/4) Accurately ripped
14 | (4/4) Accurately ripped
15 | (4/4) Accurately ripped
16 | (4/4) Accurately ripped


==== Log checksum A7C9F6C3CC3AA8DA41B9A72FC974F232B6F7DCD7005D2A13C260A474DBDC99DD ====

––––––––––––––––––––––––––––––––––––––––
Analyzed: Aretha Franklin / Aretha
––––––––––––––––––––––––––––––––––––––––

DR Peak RMS Duration Track
––––––––––––––––––––––––––––––––––––––––
DR11 0.00 dB -12.81 dB 3:21 01-Won't Be Long
DR10 0.00 dB -15.54 dB 2:38 02-Over The Rainbow
DR12 0.00 dB -14.94 dB 2:43 03-Love Is The Only Thing
DR11 0.00 dB -13.79 dB 3:21 04-Sweet Lover
DR11 0.00 dB -15.10 dB 3:05 05-All Night Long
DR12 0.00 dB -13.23 dB 2:50 06-Who Needs You?
DR11 0.00 dB -13.97 dB 2:23 07-Right Now
DR11 0.00 dB -13.56 dB 2:41 08-Are You Sure?
DR11 0.00 dB -13.33 dB 3:16 09-Maybe I'm A Fool
DR13 0.00 dB -16.22 dB 3:07 10-It Ain't Necessarily So
DR10 0.00 dB -13.87 dB 2:38 11-(Blue) By Myself
DR11 0.00 dB -14.07 dB 2:50 12-Today I Sing The Blues
DR11 0.00 dB -14.37 dB 2:23 13-Rock-A-Bye Your Baby With A Dixie Melody (Bonus Track)
DR12 0.00 dB -15.71 dB 2:39 14-It's So Heartbreakin' (Bonus Track)
DR11 0.00 dB -14.68 dB 2:20 15-Just For You (Bonus Track)
DR11 0.00 dB -13.79 dB 2:56 16-Operation Heartbreak (Bonus Track)
––––––––––––––––––––––––––––––––––––––––

Number of tracks: 16
Official DR value: DR11

Samplerate: 44100 Hz
Channels: 2
Bits per sample: 16
Bitrate: 713 kbps
Codec: FLAC
================================================================================

See also:


password: BlondStyle