Tags
Language
Tags

Aretha Franklin - Get It Right (1983) [1993, Reissue]

Posted By: BlondStyle
Aretha Franklin - Get It Right (1983) [1993, Reissue]

Aretha Franklin - Get It Right (1983) [1993, Reissue]
R&B, Soul/Funk, Electronic | EAC Rip | FLAC, Img+CUE+LOG+Scans (PNG) | 40:03 Min | 339,83 Mb
Label: Arista / BMG Records (Germany) | Cat.# 74321 14018 2 | Released: 1993 (1983)
Aretha Franklin - Get It Right (1983) [1993, Reissue]

"Get It Right" is the thirty-second studio album by American singer Aretha Franklin. It was produced by Luther Vandross, following his successful teaming with the singer for the Gold-certified album, "Jump To It", in 1982. The disc's title song became a #1 hit on Billboard's R&B singles chart - knocking Donna Summer out of the top spot - but it stalled at only #61 on the Billboard Hot 100. The album was a critical and commercial failure, selling about 200,000 US copies. It was belatedly issued on compact disc in the 1990s.
~Wikipedia

Luther Vandross scored a popular success with Jump to It, but this follow-up is less impressive and proved less successful. Vandross wrote most of the material, including the number one R&B title track and the R&B Top Ten hit "Every Girl (Wants My Guy)," although he also has Franklin tackle the Temptations hit "I Wish It Would Rain," in a painfully overwrought production. With this record, what had seemed to be an artist/producer marriage made in heaven hit the rocks.
~Review by William Ruhlmann

Aretha Franklin - Get It Right (1983) [1993, Reissue]

Aretha Franklin - Get It Right (1983) [1993, Reissue]


Release of this album: 1983, July [LP Arista, Cat.# AL 8-8019, USA]
Release of this CD: 1993 [CD Arista / BMG Records (Germany), Cat.# 74321 14018 2 / UPC: 743211401821]
℗ 1983 Arista Records, inc. © 1993 BMG Records.
Distributed by BMG. A Bertelsmann Music Group Company.
Printed in Germany.
Made in Germany


Credits:

Art Direction – Donn Davenport
Bass – Marcus Miller
Coordinator [Production] – Sephra Herman
Design – Howard Fritzson
Drums – Yogi Horton
Engineer [Additional Engineering, Assistant Engineer] – Michael Christopher
Engineer [Assistant] – Mark Cobrin
Engineer [Maintenance Engineer] – Don Cuminale
Guitar – Doc Powell
Horns – Allan Rubin, George Young, Greg Williams, James Pugh, John Clark, Jon Faddis, Lew Soloff, Lou Marini, Peter Gordon , Ronnie Cuber, Tom Malone
Keyboards – Nat Adderley, Jr.
Mixed By – Michael H. Brauer
Other [Additional Assistant] – Paul Brocek
Other [Hairstylist] – Andre Douglas, Carlton B. Northern
Other [Make-up] – Way Bandy
Other [Wardrobe] – Rachel Crespin
Photography By – Francesco Scavullo
Producer – Luther Vandross
Strings – Alfred Brown, Barry Finclair, Elena Barere, Manny Vardi, Guy Lumia, Harold Kohon, Harry Zaratzian, Homer Mensch, Jan Mullen, Jean Dane, Jesse Levy, John Beal, John Pintavalle, Jonathan Abramowitz, Joseph Rabushka, Judy Geist, Julien Barber, Kathryn Kienke, Kermit Moore, Lamar Alsop, Lewis Eley, Margaret Ross, Marilyn Wright, Regis Iandiorio, Richard Sortomme, Richard Young , Sanford Allen, Sue Prey, Winterton Garvey


Tracklist:

01. "Get It Right" (06:19)
(Luther Vandross, Marcus Miller)
02. "Pretender" (04:18)
(Luther Vandross, Marcus Miller)
03. "Every Girl (Wants My Guy)" (06:32)
(Luther Vandross, Marcus Miller)
04. "When You Love Me Like That" (03:50)
(Luther Vandross, Marcus Miller)
05. "I Wish It Would Rain" (04:40)
(Barrett Strong, Norman Whitfield, Roger Penzabene)
06. "Better Friends Than Lovers" (04:13)
(Michael Lovesmith)
07. "I Got Your Love" (05:31)
(Luther Vandross)
08. "Giving In" (04:40)
(Clarence Franklin)

Exact Audio Copy V1.3 from 2. September 2016

EAC extraction logfile from 29. August 2017, 16:08

Aretha Franklin / Get It Right

Used drive : PIONEER BD-RW BDR-208D Adapter: 1 ID: 0

Read mode : Secure
Utilize accurate stream : Yes
Defeat audio cache : Yes
Make use of C2 pointers : No

Read offset correction : 667
Overread into Lead-In and Lead-Out : No
Fill up missing offset samples with silence : Yes
Delete leading and trailing silent blocks : No
Null samples used in CRC calculations : Yes
Used interface : Native Win32 interface for Win NT & 2000

Used output format : Internal WAV Routines
Sample format : 44.100 Hz; 16 Bit; Stereo


TOC of the extracted CD

Track | Start | Length | Start sector | End sector
––––––––––––––––––––––––––––-
1 | 0:00.33 | 6:18.65 | 33 | 28447
2 | 6:19.23 | 4:18.12 | 28448 | 47809
3 | 10:37.35 | 6:32.20 | 47810 | 77229
4 | 17:09.55 | 3:50.25 | 77230 | 94504
5 | 21:00.05 | 4:39.48 | 94505 | 115477
6 | 25:39.53 | 4:12.72 | 115478 | 134449
7 | 29:52.50 | 5:30.58 | 134450 | 159257
8 | 35:23.33 | 4:39.40 | 159258 | 180222


Range status and errors

Selected range

Filename D:\BlondStyle\Aretha Franklin - Get It Right.wav

Peak level 98.3 %
Extraction speed 4.1 X
Range quality 100.0 %
Test CRC E79040C7
Copy CRC E79040C7
Copy OK

No errors occurred


AccurateRip summary

Track 1 accurately ripped (confidence 2) [586EC4CF] (AR v1)
Track 2 accurately ripped (confidence 2) [BB4872D9] (AR v1)
Track 3 accurately ripped (confidence 2) [23883D30] (AR v1)
Track 4 accurately ripped (confidence 2) [BC59D514] (AR v1)
Track 5 accurately ripped (confidence 2) [71919A59] (AR v1)
Track 6 accurately ripped (confidence 2) [44306412] (AR v1)
Track 7 accurately ripped (confidence 2) [66417052] (AR v1)
Track 8 accurately ripped (confidence 2) [12E21E99] (AR v1)

All tracks accurately ripped

End of status report

–– CUETools DB Plugin V2.1.6

[CTDB TOCID: 09LTLhC2EICNJegAd6IU02MWdDU-] found
Submit result: 09LTLhC2EICNJegAd6IU02MWdDU- has been confirmed
Track | CTDB Status
1 | (3/3) Accurately ripped
2 | (3/3) Accurately ripped
3 | (3/3) Accurately ripped
4 | (3/3) Accurately ripped
5 | (3/3) Accurately ripped
6 | (3/3) Accurately ripped
7 | (3/3) Accurately ripped
8 | (3/3) Accurately ripped


==== Log checksum 550A7871355901985FF86B2CB0695BF46513EB22B0C722910FB6C2F6ADDE3B68 ====

––––––––––––––––––––––––––––––––––––––––
Analyzed: Aretha Franklin / Get It Right
––––––––––––––––––––––––––––––––––––––––

DR Peak RMS Duration Track
––––––––––––––––––––––––––––––––––––––––
DR13 -0.20 dB -15.20 dB 6:19 01-Get It Right
DR12 -0.40 dB -14.89 dB 4:18 02-Pretender
DR12 -0.36 dB -15.13 dB 6:32 03-Every Girl (Wants My Guy)
DR12 -0.27 dB -14.32 dB 3:50 04-When You Love Me Like That
DR12 -0.63 dB -15.57 dB 4:40 05-I Wish It Would Rain
DR11 -2.10 dB -15.95 dB 4:13 06-Better Friends Than Lovers
DR12 -0.15 dB -14.53 dB 5:31 07-I Got Your Love
DR12 -0.28 dB -15.11 dB 4:40 08-Giving In
––––––––––––––––––––––––––––––––––––––––

Number of tracks: 8
Official DR value: DR12

Samplerate: 44100 Hz
Channels: 2
Bits per sample: 16
Bitrate: 855 kbps
Codec: FLAC
================================================================================

See also:


password: BlondStyle