Tags
Language
Tags

Aretha Franklin - Hey Now Hey (The Other Side Of The Sky) (1973) [1994, Remastered with Bonus Track]

Posted By: BlondStyle
Aretha Franklin - Hey Now Hey (The Other Side Of The Sky) (1973) [1994, Remastered with Bonus Track]

Aretha Franklin - Hey Now Hey (The Other Side Of The Sky) (1973) [1994, Remastered with Bonus Track]
R&B, Soul, Blues, Soul-Jazz | EAC Rip | FLAC, Img+CUE+LOG+Scans (PNG) | 51:10 | 404,02 Mb
Label: Atlantic/Rhino Records (EU) | Cat.# 8122-71853-2 | Released: 1994-12-13 (1973-06-25)

"Hey Now Hey (The Other Side of the Sky)" is the 19th studio album by American singer-songwriter Aretha Franklin. Released on June 25, 1973, by Atlantic Records, It was the first Atlantic album by Aretha to miss the Top 25 of the main Billboard chart. (It peaked at #30 but reached #2 on the R&B albums listing.) This album was originally planned to be a straight jazz album with songs like "Moody's Mood" and "Just Right Tonight", but producers Franklin and Quincy Jones took a detour and produced songs like "Mister Spain" and the title cut. Notable songs include the #1 R&B and Top 20 pop single "Angel" written by Aretha's younger sister, Carolyn Franklin, as well as a cover of "Somewhere" which features Franklin on piano and Phil Woods on alto saxophone. This recording was reissued on compact disc through Rhino Records in the 1990s. The song "Master of Eyes" was included as the tenth track on the reissue. Even though it was a single, it was not included on the first release.
~Wikipedia

Aretha Franklin - Hey Now Hey (The Other Side Of The Sky) (1973) [1994, Remastered with Bonus Track]

Hey Now Hey (The Other Side of the Sky) was just about Franklin's last gasp before succumbing to disco. This odd album, with its cheesy, junky artwork, contains some gems - notable are a poignant cover of Bernstein's "Somewhere," and a sparkling "Moody's Mood," and the beautiful Carolyn Franklin composition "Angel."
~Review by Ron Wynn

Aretha Franklin - Hey Now Hey (The Other Side Of The Sky) (1973) [1994, Remastered with Bonus Track]

Aretha Franklin - Hey Now Hey (The Other Side Of The Sky) (1973) [1994, Remastered with Bonus Track]


Release of this album: 1973, June, 25 [LP Atlantic Records, Cat.# SD 7265, USA]
Release of this CD: 1994, December, 13 [CD Atlantic/Rhino Records (EU), Cat.# 8122-71853-2, UPC: 081227185329]
This reissue ℗ 1973, © 1973 & 1994 Atlantic Recording Corporation.
Manufactured & Marketed by Rhino Records Inc.
Made in Germany by Warner Music Manufacturing Europe.


Note: Remastered Reissue with 1 Bonus Track. A part of 'Atlantic & ATCO Remasters' Series.

Credits:

Design [Album] – Aretha Franklin, Jim Dunn, Ken Cunningham
Engineer [Recording] – Phil Schier
Engineer [Remix] – Gene Paul (tracks: 1), Phil Schier (tracks: 2 to 10), Quincy Jones (tracks: 2 to 10)
Illustration – Jim Dunn
Producer – Aretha Franklin, Quincy Jones
Remastered By – Bill Inglot, Dan Hersch


Tracklist:

01. Hey Now Hey (The Other Side Of The Sky) (04:44)
(Aretha Franklin)
02. Somewhere (06:20)
(Leonard Bernstein, Stephen Sondheim)
03. So Swell When You're Well (04:17)
(James Booker, Aretha Franklin)
04. Angel (04:30)
(Carolyn Franklin, Sonny Sanders)
05. Sister From Texas (03:13)
(Aretha Franklin)
06. Mister Spain (06:47)
(Carolyn Plummer)
07. That's The Way I Feel About Cha (07:08)
(Bobby Womack, Jim Grisby, Joe Hicks)
08. Moody's Mood (03:00)
(James Moody, Jimmy McHugh, Dorothy Fields)
09. Just Right Tonight (07:46)
(Aretha Franklin, Avery Parrish, Buddy Feyne, Quincy Jones, Robert Bruce)
Bonus Track:
10. Master Of Eyes (The Deepness Of Your Eyes) (03:24)
(Aretha Franklin, Bernice Hart)

Exact Audio Copy V1.3 from 2. September 2016

EAC extraction logfile from 26. September 2021, 14:20

Aretha Franklin / Hey Now Hey (The Other Side Of The Sky)

Used drive : PIONEER BD-RW BDR-208D Adapter: 1 ID: 0

Read mode : Secure
Utilize accurate stream : Yes
Defeat audio cache : Yes
Make use of C2 pointers : No

Read offset correction : 667
Overread into Lead-In and Lead-Out : No
Fill up missing offset samples with silence : Yes
Delete leading and trailing silent blocks : No
Null samples used in CRC calculations : Yes
Used interface : Native Win32 interface for Win NT & 2000

Used output format : Internal WAV Routines
Sample format : 44.100 Hz; 16 Bit; Stereo


TOC of the extracted CD

Track | Start | Length | Start sector | End sector
––––––––––––––––––––––––––––-
1 | 0:00.00 | 4:44.32 | 0 | 21331
2 | 4:44.32 | 6:19.60 | 21332 | 49816
3 | 11:04.17 | 4:17.30 | 49817 | 69121
4 | 15:21.47 | 4:29.60 | 69122 | 89356
5 | 19:51.32 | 3:13.13 | 89357 | 103844
6 | 23:04.45 | 6:47.00 | 103845 | 134369
7 | 29:51.45 | 7:08.07 | 134370 | 166476
8 | 36:59.52 | 3:00.20 | 166477 | 179996
9 | 39:59.72 | 7:45.48 | 179997 | 214919
10 | 47:45.45 | 3:24.37 | 214920 | 230256


Range status and errors

Selected range

Filename D:\BlondStyle\Aretha Franklin - Hey Now Hey (The Other Side Of The Sky).wav

Peak level 97.2 %
Extraction speed 6.6 X
Range quality 100.0 %
Test CRC EA7198C7
Copy CRC EA7198C7
Copy OK

No errors occurred


AccurateRip summary

Track 1 cannot be verified as accurate (confidence 32) [A17367C5], AccurateRip returned [D64C4C0E] (AR v2)
Track 2 cannot be verified as accurate (confidence 32) [7FFFBD87], AccurateRip returned [F05840D0] (AR v2)
Track 3 cannot be verified as accurate (confidence 32) [8FD00A0B], AccurateRip returned [B5DB119D] (AR v2)
Track 4 cannot be verified as accurate (confidence 32) [141E85F0], AccurateRip returned [4784E638] (AR v2)
Track 5 cannot be verified as accurate (confidence 32) [EF983093], AccurateRip returned [D867CF5A] (AR v2)
Track 6 cannot be verified as accurate (confidence 32) [A8409110], AccurateRip returned [A3D58CFB] (AR v2)
Track 7 cannot be verified as accurate (confidence 32) [25B5B9CC], AccurateRip returned [7494AE2E] (AR v2)
Track 8 cannot be verified as accurate (confidence 32) [40730398], AccurateRip returned [9DC17E45] (AR v2)
Track 9 cannot be verified as accurate (confidence 32) [DC7D250C], AccurateRip returned [CCC1A538] (AR v2)
Track 10 cannot be verified as accurate (confidence 32) [19E45C2D], AccurateRip returned [454CBE7E] (AR v2)

No tracks could be verified as accurate
You may have a different pressing from the one(s) in the database

End of status report

–– CUETools DB Plugin V2.1.6

[CTDB TOCID: LBiDMceUkIhtEJ3x60S3xHthoNw-] found
Submit result: LBiDMceUkIhtEJ3x60S3xHthoNw- has been confirmed
Track | CTDB Status
1 | (68/68) Accurately ripped
2 | (68/68) Accurately ripped
3 | (68/68) Accurately ripped
4 | (68/68) Accurately ripped
5 | (68/68) Accurately ripped
6 | (68/68) Accurately ripped
7 | (68/68) Accurately ripped
8 | (68/68) Accurately ripped
9 | (68/68) Accurately ripped
10 | (68/68) Accurately ripped


==== Log checksum 9C0A5482580E885E78C30005CC13D6810A9CF00C03B5414A3A18175171412298 ====

––––––––––––––––––––––––––––––––––––––––
Analyzed: Aretha Franklin / Hey Now Hey (The Other Side Of The Sky)
––––––––––––––––––––––––––––––––––––––––

DR Peak RMS Duration Track
––––––––––––––––––––––––––––––––––––––––
DR10 -0.24 dB -12.07 dB 4:44 01-Hey Now Hey (The Other Side Of The Sky)
DR11 -0.34 dB -16.14 dB 6:20 02-Somewhere
DR11 -0.24 dB -12.86 dB 4:17 03-So Swell When You're Well
DR9 -0.24 dB -11.72 dB 4:30 04-Angel
DR9 -0.24 dB -11.42 dB 3:13 05-Sister From Texas
DR9 -0.24 dB -11.99 dB 6:47 06-Mister Spain
DR8 -0.24 dB -10.73 dB 7:08 07-That's The Way I Feel About Cha
DR9 -0.24 dB -12.36 dB 3:00 08-Moody's Mood
DR7 -0.24 dB -11.17 dB 7:46 09-Just Right Tonight
DR8 -0.24 dB -10.24 dB 3:24 10-Master Of Eyes (The Deepness Of Your Eyes) (Bonus Track)
––––––––––––––––––––––––––––––––––––––––

Number of tracks: 10
Official DR value: DR9

Samplerate: 44100 Hz
Channels: 2
Bits per sample: 16
Bitrate: 850 kbps
Codec: FLAC
================================================================================

See also:

♫~Welcome To My Blog~♫

password: BlondStyle