Tags
Language
Tags

Aretha Franklin - Let Me In Your Life (1974) [2006, Japanese Paper Sleeve Mini-LP CD]

Posted By: BlondStyle
Aretha Franklin - Let Me In Your Life (1974) [2006, Japanese Paper Sleeve Mini-LP CD]

Aretha Franklin - Let Me In Your Life (1974) [2006, Japanese Paper Sleeve Mini-LP CD]
R&B, Soul, Blues, Soul-Jazz | EAC Rip | FLAC, Img+CUE+LOG+Scans (PNG) | 43:28 | 464,80 Mb
Label: Atlantic/Vivid Sound (Japan) | Cat.# VSCD-312 (WQCP-426) | Released: 2006-06-21 (1974-02-25)
Aretha Franklin - Let Me In Your Life (1974) [2006, Japanese Paper Sleeve Mini-LP CD]

"Let Me In Your Life" is the 20th studio album by American singer Aretha Franklin, released on February 25, 1974 by Atlantic Records. This was one of Aretha's top-selling Atlantic Records albums. The album hit #1 on Billboard's R&B albums chart and reached #14 on Billboard's main album chart, missing the Gold standard by a small margin. Featuring three hit singles, it is regarded as one of Franklin's best Atlantic recordings.
~Wikipedia
A nice, if at times overbearing, mid-'70s Franklin set. She was still singing with the stunning delivery, amazing timing, and majestic soul that highlighted her late-'60s releases. Her version of "Until You Come Back to Me (That's What I'm Gonna Do)" is the only one that might be superior to Stevie Wonder's great original, while "I'm in Love" and the title cut are prime Franklin.
~Review by Ron Wynn

Aretha Franklin - Let Me In Your Life (1974) [2006, Japanese Paper Sleeve Mini-LP CD]

Aretha Franklin - Let Me In Your Life (1974) [2006, Japanese Paper Sleeve Mini-LP CD]




Release of the album: 1974, February, 25 [LP Atlantic Records, Cat.# SD 7292, USA]
Release of this CD: 2006, June, 21 [CD Atlantic/Vivid Sound (Japan), Cat.# VSCD-312 (WQCP-426), EAN: 4540399003122]
℗&© 1974 Atlantic Recording Corporation.
Manufactured by Warner Music Japan Inc., a Warner Music Group Company.
Made in Japan


Credits:

Arranged By – William Eaton (tracks: 3 to 5)
Arranged By [Horns] – Arif Mardin (tracks: 1, 2, 4, 7 to 11)
Arranged By [Strings] – Arif Mardin (tracks: 2, 4, 7 to 11)
Backing Vocals – Ann S. Clark (tracks: 2, 5, 7, 9), Margaret Branch (tracks: 2, 5, 7, 9), Pat Smith (tracks: 2, 5, 7, 9)
Bass – Chuck Rainey (tracks: 2, 5, 6, 8), Stan Clarke (tracks: 1, 3, 4, 6), Willie Weeks (tracks: 8, 10, 11)
Concertmaster – Gene Orloff
Drums – Bernard Purdie (tracks: 2, 5, 7 to 11), Rick Marotta (tracks: 1, 3, 4, 6)
Guitar – Cornell Dupree (tracks: 2, 4, 7 to 11), David Spinozza (tracks: 1, 3, 4, 6)
Mixed By – Arif Mardin
Organ – Richard Tee (tracks: 2, 5, 10,11)
Percussion – Pancho Morales (tracks: 2, 7, 9), Ralph MacDonald (tracks: 1 to 4, 6 to 11)
Piano – Aretha Franklin (tracks: 2, 5, 7 to 9)
Producer [Original Recordings Produced By] – Aretha Franklin, Arif Mardin, Jerry Wexler, Tom Dowd
Recorded By – Gene Paul (tracks: 2, 8 to 11), Phil Ramone (tracks: 1, 3, 4, 6)


Tracklist:

01. Let Me In Your Life (03:30)
(Bill Withers)
02. Every Natural Thing (02:37)
(Eddie Hinton)
03. Ain't Nothing Like The Real Thing (03:50)
(Nick Ashford & Valerie Simpson)
04. I'm In Love (02:51)
(Bobby Womack)
05. Until You Come Back To Me (That's What I'm Gonna Do) (03:28)
(Clarence Paul, Morris Broadnax, Stevie Wonder)
06. The Masquerade Is Over (04:32)
(Allie Wrubel, Herbert Magidson)
07. With Pen In Hand (05:08)
(Bobby Goldsboro)
08. Oh Baby (05:00)
(Aretha Franklin)
09. Eight Days On The Road (03:04)
(Jerry Ragovoy, Michael Gayle)
10. If You Don't Think (03:54)
(Aretha Franklin)
11. A Song For You (05:34)
(Leon Russell)

Exact Audio Copy V1.3 from 2. September 2016

EAC extraction logfile from 19. February 2022, 22:03

Aretha Franklin / Let Me In Your Life

Used drive : PIONEER BD-RW BDR-208D Adapter: 1 ID: 0

Read mode : Secure
Utilize accurate stream : Yes
Defeat audio cache : Yes
Make use of C2 pointers : No

Read offset correction : 667
Overread into Lead-In and Lead-Out : No
Fill up missing offset samples with silence : Yes
Delete leading and trailing silent blocks : No
Null samples used in CRC calculations : Yes
Used interface : Native Win32 interface for Win NT & 2000

Used output format : Internal WAV Routines
Sample format : 44.100 Hz; 16 Bit; Stereo


TOC of the extracted CD

Track | Start | Length | Start sector | End sector
––––––––––––––––––––––––––––-
1 | 0:00.00 | 3:29.73 | 0 | 15747
2 | 3:29.73 | 2:36.70 | 15748 | 27517
3 | 6:06.68 | 3:50.10 | 27518 | 44777
4 | 9:57.03 | 2:51.02 | 44778 | 57604
5 | 12:48.05 | 3:28.35 | 57605 | 73239
6 | 16:16.40 | 4:32.18 | 73240 | 93657
7 | 20:48.58 | 5:08.02 | 93658 | 116759
8 | 25:56.60 | 4:59.60 | 116760 | 139244
9 | 30:56.45 | 3:04.18 | 139245 | 153062
10 | 34:00.63 | 3:53.50 | 153063 | 170587
11 | 37:54.38 | 5:34.15 | 170588 | 195652


Range status and errors

Selected range

Filename D:\BlondStyle\Aretha Franklin - Let Me In Your Life.wav

Peak level 97.2 %
Extraction speed 6.5 X
Range quality 100.0 %
Test CRC 32847275
Copy CRC 32847275
Copy OK

No errors occurred


AccurateRip summary

Track 1 accurately ripped (confidence 3) [FF5D17F1] (AR v2)
Track 2 accurately ripped (confidence 3) [B03D369A] (AR v2)
Track 3 accurately ripped (confidence 3) [E50F39FB] (AR v2)
Track 4 accurately ripped (confidence 3) [7C1FCB56] (AR v2)
Track 5 accurately ripped (confidence 3) [4C6D1531] (AR v2)
Track 6 accurately ripped (confidence 3) [84D76445] (AR v2)
Track 7 accurately ripped (confidence 3) [8F715654] (AR v2)
Track 8 accurately ripped (confidence 3) [A23968A6] (AR v2)
Track 9 accurately ripped (confidence 3) [986EF818] (AR v2)
Track 10 accurately ripped (confidence 3) [40E242F7] (AR v2)
Track 11 accurately ripped (confidence 3) [0F2C8650] (AR v2)

All tracks accurately ripped

End of status report

–– CUETools DB Plugin V2.1.6

[CTDB TOCID: 4AnGd_16YEjQPEz7ogqtsp8YtxE-] disk not present in database
Submit result: 4AnGd_16YEjQPEz7ogqtsp8YtxE- has been uploaded


==== Log checksum C78A83945F1336B5D1626BA1167FFE71928DFCC78BE7014A24EFD7914CE738D3 ====

––––––––––––––––––––––––––––––––––––––––
Analyzed: Aretha Franklin / Let Me In Your Life
––––––––––––––––––––––––––––––––––––––––

DR Peak RMS Duration Track
––––––––––––––––––––––––––––––––––––––––
DR9 -0.24 dB -11.14 dB 3:30 01-Let Me In Your Life
DR9 -0.24 dB -10.64 dB 2:37 02-Every Natural Thing
DR11 -0.24 dB -13.18 dB 3:50 03-Ain't Nothing Like The Real Thing
DR9 -0.24 dB -12.46 dB 2:51 04-I'm In Love
DR7 -0.24 dB -9.56 dB 3:28 05-Until You Come Back To Me (That's What I'm Gonna Do)
DR12 -0.24 dB -15.65 dB 4:32 06-The Masquerade Is Over
DR9 -0.24 dB -11.89 dB 5:08 07-With Pen In Hand
DR7 -0.24 dB -10.43 dB 5:00 08-Oh Baby
DR7 -0.48 dB -10.26 dB 3:04 09-Eight Days On The Road
DR8 -0.24 dB -11.41 dB 3:54 10-If You Don't Think
DR9 -0.24 dB -12.52 dB 5:34 11-A Song For You
––––––––––––––––––––––––––––––––––––––––

Number of tracks: 11
Official DR value: DR9

Samplerate: 44100 Hz
Channels: 2
Bits per sample: 16
Bitrate: 854 kbps
Codec: FLAC
================================================================================

See also:

♫~Welcome To My Blog~♫

password: BlondStyle