Tags
Language
Tags

Aretha Franklin - Runnin' Out Of Fools (1964) & Yeah!!! (1965) [2008, Reissue]

Posted By: BlondStyle
Aretha Franklin - Runnin' Out Of Fools (1964) & Yeah!!! (1965) [2008, Reissue]

Aretha Franklin - Runnin' Out Of Fools (1964) & Yeah!!! (1965) [2008, Reissue]
R&B, Soul, Jazz | EAC Rip | FLAC, Img+CUE+LOG+Scans (PNG) | 01:07:46 | 461,56 Mb
Label: Columbia/American Beat Records (US) | Cat.# 24962 | Released: 2008-06-10 (1964-11-16/1965-05-17)
Aretha Franklin - Runnin' Out Of Fools (1964) & Yeah!!! (1965) [2008, Reissue]

"Runnin' Out of Fools" is the 7th studio album by American singer Aretha Franklin, released in 1964 by Columbia Records. It was arranged and conducted by Belford Hendricks. "Yeah!!!" (or "Aretha Franklin In Person With Her Quartet") is the 8th studio album by Aretha Franklin, Released on May 17, 1965 by Columbia Records. Contrary to the overdubbed sounds of audience murmurs, the album was not a live album, but instead was recorded live at New York's Columbia Studios and produced by Clyde Otis. This would be Franklin's last collection of jazz recordings until the release of 1973's Hey Now Hey (The Other Side of the Sky), released during her landmark tenure at Atlantic Records. An expanded version of the album that also contains the original session tracks without audience overdubs has been released on CD in the Columbia Box Set Take A Look: Aretha Franklin Complete On Columbia.
~Wikipedia

Aretha Franklin - Runnin' Out Of Fools (1964) & Yeah!!! (1965) [2008, Reissue]

Aretha Franklin - Runnin' Out Of Fools (1964) & Yeah!!! (1965) [2008, Reissue]





Release of those albums: "Runnin' Out Of Fools" - 1964, November 16 [LP Columbia, Cat.# CS 9081, USA]; "Yeah!!!" - 1965, May, 17 [LP Columbia, Cat.# CS 9151, USA]
Release of this CD: 2008, June 10 [CD American Beat Records (USA), Cat.# 24962 / UPC: 783722249628]
© 2008 American Beat Records. This compilation ℗ 2008 Sony BMG Music Entertainment.
Manufactured by Sony BMG Music Entertainment.
Printed/Made in U.S.A.


Credits:

"Runnin' Out Of Fools"
Arranged By, Conductor – Belford C. Hendricks
Photography By – Henry Parker
Producer – Clyde Otis

"Yeah!!!"
Bass – James "Beans" Richardson
Drums – Hindel Butts
Guitar – Kenny Burrell
Photography By [Studio] – Henry Parker
Piano – Teddy Harris (tracks: 13 to 18, 20, 21, 23)
Producer – Clyde Otis


Tracklist:

"Runnin' Out Of Fools" (1964)

01. Mockingbird (02:36)
(Charlie Foxx, Inez Foxx)
02. How Glad I Am (02:34)
(Jimmy Williams, Larry Harrison)
03. Walk On By (02:49)
(Bacharach And David)
04. Every Little Bit Hurts (02:48)
(Ed Cobb)
05. The Shoop Shoop Song (It's In His Kiss) (02:23)
(Rudy Clark)
06. You'll Lose A Good Thing (02:40)
(Barbara Lynn)
07. I Can't Wait Until I See My Baby's Face (02:46)
(Chip Taylor, Norman Meade)
08. It's Just A Matter Of Time (02:59)
(Belford Hendricks, Brook Benton, Clyde Otis)
09. Runnin' Out Of Fools (02:35)
(Kay Rogers, Richard Ahlert)
10. My Guy (03:05)
(Smokey Robinson)
11. Two Sides Of Love (02:28)
(Roy Alfred)
12. One Room Paradise (02:09)
(J. Leslie McFarland)

"Yeah!!!" (1965)

13. This Could Be The Start Of Something (01:29)
(Steve Allen)
14. Once In A Lifetime (03:22)
(Anthony Newley, Leslie Bricusse)
15. Misty (03:37)
(Erroll Garner, Johnny Burke)
16. More (01:51)
(Nino Oliviero, Riz Ortolani, Norman Newell)
17. There Is No Greater Love (04:41)
(Isham Jones, Marty Symes)
18. Muddy Water (02:27)
(Harry Richman, Jo Trent, Peter De Rose)
19. If I Had A Hammer (02:34)
(Lee Hays, Pete Seeger)
20. Impossible (03:20)
(Steve Allen)
21. Today I Love Ev'rybody (03:25)
(Harold Arlen, Dorothy Fields)
22. Without The One You Love (03:34)
(Aretha Franklin)
23. Trouble In Mind (02:54)
(Richard M. Jones)
24. Love For Sale (02:41)
(Cole Porter)

Exact Audio Copy V1.3 from 2. September 2016

EAC extraction logfile from 11. January 2021, 22:22

Aretha Franklin / Runnin' Out Of Fools (1964) & Yeah!!! (1965)

Used drive : PIONEER BD-RW BDR-208D Adapter: 1 ID: 0

Read mode : Secure
Utilize accurate stream : Yes
Defeat audio cache : Yes
Make use of C2 pointers : No

Read offset correction : 667
Overread into Lead-In and Lead-Out : No
Fill up missing offset samples with silence : Yes
Delete leading and trailing silent blocks : No
Null samples used in CRC calculations : Yes
Used interface : Native Win32 interface for Win NT & 2000

Used output format : Internal WAV Routines
Sample format : 44.100 Hz; 16 Bit; Stereo


TOC of the extracted CD

Track | Start | Length | Start sector | End sector
––––––––––––––––––––––––––––-
1 | 0:00.00 | 2:35.67 | 0 | 11691
2 | 2:35.67 | 2:33.43 | 11692 | 23209
3 | 5:09.35 | 2:49.35 | 23210 | 35919
4 | 7:58.70 | 2:48.32 | 35920 | 48551
5 | 10:47.27 | 2:23.35 | 48552 | 59311
6 | 13:10.62 | 2:39.65 | 59312 | 71301
7 | 15:50.52 | 2:45.45 | 71302 | 83721
8 | 18:36.22 | 2:59.30 | 83722 | 97176
9 | 21:35.52 | 2:34.65 | 97177 | 108791
10 | 24:10.42 | 3:05.10 | 108792 | 122676
11 | 27:15.52 | 2:27.68 | 122677 | 133769
12 | 29:43.45 | 2:08.72 | 133770 | 143441
13 | 31:52.42 | 1:28.70 | 143442 | 150111
14 | 33:21.37 | 3:21.68 | 150112 | 165254
15 | 36:43.30 | 3:37.32 | 165255 | 181561
16 | 40:20.62 | 1:50.45 | 181562 | 189856
17 | 42:11.32 | 4:40.55 | 189857 | 210911
18 | 46:52.12 | 2:27.00 | 210912 | 221936
19 | 49:19.12 | 2:34.00 | 221937 | 233486
20 | 51:53.12 | 3:20.30 | 233487 | 248516
21 | 55:13.42 | 3:24.65 | 248517 | 263881
22 | 58:38.32 | 3:34.10 | 263882 | 279941
23 | 62:12.42 | 2:53.40 | 279942 | 292956
24 | 65:06.07 | 2:40.40 | 292957 | 304996


Range status and errors

Selected range

Filename D:\BlondStyle\Runnin' Out Of Fools (1964) & Yeah!!! (1965).wav

Peak level 99.9 %
Extraction speed 7.5 X
Range quality 100.0 %
Test CRC B124C7DD
Copy CRC B124C7DD
Copy OK

No errors occurred


AccurateRip summary

Track 1 accurately ripped (confidence 2) [C91C4770] (AR v2)
Track 2 accurately ripped (confidence 2) [1BC280B2] (AR v2)
Track 3 accurately ripped (confidence 2) [0FF10265] (AR v2)
Track 4 accurately ripped (confidence 2) [263C3167] (AR v2)
Track 5 accurately ripped (confidence 2) [92351CE2] (AR v2)
Track 6 accurately ripped (confidence 2) [41272D99] (AR v2)
Track 7 accurately ripped (confidence 2) [1AE0E50F] (AR v2)
Track 8 accurately ripped (confidence 2) [57D9CBD7] (AR v2)
Track 9 accurately ripped (confidence 2) [D870536E] (AR v2)
Track 10 accurately ripped (confidence 2) [F2025455] (AR v2)
Track 11 accurately ripped (confidence 2) [F864841D] (AR v2)
Track 12 accurately ripped (confidence 2) [36674B00] (AR v2)
Track 13 accurately ripped (confidence 2) [B857DD24] (AR v2)
Track 14 accurately ripped (confidence 2) [844C8C50] (AR v2)
Track 15 accurately ripped (confidence 2) [3535D4AB] (AR v2)
Track 16 accurately ripped (confidence 3) [B3556C58] (AR v2)
Track 17 accurately ripped (confidence 2) [664DC8EF] (AR v2)
Track 18 accurately ripped (confidence 2) [E644F772] (AR v2)
Track 19 accurately ripped (confidence 2) [6F2574E8] (AR v2)
Track 20 accurately ripped (confidence 2) [11333072] (AR v2)
Track 21 accurately ripped (confidence 2) [BF0E2D79] (AR v2)
Track 22 accurately ripped (confidence 2) [3D72A826] (AR v2)
Track 23 accurately ripped (confidence 2) [2C317362] (AR v2)
Track 24 accurately ripped (confidence 2) [791F98B0] (AR v2)

All tracks accurately ripped

End of status report

–– CUETools DB Plugin V2.1.6

[CTDB TOCID: G8qF6iHk53QE_D7YVlNW11gQ4jg-] found
Submit result: already submitted
Track | CTDB Status
1 | (3/3) Accurately ripped
2 | (3/3) Accurately ripped
3 | (3/3) Accurately ripped
4 | (3/3) Accurately ripped
5 | (3/3) Accurately ripped
6 | (3/3) Accurately ripped
7 | (3/3) Accurately ripped
8 | (3/3) Accurately ripped
9 | (3/3) Accurately ripped
10 | (3/3) Accurately ripped
11 | (3/3) Accurately ripped
12 | (3/3) Accurately ripped
13 | (3/3) Accurately ripped
14 | (3/3) Accurately ripped
15 | (3/3) Accurately ripped
16 | (3/3) Accurately ripped
17 | (3/3) Accurately ripped
18 | (3/3) Accurately ripped
19 | (3/3) Accurately ripped
20 | (3/3) Accurately ripped
21 | (3/3) Accurately ripped
22 | (3/3) Accurately ripped
23 | (3/3) Accurately ripped
24 | (3/3) Accurately ripped


==== Log checksum 9CF1748D9F3EBF2075B1193B92D76C52B3B6CDF7D6CBAD899FA6AE12B2423155 ====

––––––––––––––––––––––––––––––––––––––––
Analyzed: Aretha Franklin / Runnin' Out Of Fools (1964) & Yeah!!! (1965)
––––––––––––––––––––––––––––––––––––––––

DR Peak RMS Duration Track
––––––––––––––––––––––––––––––––––––––––
DR12 -0.04 dB -13.21 dB 2:36 01-Mockingbird
DR10 -0.64 dB -13.79 dB 2:34 02-How Glad I Am
DR11 -0.04 dB -13.99 dB 2:49 03-Walk On By
DR11 -0.76 dB -13.76 dB 2:48 04-Every Little Bit Hurts
DR11 -0.03 dB -13.27 dB 2:23 05-The Shoop Shoop Song (It's In His Kiss)
DR11 -0.81 dB -14.17 dB 2:40 06-You'll Lose A Good Thing
DR11 -0.04 dB -13.55 dB 2:46 07-I Can't Wait Until I See My Baby's Face
DR10 -0.88 dB -13.85 dB 2:59 08-It's Just A Matter Of Time
DR11 -0.04 dB -13.15 dB 2:35 09-Runnin' Out Of Fools
DR11 -0.04 dB -13.12 dB 3:05 10-My Guy
DR11 -0.34 dB -13.18 dB 2:28 11-Two Sides Of Love
DR9 -0.72 dB -12.04 dB 2:09 12-One Room Paradise
DR11 -0.54 dB -12.71 dB 1:29 13-This Could Be The Start Of Something
DR12 -0.09 dB -16.47 dB 3:22 14-Once In A Lifetime
DR11 -0.04 dB -15.22 dB 3:37 15-Misty
DR11 -0.79 dB -13.42 dB 1:51 16-More
DR10 -0.89 dB -15.60 dB 4:41 17-There Is No Greater Love
DR10 -0.29 dB -12.47 dB 2:27 18-Muddy Water
DR11 -0.29 dB -13.37 dB 2:34 19-If I Had A Hammer
DR12 0.00 dB -17.32 dB 3:20 20-Impossible
DR10 -0.04 dB -13.75 dB 3:25 21-Today I Love Ev'rebody
DR12 0.00 dB -15.99 dB 3:34 22-Without The One You Love
DR12 -0.04 dB -13.96 dB 2:54 23-Trouble In Mind
DR11 -0.04 dB -14.56 dB 2:41 24-Love For Sale
––––––––––––––––––––––––––––––––––––––––

Number of tracks: 24
Official DR value: DR11

Samplerate: 44100 Hz
Channels: 2
Bits per sample: 16
Bitrate: 761 kbps
Codec: FLAC
================================================================================

See also:

♫~Welcome To My Blog~♫

password: BlondStyle