Tags
Language
Tags

Aretha Franklin - Sweet Bitter Love (1982) [1989, Digitally Remastered Reissue]

Posted By: BlondStyle
Aretha Franklin - Sweet Bitter Love (1982) [1989, Digitally Remastered Reissue]

Aretha Franklin - Sweet Bitter Love (1982) [1989, Digitally Remastered Reissue]
R&B, Soul, Blues, Southern Soul | EAC Rip | FLAC, Img+CUE+LOG+Scans (PNG) | 29:53 | 288,71 Mb
Label: Columbia (USA) | Cat.# CK 38042 | Released: 1989-08-24 (1982)

This anthology has a distinct purpose-to demonstrate that while at Columbia Records, Aretha Franklin did some exceptionally fine, even memorable, ballad singing. Aretha's early pop career has been consistently denigrated. The conventional line has it that while at Columbia, she was drowned in a sea of strings, her sensibility withered by a steady diet of Tin Pan Alley material more suitable for Nancy Wilson or Diahann Carroll. Lord knows there were many bloated, catastrophic recordings during those years. And even some of her most sensitive ballad readings were hindered by arrangements and orchestrations that were far from sympathetic-either too lush and overblown, or prosaicly simple. For these reasons, this album is more an anthology of great moments than of fully realized productions. But these tentative excursions by a former gospel singer into a strange new world possess a rare delicacy and fervor. The two sides of this anthology represent two very different aspects of her ballad singing. The first side catches her working in the stately morose, sometimes repressive confines of the late fifties rhythm-and-blues tradition. Most of the tunes could be classified as blues ballads. All these cuts, save one, were done under the supervision of John Hammond, the man who discovered Billie Holiday, recorded Bessie Smiths last sides, and considered the 18-year-old Franklin to be a comparable genius. Therefore, tradition weighed heavily on her. Aretha was also very much under the influence of the reigning queen of the blues, Dinah Washington. She appears to be slowly paring down the gospel and nightclub R&B traditions to their essentials. There’s a chilly precision in Franklin’s phrasing that one never hears in her later work. Her use of melisma (the gospel-derived technique of stretching one sound over several notes) is restrained. Everything here is straightforward and without guile. Aretha had not yet learned to mix genres or to operate at more than one emotional level at once. The mournful songs like Van McCoy’s “Sweet Bitter Love,” and the songs of yearning like Cleveland’s “Nobody Like You,” remain at one persistent, somber level. The late-adolescent naked quality of this approach is mirrored in the simple, repetitive piano triplets and basic gospel chordings that accompany her. Like haiku, they can be heartbreaking ... especially the concluding lines of “Sweet Bitter Love.” The second side of this anthology features Aretha adrift in Tin Pan Alley under the wing of producer Robert Mersey Mersey was rarely content with less than 50 violins and a 40-piece vocal chorus. In a funny way though, Tin Pan Alley meant freedom for her-a chance to escape from the confines of traditional R&B. She was given the opportunity to tackle the intricate chord changes in “Skylark,” and the ambiguities involved in Billie Holiday’s “God Bless The Child”. In searching for the five pop ballads for side 2, we listened to close to 50 of the Mersey-Franklin collaborations. There are many clinkers in the bunch, tunes where Aretha was sunk in arrangements that didn’t allow the lyrics to take hold. But on these five, something happened. The clash of styles, of temperaments, of sensibilties, sometimes stirred her imagination. Casting her as Queen Guinevere on the Lerner- Loewe “If Ever I Would Leave You” is a case in point. Admittedly, there are portions in her reading of this rather cumbersome opus that are listless. But then an individual line comes along and strikes her fancy... .“Your hair streaked with sunlight” or “I see how you sparkle.” Her voice goes up an octave or more. But she invariably screams out the word that comes right before the word she really wants to emphasize. Then she pauses at what seems to be the most unlikely moment. Finally, she slowly, delicately, quietly stretches out her key words-“streaked” or “sparkled.” Her timing is so unexpected, and the release of a tension so great that these phrases are remembered decades later. (In fact, Curtis Mayfield named the album he produced for her Sparkle as homage to her version of this song.) It’s with these somewhat awkward, unwieldy pop ballads that Aretha really developed her own style of soul. Here, truly, she does operate on several emotional planes at once. Ten years ago, I saw her at the Apollo during one of her many comeback tours. At this stage of her life she had already tired of the uptempo numbers. Though she performed “Rock Steady” and “Chain Of Fools,” her heart was in the ballads. My friend Paul said, “Her real gift isn’t blues or gospel technique. It’s that she’s one of the only artists who actually conveys what can happen between two people... those rare moments when everything’s rght”. This anthology shows how she developed this gift, this art.
~Review by Russell Qersten Eugene, Oregon

Aretha Franklin - Sweet Bitter Love (1982) [1989, Digitally Remastered Reissue]

Aretha Franklin - Sweet Bitter Love (1982) [1989, Digitally Remastered Reissue]




Release of the album: 1982 [LP CBS/Columbia, Cat.# PC 38042, USA]
Release of this CD: 1989, August, 24 [CD Columbia (USA), Cat.# CK 38042 / UPC: 074643804226]
©℗ 1982 CBS Records Inc.
Manufactured by Columbia Records/CBS Records Inc.
Printed/Made in USA


Notes: Reissue. AAD. Digitally remastered for compact disc by Mark Wilder.

Credits:

Cover Art – Ken Robbins
Design – John Berg/Peter A. Alfieri
Mastered By – Allen Landau
Photography – Vernon L. Smith
Producer – Bobby Scott (tracks: 3), Clyde Otis (tracks: 5), John Hammond (tracks: 1, 2, 3, 4), Robert Mersey (tracks: 1, 2,4,5)
Remastered By – Mark Wilder


Tracklist:

01. All Night Long (02:59)
(Curtis Lewis)
02. Ac-Cen-Tchu-Ate The Positive (02:19)
(Harold Arlen, Johnny Mercer)
03. Nobody Like You (02:23)
(James Cleveland)
04. Today I Sing The Blues (02:47)
(Curley Hamner, Curtis Lewis, Curtis Reginald Lewis)
05. Seet Bitter Love (03:00)
(Van McCoy)
06. Try A Little Tenderness (03:18)
(Jimmy Campbell, Reginald Connelly, Harry Woods)
07. Skylark (02:54)
(Hoagy Carmichael, Johnny Mercer)
08. Johnny (03:03)
(Joseph Scott)
09. God Bless The Child (03:04)
(Billie Holiday, Arthur Herzog, Jr.)
10. If Ever I Would Leave You (04:05)
(Alan Jay Lerner, Frederick Loewe)

Exact Audio Copy V1.3 from 2. September 2016

EAC extraction logfile from 18. February 2019, 20:10

Aretha Franklin / Sweet Bitter Love

Used drive : PIONEER BD-RW BDR-208D Adapter: 1 ID: 0

Read mode : Secure
Utilize accurate stream : Yes
Defeat audio cache : Yes
Make use of C2 pointers : No

Read offset correction : 667
Overread into Lead-In and Lead-Out : No
Fill up missing offset samples with silence : Yes
Delete leading and trailing silent blocks : No
Null samples used in CRC calculations : Yes
Used interface : Native Win32 interface for Win NT & 2000

Used output format : Internal WAV Routines
Sample format : 44.100 Hz; 16 Bit; Stereo


TOC of the extracted CD

Track | Start | Length | Start sector | End sector
––––––––––––––––––––––––––––-
1 | 0:00.00 | 2:59.10 | 0 | 13434
2 | 2:59.10 | 2:18.72 | 13435 | 23856
3 | 5:18.07 | 2:22.65 | 23857 | 34571
4 | 7:40.72 | 2:47.03 | 34572 | 47099
5 | 10:28.00 | 3:00.15 | 47100 | 60614
6 | 13:28.15 | 3:18.17 | 60615 | 75481
7 | 16:46.32 | 2:53.68 | 75482 | 88524
8 | 19:40.25 | 3:03.10 | 88525 | 102259
9 | 22:43.35 | 3:04.07 | 102260 | 116066
10 | 25:47.42 | 4:05.33 | 116067 | 134474


Range status and errors

Selected range

Filename D:\BlondStyle\Aretha Franklin - Sweet Bitter Love.wav

Peak level 97.7 %
Extraction speed 6.2 X
Range quality 100.0 %
Test CRC B4844FC7
Copy CRC B4844FC7
Copy OK

No errors occurred


AccurateRip summary

Track 1 cannot be verified as accurate (confidence 2) [84967483], AccurateRip returned [054D28B3] (AR v2)
Track 2 cannot be verified as accurate (confidence 2) [11E2852A], AccurateRip returned [7FBE3C0A] (AR v2)
Track 3 cannot be verified as accurate (confidence 2) [C11917EC], AccurateRip returned [F0BA448D] (AR v2)
Track 4 cannot be verified as accurate (confidence 2) [8E504A5F], AccurateRip returned [8AEBA970] (AR v2)
Track 5 cannot be verified as accurate (confidence 2) [0340D3C0], AccurateRip returned [3258A1FD] (AR v2)
Track 6 cannot be verified as accurate (confidence 2) [E48B634C], AccurateRip returned [8F3A1F44] (AR v2)
Track 7 cannot be verified as accurate (confidence 2) [CE63C419], AccurateRip returned [0C9A2CA8] (AR v2)
Track 8 cannot be verified as accurate (confidence 2) [9A7E08D9], AccurateRip returned [7772FF7B] (AR v2)
Track 9 cannot be verified as accurate (confidence 2) [8EA7DFCA], AccurateRip returned [FC81E843] (AR v2)
Track 10 cannot be verified as accurate (confidence 2) [A77801E2], AccurateRip returned [7C6951F5] (AR v2)

No tracks could be verified as accurate
You may have a different pressing from the one(s) in the database

End of status report

–– CUETools DB Plugin V2.1.6

[CTDB TOCID: Gy1Q8J70GxXtfCkyr6hyo3PNxlc-] found
Submit result: Gy1Q8J70GxXtfCkyr6hyo3PNxlc- has been confirmed
Track | CTDB Status
1 | (8/8) Accurately ripped
2 | (8/8) Accurately ripped
3 | (8/8) Accurately ripped
4 | (8/8) Accurately ripped
5 | (8/8) Accurately ripped
6 | (8/8) Accurately ripped
7 | (8/8) Accurately ripped
8 | (8/8) Accurately ripped
9 | (8/8) Accurately ripped
10 | (8/8) Accurately ripped


==== Log checksum BB540296AA1BCCB24E096B3F43EE4AC8D724B9059E218D8259D68FDD49F5AB59 ====

––––––––––––––––––––––––––––––––––––––––
Analyzed: Aretha Franklin / Sweet Bitter Love
––––––––––––––––––––––––––––––––––––––––

DR Peak RMS Duration Track
––––––––––––––––––––––––––––––––––––––––
DR12 -0.64 dB -17.01 dB 2:59 01-All Night Long
DR11 -0.20 dB -13.55 dB 2:19 02-Ac-Cen-Tchu-Ate The Positive
DR12 -0.88 dB -16.44 dB 2:23 03-Nobody Like You
DR12 -0.90 dB -16.65 dB 2:47 04-Today I Sing The Blues
DR9 -1.62 dB -14.70 dB 3:00 05-Seet Bitter Love
DR12 -0.43 dB -15.93 dB 3:18 06-Try A Little Tenderness
DR11 -0.89 dB -15.52 dB 2:54 07-Skylark
DR10 -2.61 dB -15.95 dB 3:03 08-Johnny
DR11 -1.68 dB -15.74 dB 3:04 09-God Bless The Child
DR10 -2.05 dB -15.91 dB 4:05 10-If Ever I Would Leave You
––––––––––––––––––––––––––––––––––––––––

Number of tracks: 10
Official DR value: DR11

Samplerate: 44100 Hz
Channels: 2
Bits per sample: 16
Bitrate: 762 kbps
Codec: FLAC
================================================================================

See also:

♫~Welcome To My Blog~♫

password: BlondStyle